#TITLE:Torero;
#SUBTITLE:;
#ARTIST:Chayanne;
#TITLETRANSLIT:;
#SUBTITLETRANSLIT:;
#ARTISTTRANSLIT:;
#GENRE:;
#CREDIT:;
#BANNER:Torero.png;
#BACKGROUND:Torero bg.png;
#LYRICSPATH:;
#CDTITLE:Magna Trick title!.png;
#MUSIC:Torero.mp3;
#OFFSET:-0.126000;
#SAMPLESTART:48.590000;
#SAMPLELENGTH:12.000000;
#SELECTABLE:YES;
#BPMS:0.000000=136.026993
,17.000000=272.053986
,199.000000=136.026993
,201.000000=272.053986
,239.000000=544.109009
,247.000000=272.053986
,303.000000=544.109009
,311.000000=272.053986
;
#STOPS:201.000000=0.110000,
201.500000=0.110000,
202.000000=0.331000,
202.500000=0.331000,
265.000000=0.110000,
265.500000=0.110000,
266.000000=0.331000,
266.500000=0.331000,
327.000000=0.110000,
327.500000=0.110000,
328.000000=0.110000,
328.500000=0.110000,
329.000000=0.110000
;
#BGCHANGES:1.000=Torero.mp4=1.000=0=0=1=====,
99999=-nosongbg-=1.000=0=0=0 // don't automatically add -songbackground-
;
#KEYSOUNDS:;
#ATTACKS:;

//---------------dance-single - Magna Trick----------------
#NOTES:
     dance-single:
     Magna Trick:
     Beginner:
     2:
     0.214641,0.423136,0.038525,0.141259,0.000000,117.000000,114.000000,3.000000,11.000000,0.000000,0.000000,0.214641,0.423136,0.038525,0.141259,0.000000,117.000000,114.000000,3.000000,11.000000,0.000000,0.000000:
0000
1001
0000
0000
,
0000
0000
0000
0000
,
0000
0110
0000
0000
,
0000
0000
0000
0000
,
0000
0010
0000
0010
,
0000
0010
0000
0000
,
0000
0000
0000
0000
,
0000
0000
0000
0000
,
0000
1000
0000
1000
,
0000
1000
0000
0000
,
0000
0000
0000
0000
,
0000
0000
0000
0000
,
0000
0001
0000
0001
,
0000
0001
0000
0000
,
0000
0000
0000
0000
,
0000
0000
0000
0000
,
0000
1000
0000
1000
,
0000
1000
0000
1000
,
0000
0001
0000
0001
,
0000
1000
0000
0001
,
0000
0000
0000
0100
,
0000
0000
0000
0010
,
0000
0000
0000
1000
,
0000
1000
0000
0000
,
0000
0100
0000
0000
,
0000
0010
0000
0000
,
0000
0001
0000
0001
,
0000
0001
0000
0000
,
0000
1000
0000
0000
,
0000
0001
0000
0000
,
0000
1000
0000
1000
,
0000
1000
0000
0000
,
0000
0010
0000
0000
,
0000
0100
0000
0000
,
0000
0001
0000
0001
,
0000
0001
0000
0000
,
0000
1000
0000
0000
,
0000
0001
0000
0000
,
0000
1000
0000
1000
,
0000
1000
0000
0000
,
0000
0010
0000
0000
,
0000
0100
0000
0000
,
0000
0001
0000
0001
,
0000
0001
0000
0000
,
0000
1000
0000
0000
,
0000
0100
0000
0000
,
0000
0010
0000
0010
,
0000
0010
0000
0000
,
0000
0100
0000
0000
,
0000
1000
0000
0002
,
0000
0000
1003
0100
0010
0001
1000
0000
,
0001
0000
0000
0100
,
0000
0010
0000
0100
,
0000
0000
0000
0001
,
0000
0001
0000
1000
,
0000
1000
0000
0001
,
0000
0001
0000
1000
,
0000
1000
0000
0002
,
0000
0003
0000
0100
,
0000
0010
0000
2000
,
0000
0000
0000
3002
,
0000
0000
0000
1003
,
0000
0001
0000
1000
,
0000
0001
0000
2000
,
0000
0000
0000
3002
,
0000
0000
0000
1003
,
0000
0000
0001
0010
0100
1000
0001
0000
,
1000
0000
0000
0010
,
0000
0100
0000
0010
,
0000
0000
0000
1000
,
0000
1000
0000
0001
,
0000
0001
0000
1000
,
0000
1000
0000
0001
,
0000
0001
0000
2000
,
0000
0000
0000
3000
0000
0000
0010
0000
,
0000
0100
0000
0002
,
0000
0000
0000
2003
,
0000
0000
0000
3001
,
0000
1000
0000
0001
,
0000
1000
0000
0002
,
0000
0000
0000
2003
,
0000
0000
0000
3000
,
0000
0000
0000
0110
0000
0000
0000
0000
;

//---------------dance-single - Magna Trick----------------
#NOTES:
     dance-single:
     Magna Trick:
     Easy:
     4:
     0.284353,0.423136,0.038525,0.231152,0.000000,155.000000,152.000000,3.000000,18.000000,0.000000,0.000000,0.284353,0.423136,0.038525,0.231152,0.000000,155.000000,152.000000,3.000000,18.000000,0.000000,0.000000:
0000
1010
0000
0010
,
0000
0010
0000
0010
,
0000
0101
0000
0100
,
0000
0100
0000
0100
,
0000
0001
0000
0001
,
0000
0002
0000
0000
,
0000
0000
0000
0003
0000
0000
1000
0000
,
0000
1000
0000
1000
,
0000
0100
0000
0100
,
0000
0200
0000
0000
,
0000
0000
0300
0010
,
0000
0010
0000
0010
,
0000
0001
0000
0001
,
0000
0002
0000
0000
,
0000
0000
0003
1000
,
0000
1000
0000
1000
,
0000
0002
0003
0002
,
0003
0002
0003
0002
,
0003
1000
0000
1000
,
0000
0001
0000
1001
,
0000
1000
0000
0010
,
0000
1000
0000
0100
,
0000
1000
0000
0001
,
0000
0001
0000
0000
,
0000
0001
0000
0010
,
0000
0001
0000
0100
,
0000
0001
0000
1000
,
0000
1000
0000
0000
,
0000
1000
0000
0010
,
0000
1000
0000
0100
,
0000
1000
0000
0001
,
0000
0001
0000
0000
,
0000
0001
0000
0010
,
0000
0001
0000
0100
,
0000
0001
0000
1000
,
0000
1000
0000
0000
,
0000
0001
0000
1000
,
0000
0001
0000
1000
,
0000
0001
0000
0100
,
0000
0010
0000
0000
,
0000
1000
0000
0001
,
0000
1000
0000
0001
,
0000
1000
0000
0010
,
0000
0100
0000
0000
,
0000
0010
0000
0100
,
0000
0010
0000
0100
,
0000
0010
0000
0001
,
0000
1000
0000
0000
,
0000
0100
0000
0010
,
0000
0100
0000
2000
,
0000
0000
3001
0010
0100
1000
0001
0000
,
1000
0000
0000
0010
,
0000
0100
0000
0010
,
0000
0000
0000
1000
,
0000
1000
0000
0001
,
0000
0001
0000
1000
,
0000
1000
0000
0001
,
0000
0001
0000
2000
,
0000
3000
0000
0010
,
0000
0100
0000
0002
,
0000
0000
0000
2003
,
0000
0000
0000
3001
,
0000
1000
0000
0001
,
0000
1000
0000
0002
,
0000
0010
0000
2003
,
0000
0010
0000
3001
,
0000
0000
1000
0100
0010
0001
1000
0000
,
0001
0000
0000
0100
,
0000
0010
0000
0100
,
0000
0000
0000
0001
,
0000
0001
0000
1000
,
0000
1000
0000
0001
,
0000
0001
0000
1000
,
0000
1000
0000
0002
,
0000
0000
0000
0003
0000
0000
0100
0000
,
0000
0010
0000
2000
,
0000
0000
0000
3002
,
0000
0000
0000
1003
,
0000
0001
0000
1000
,
0000
0001
0000
2000
,
0000
0100
0000
3002
,
0000
0100
0000
1003
,
0001
0000
1000
0001
0000
0000
0000
0000
;

//---------------dance-single - Magna Trick----------------
#NOTES:
     dance-single:
     Magna Trick:
     Medium:
     7:
     0.333886,0.528920,0.038525,0.243993,0.000000,182.000000,179.000000,3.000000,19.000000,0.000000,0.000000,0.333886,0.528920,0.038525,0.243993,0.000000,182.000000,179.000000,3.000000,19.000000,0.000000,0.000000:
0000
0101
0001
0100
,
0010
0100
0001
0100
,
0000
1010
1000
0010
,
0100
0010
1000
0010
,
0000
1000
0100
1000
,
0100
2000
0000
0000
,
0000
0000
0000
3000
0000
0000
0001
0000
,
0010
0001
0010
0001
,
0000
0010
0000
0010
,
0100
0020
0000
0000
,
0000
0000
0030
0100
,
1000
0100
1000
0100
,
0000
1000
0000
1000
,
0001
2000
0000
0000
,
0000
0000
3000
0001
,
0100
0001
0100
0001
,
0000
2000
3000
2000
,
3000
2000
3000
2000
,
3000
0002
0000
0000
,
0000
0000
0003
1001
,
0000
0001
0000
0100
,
0000
0001
0000
0010
,
0000
0001
0000
1000
,
0000
1000
0000
0000
,
0000
1000
0000
0100
,
0000
1000
0000
0010
,
0000
1000
0000
0001
,
0000
0001
0000
0000
,
0001
1000
0001
0100
,
0000
0001
0000
0010
,
0000
0001
0000
1000
,
0000
1000
0000
0000
,
1000
0001
1000
0100
,
0000
1000
0000
0010
,
0000
1000
0000
0001
,
0000
0001
0000
0000
,
0000
1000
0001
1000
,
0000
0001
0000
1000
,
0000
0001
0000
0010
,
0000
0100
0000
0000
,
0000
0001
1000
0001
,
0000
1000
0000
0001
,
0000
1000
0000
0100
,
0000
0010
0000
0000
,
0100
0010
0100
0010
,
0000
0100
0000
0010
,
0000
0100
0000
1000
,
0000
0001
0000
0010
,
0100
0010
0000
0100
,
0000
0010
0000
0002
,
0000
0000
1003
0100
0010
0001
1000
0000
,
0001
0000
0000
0100
,
0000
0010
0000
0100
,
0010
0000
0000
0001
,
0000
0001
0000
1000
,
0000
1000
0000
0001
,
0000
0001
0000
1000
,
0000
1000
0000
0002
,
0000
0003
0001
0100
,
0000
0010
0000
2000
,
0000
0000
0000
3002
,
0000
0000
0000
1003
,
0000
0001
0000
1000
,
0000
0001
0000
2000
,
0000
0100
0000
3002
,
0000
0100
0000
1003
,
0000
0000
0001
0010
0100
1000
0001
0000
,
1000
0000
0100
0010
,
0000
0100
0000
0010
,
0000
0000
0000
1000
,
0000
1000
0000
0001
,
0000
0001
0000
1000
,
0000
1000
0000
0001
,
0000
0001
0000
2000
,
0000
0000
0000
3000
0000
0000
0010
0000
,
0000
0100
0000
0002
,
0000
0000
0000
2003
,
0000
0000
0000
3001
,
0000
1000
0000
0001
,
0000
1000
0000
0002
,
0000
0010
0000
2003
,
0000
0010
0000
3001
,
1000
0000
0001
1000
0000
0000
0000
0000
;

//---------------dance-single - Magna Trick----------------
#NOTES:
     dance-single:
     Magna Trick:
     Hard:
     9:
     0.486152,0.846271,0.038525,0.359569,0.000000,265.000000,262.000000,3.000000,28.000000,0.000000,0.000000,0.486152,0.846271,0.038525,0.359569,0.000000,265.000000,262.000000,3.000000,28.000000,0.000000,0.000000:
// measure 0
0000
0000
1010
1000
0010
0100
0010
1000
,  // measure 1
0010
0100
0010
1000
0010
0100
0002
0000
,  // measure 2
0003
0000
0101
0001
0100
0010
0100
0001
,  // measure 3
0100
0010
0100
0001
0100
0010
2000
0000
,  // measure 4
3000
0001
0010
0001
,  // measure 5
0010
0002
0000
1000
,  // measure 6
0000
0000
1000
0003
0000
0000
1000
0000
,  // measure 7
0100
1000
0100
1000
,  // measure 8
0001
0100
0010
0100
,  // measure 9
0010
0200
0000
0010
,  // measure 10
0000
0010
0300
0010
,  // measure 11
1000
0010
1000
0010
,  // measure 12
0100
0001
1000
0001
,  // measure 13
1000
0002
0000
0010
,  // measure 14
0000
0010
0103
1000
,  // measure 15
0010
1000
0010
1000
,  // measure 16
0001
0002
0003
0002
,  // measure 17
0003
0002
0003
0002
,  // measure 18
0003
2000
0000
0000
,  // measure 19
0000
0000
3000
1001
,  // measure 20
0000
1000
0010
1000
,  // measure 21
0000
0001
0100
0001
,  // measure 22
0000
1000
0000
0001
,  // measure 23
0010
0100
0000
0000
,  // measure 24
0000
1000
0100
1000
,  // measure 25
0000
0001
0010
0001
,  // measure 26
0000
0001
0000
1000
,  // measure 27
0010
0100
0000
0000
,  // measure 28
0001
0001
1000
0010
,  // measure 29
1000
0100
1000
0100
,  // measure 30
0000
1000
0000
0001
,  // measure 31
0100
0001
0000
0000
,  // measure 32
0001
1000
0001
0010
,  // measure 33
0100
1000
0100
2000
,  // measure 34
0000
0000
3001
1000
,  // measure 35
0010
0100
0001
0000
,  // measure 36
0100
0001
1000
0001
,  // measure 37
0010
0100
1000
0001
,  // measure 38
0000
1000
0000
0100
,  // measure 39
0010
0001
0000
0000
,  // measure 40
0000
1000
0001
1000
,  // measure 41
0001
0001
1000
0020
,  // measure 42
0000
0130
0001
0010
,  // measure 43
0100
1000
0001
0000
,  // measure 44
0010
0100
0010
0100
,  // measure 45
1000
0001
0010
0200
,  // measure 46
0000
0310
0001
0001
,  // measure 47
1000
1000
0010
0100
,  // measure 48
0001
1000
0100
0010
,  // measure 49
0001
0100
0001
2000
,  // measure 50
0000
0000
3001
0010
0100
1000
0001
0000
,  // measure 51
1000
0000
1000
0010
,  // measure 52
0000
0100
0000
0000
0001
0000
0010
0000
,  // measure 53
0100
0000
0100
1000
,  // measure 54
0000
1000
0000
0000
0001
0000
0100
0000
,  // measure 55
0010
0100
0001
0010
,  // measure 56
0100
0010
0001
0100
,  // measure 57
0010
0100
0001
2000
,  // measure 58
0000
3000
1000
0010
,  // measure 59
0000
0100
0000
0002
,  // measure 60
0000
0010
0000
2003
,  // measure 61
0000
0000
0000
3001
,  // measure 62
0001
1000
1000
0002
,  // measure 63
0000
2003
3000
0002
,  // measure 64
0000
0010
0000
2003
,  // measure 65
0000
0010
0000
3001
,  // measure 66
0000
0000
1000
0100
0010
0001
1000
0000
,  // measure 67
0001
0000
0001
0100
,  // measure 68
0000
0010
0000
0000
1000
0000
0100
0000
,  // measure 69
0010
0000
0010
0001
,  // measure 70
0000
0001
0000
0000
1000
0000
0010
0000
,  // measure 71
0100
0010
1000
0100
,  // measure 72
0010
0100
1000
0010
,  // measure 73
0100
0010
1000
0002
,  // measure 74
0000
0003
0001
0100
,  // measure 75
0000
0010
0000
2000
,  // measure 76
0000
0100
0000
3002
,  // measure 77
0000
0000
0000
1003
,  // measure 78
1000
0001
0001
2000
,  // measure 79
0000
3002
0003
2000
,  // measure 80
0000
0100
0000
3002
,  // measure 81
0000
0000
0100
0000
0000
0000
1003
0001
,  // measure 82
1000
0001
1000
0010
0000
0000
0000
0000
;

//---------------dance-single - Magna Trick----------------
#NOTES:
     dance-single:
     Magna Trick:
     Challenge:
     13:
     0.621908,0.899163,0.154101,0.321044,0.006421,339.000000,327.000000,12.000000,25.000000,0.000000,0.000000,0.621908,0.899163,0.154101,0.321044,0.006421,339.000000,327.000000,12.000000,25.000000,0.000000,0.000000:
0000
0000
0101
0001
0100
0010
0100
0001
,
0100
0010
0100
0001
0100
0010
2000
0000
,
3000
0010
1010
1000
0010
0100
0010
1000
,
0010
0100
0010
1000
0010
0100
0002
0000
,
0003
0000
1000
0000
0001
0100
0010
0100
,
0001
2000
0000
0001
,
0000
0000
0001
3000
0000
0000
0001
0000
,
0010
0001
0010
0001
,
1000
0000
0010
0000
0100
0001
0010
0001
,
0100
0020
0000
0100
,
0000
0100
0030
0100
,
0001
0100
0001
0100
,
0010
0000
1000
0000
0001
0010
0100
0010
,
0001
2000
0000
0100
,
0000
0100
3010
0001
,
0100
0001
0100
0001
,
1000
0000
0100
0000
0000
0100
0010
0000
,
0000
0010
0001
0000
0000
0001
1000
0000
,
0001
0000
1001
0100
0010
1000
0100
0010
,
0001
0100
0010
1000
0100
1000
1001
0000
,
1000
0001
0100
0001
,
1000
1000
0010
2000
,
0000
3001
0100
0100
,
0010
1000
0100
0000
,
0010
0001
1000
0001
,
1000
1000
0100
2000
,
0000
3001
0010
0001
,
0100
0010
1000
0000
,
1000
1000
0001
0100
,
0001
0010
0010
0200
,
0000
1300
0001
1000
,
0010
1000
0100
0000
,
1000
0001
1000
0100
,
0010
0001
0010
0002
,
0000
0000
1000
0000
1003
0100
0001
0000
,
0100
0000
0010
0000
0001
0010
0001
0010
,
0100
1001
0001
1000
,
0100
0010
0001
2000
,
0000
3001
0010
0001
,
0100
1000
0100
0000
,
0001
0001
1000
0001
,
1000
1000
0001
0200
,
0000
0310
1000
0100
,
0010
0001
1000
0000
,
0100
0010
0100
0010
,
0001
1000
0100
0020
,
0000
0130
1000
1000
,
0001
0001
0100
0010
,
1000
0001
0010
0100
,
1000
0010
1000
0002
,
1003
0000
1000
0001
1000
0000
0100
0000
0010
0000
0001
0000
1000
0000
0000
0000
,
0001
0000
0001
0100
,
0010
1000
0000
1000
0010
0000
0100
0000
,
0010
0000
0010
1000
,
0100
0010
0000
0010
0001
0000
0010
0000
,
1000
0010
0001
0100
,
1000
0100
0001
0010
,
0100
0010
0001
0002
,
0000
1003
0110
1001
,
0000
1010
0000
1000
,
0100
0010
0001
2000
,
0000
0000
0000
3100
,
0100
0010
0010
0002
,
0000
0023
0030
2000
,
0100
0001
0010
3002
,
0100
1000
0010
0103
,
0000
0000
0001
0010
0100
1000
0001
0000
,
1000
0000
1000
0010
,
0100
0001
0000
0001
0100
0000
0010
0000
,
0100
0000
0100
0001
,
0010
0100
0000
0100
1000
0000
0100
0000
,
0001
0100
1000
0010
,
0001
0010
1000
0100
,
0010
0100
1000
2000
,
0000
3001
0110
1001
,
0000
0101
0000
0001
,
0010
0100
1000
0002
,
0000
0000
0000
0013
,
0010
0100
0100
2000
,
0000
3200
0300
0002
,
0010
1000
0100
2003
,
0010
0000
0001
0000
0100
0000
3010
1000
,
0001
1000
0001
0110
0000
0000
0000
0000
;
