#VERSION:0.83;
#TITLE:This Is My Show;
#SUBTITLE:Hype Me For Your Life -Chilean Rhythm Videogame-;
#ARTIST:Debonita Conker;
#TITLETRANSLIT:;
#SUBTITLETRANSLIT:;
#ARTISTTRANSLIT:;
#GENRE:;
#ORIGIN:;
#CREDIT:;
#BANNER:This Is My Show.png;
#BACKGROUND:This Is My Show bg.png;
#PREVIEWVID:;
#JACKET:;
#CDIMAGE:;
#DISCIMAGE:;
#LYRICSPATH:;
#CDTITLE:Magna Trick title!.png;
#MUSIC:This Is My Show.ogg;
#OFFSET:0.263391;
#SAMPLESTART:36.000000;
#SAMPLELENGTH:12.000000;
#SELECTABLE:YES;
#BPMS:0.000=184.983;
#STOPS:;
#DELAYS:;
#WARPS:;
#TIMESIGNATURES:0.000=4=4;
#TICKCOUNTS:0.000=4;
#COMBOS:0.000=1;
#SPEEDS:0.000=1.000=0.000=0;
#SCROLLS:0.000=1.000;
#FAKES:;
#LABELS:0.000=Song Start;
#BGCHANGES:0.188=This Is My Show.mp4=1.000=0=0=1=====,
99999=-nosongbg-=1.000=0=0=0 // don't automatically add -songbackground-
;
#KEYSOUNDS:;
#ATTACKS:
;

//---------------dance-single - Magna Trick----------------
#NOTEDATA:;
#CHARTNAME:Magna Trick;
#STEPSTYPE:dance-single;
#DESCRIPTION:Magna Trick;
#CHARTSTYLE:;
#DIFFICULTY:Beginner;
#METER:3;
#RADARVALUES:0.200542,0.305583,0.102717,0.034239,0.000000,82.000000,76.000000,6.000000,2.000000,0.000000,0.000000,0.000000,0.000000,0.000000,0.200542,0.305583,0.102717,0.034239,0.000000,82.000000,76.000000,6.000000,2.000000,0.000000,0.000000,0.000000,0.000000,0.000000;
#CREDIT:Magna Trick;
#NOTES:
0000
0000
0000
0000
,
0000
0000
0000
0000
,
0000
0001
0000
0000
,
0000
1000
0000
0000
,
0000
0100
0000
0000
,
0000
0010
0000
0000
,
0000
0001
0000
0000
,
0000
0100
0000
0000
,
0000
0010
0000
0000
,
0000
1000
0000
0000
,
0000
0001
0000
0001
,
0000
1000
0000
1000
,
0000
0010
0000
0010
,
0000
0100
0000
0100
,
0000
0001
0000
0001
,
0000
1000
0000
1000
,
0000
0100
0000
0100
,
0000
0010
0000
0010
,
0000
1001
0000
0000
,
0000
0001
0000
0000
,
0000
1001
0000
0000
,
0000
1000
0000
0000
,
0000
1001
0000
0000
,
0000
0010
0000
0000
,
0000
0110
0000
1001
,
0000
0100
0010
0100
,
0000
0001
0001
0001
,
0001
0000
1000
1000
,
1000
0010
0000
0010
,
0000
0010
0000
0010
,
0000
1000
1000
1000
,
1000
0000
0001
0001
,
0001
0100
0000
0100
,
0000
0100
0000
0100
,
0000
0010
0000
0010
,
0000
1000
0000
1000
,
0000
0001
0000
0001
,
0000
1000
0000
1000
,
0000
0001
0000
1000
,
0000
0010
0000
0010
,
0000
1000
0000
0001
,
0000
0100
0000
0100
,
0000
0010
0000
0000
,
0000
1000
0000
0000
,
0000
0000
2002
0000
0000
3003
0000
0000
;

//---------------dance-single - Magna Trick----------------
#NOTEDATA:;
#CHARTNAME:Magna Trick;
#STEPSTYPE:dance-single;
#DESCRIPTION:Magna Trick;
#CHARTSTYLE:;
#DIFFICULTY:Easy;
#METER:6;
#RADARVALUES:0.330161,0.380908,0.308151,0.017119,0.000000,135.000000,117.000000,18.000000,1.000000,0.000000,0.000000,0.000000,0.000000,0.000000,0.330161,0.380908,0.308151,0.017119,0.000000,135.000000,117.000000,18.000000,1.000000,0.000000,0.000000,0.000000,0.000000,0.000000;
#CREDIT:Magna Trick;
#NOTES:
0000
0000
0000
0000
,
0000
0000
0000
0000
,
0000
0001
0000
1000
,
0010
1000
0000
0001
,
0100
1000
0000
0010
,
0100
0010
0000
1000
,
0100
0001
0000
0001
,
0100
0001
0000
0001
,
0010
1000
0000
1000
,
0100
1000
0000
1000
,
0010
0001
0000
0100
,
0000
0010
0000
1000
,
0000
0001
0000
1000
,
0000
0100
0000
0010
,
0010
0001
1000
0001
,
1000
0010
0100
0010
,
0000
0100
0010
0100
,
0010
1000
0001
1000
,
0000
1100
0000
0000
,
0000
0011
0000
0000
,
0000
0101
0000
0000
,
0000
1010
0000
0000
,
0000
1100
0000
0010
,
0000
0101
0000
0010
,
0000
1100
0000
0101
,
0000
1100
0001
1000
,
0000
0001
0001
0001
,
0001
1000
1000
1000
,
1000
0010
0100
0010
,
0100
0010
0100
0010
,
0000
0001
0001
0001
,
0001
1000
1000
1000
,
1000
0100
0010
0100
,
0010
0100
0010
0100
,
0000
0110
0000
0010
,
0000
0101
0000
0010
,
0000
1010
0000
0100
,
0000
0011
0000
0001
,
0000
1100
0010
0100
,
0000
1001
0000
0010
,
0000
0110
0010
1000
,
0000
0101
0000
1000
,
0000
1100
0001
0010
,
0001
0010
0100
1000
,
0100
0002
0003
0000
;

//---------------dance-single - Magna Trick----------------
#NOTEDATA:;
#CHARTNAME:Magna Trick;
#STEPSTYPE:dance-single;
#DESCRIPTION:Magna Trick;
#CHARTSTYLE:;
#DIFFICULTY:Medium;
#METER:8;
#RADARVALUES:0.491574,0.611165,0.393748,0.102717,0.000000,201.000000,178.000000,23.000000,6.000000,0.000000,0.000000,0.000000,0.000000,0.000000,0.491574,0.611165,0.393748,0.102717,0.000000,201.000000,178.000000,23.000000,6.000000,0.000000,0.000000,0.000000,0.000000,0.000000;
#CREDIT:Magna Trick;
#NOTES:
0000
0000
0000
0000
,
0000
0000
0000
0000
,
0000
0001
0000
1000
,
0010
0000
0100
0000
0000
0000
0001
0100
,
0001
1000
0000
0100
,
0010
0000
0001
0000
0000
0000
0010
0001
,
0010
0001
0000
1000
,
0010
0000
0100
0000
0000
0000
1000
0100
,
1000
0010
0000
0100
,
0001
0000
1000
0000
0000
0000
0001
1000
,
0001
1000
1000
0010
,
0100
0001
0001
1000
,
0100
0010
0010
0001
,
0100
0000
0010
0000
0000
0100
0010
0100
,
0010
0100
0001
1000
,
0001
0100
0010
1000
,
0010
1000
0010
0000
1000
0000
0001
0000
,
0100
0001
0001
1000
,
0000
1100
0001
0010
,
0000
0101
1000
0010
,
0000
1100
0010
0001
,
0000
0101
1000
0010
,
0000
1001
1000
0001
,
1000
0101
0100
0010
,
1000
1100
0010
0101
,
0010
1100
0002
2003
,
3000
0110
0010
0010
,
0010
0110
0100
0100
,
0100
0000
0001
0100
0001
0000
0100
1000
,
0100
0000
1000
0010
1000
0000
0020
0000
,
0000
0030
1001
0000
0001
0000
0001
0000
,
0001
1001
1000
1000
,
1000
0000
0010
1000
0010
0000
0001
0010
,
0001
0000
0100
0001
0100
0000
2000
0000
,
0000
3000
1010
0010
1000
0000
0101
0001
,
0100
1001
0100
0010
,
1000
0000
0011
0001
1000
0000
1100
1000
,
0001
0100
0010
1000
,
0001
0000
1010
0010
1000
0001
0200
0000
,
0000
0300
0101
0000
0001
0000
1000
0000
,
0010
0000
0101
0001
0100
0010
1000
0000
,
0001
1100
0010
0001
,
1000
0000
1001
0000
0001
1000
0001
1000
,
0001
1000
0010
0000
1000
0001
1000
0001
,
1000
0001
0200
0000
0000
0300
0000
0000
;

//---------------dance-single - Magna Trick----------------
#NOTEDATA:;
#CHARTNAME:Magna Trick;
#STEPSTYPE:dance-single;
#DESCRIPTION:Magna Trick;
#CHARTSTYLE:;
#DIFFICULTY:Hard;
#METER:13;
#RADARVALUES:0.745920,0.802155,0.838854,0.239673,0.025679,305.000000,256.000000,49.000000,14.000000,0.000000,0.000000,0.000000,0.000000,0.000000,0.745920,0.802155,0.838854,0.239673,0.025679,305.000000,256.000000,49.000000,14.000000,0.000000,0.000000,0.000000,0.000000,0.000000;
#CREDIT:Magna Trick;
#NOTES:
0000
0000
0101
0000
0001
0100
0001
0100
,
0001
0100
0010
0000
1000
0100
1000
0100
,
1000
0100
0020
0000
0030
0001
1000
0010
,
0100
0010
2000
0000
3000
0100
1000
0010
,
1000
0000
0100
0000
0010
0010
0100
0010
,
0001
1000
0020
0000
0030
1000
0100
0001
,
0100
0000
2000
0000
3000
0010
0001
0010
,
0100
0001
0020
0000
0030
0100
1000
0001
,
1000
0000
0200
0000
0310
0001
0001
1000
,
1000
0010
0002
0000
0003
1000
0100
0001
,
1000
0101
0001
0100
,
0010
1100
1000
0001
,
0010
0110
0100
1000
,
0010
0000
1001
0000
0000
0010
0100
0010
,
0100
0000
0010
1000
0100
1000
0010
1000
,
0100
0000
1000
0000
0010
0000
0100
0000
0001
0000
0010
0000
0001
0000
0000
1000
,
0100
0010
0001
0010
0100
0010
0001
0010
,
0100
0010
0001
1000
0010
0100
0001
0000
,
0000
0000
0011
0000
1000
0100
1000
0000
,
0000
0000
1010
0000
0001
0100
0001
0000
,
0000
0000
0011
0000
1000
0010
1000
0000
,
0000
0000
1010
0000
0001
0010
0001
0000
,
0000
0000
1001
0001
0100
1000
0100
0001
,
0100
1000
1100
0000
0100
0001
0010
0001
,
0100
0000
0101
0010
1000
0100
1010
0001
,
0010
0100
0011
0100
1001
0010
0202
0000
,
0303
0110
1100
0101
,
1100
0110
1010
0011
,
1010
0000
1000
0010
1000
0100
0010
0001
,
0010
0100
0001
0100
1000
0010
0200
0000
,
0000
0300
1001
0000
1010
0000
1100
0000
,
1010
1001
0101
0011
,
0101
0000
0100
0001
0100
0010
1000
0100
,
1000
0001
0010
1000
0010
0100
0002
0000
,
0000
0003
0101
0100
1000
0001
1010
1000
,
0010
0100
1001
0001
0010
1000
0100
0001
,
1000
0010
1100
1000
0001
0100
0011
0001
,
1000
0100
1010
0001
0100
0010
0001
0100
,
1000
0000
0001
0000
0101
0000
0000
0000
0001
0000
1000
0100
0020
0000
0000
0000
,
0000
0030
1010
0000
1100
0000
1001
0000
,
0101
0000
0000
0000
1010
0000
0000
0000
0010
0000
0100
0001
2000
0000
0000
0000
,
3000
0011
0101
1001
,
0101
0000
0110
0000
1000
0100
0001
0100
,
1000
0100
0001
0000
1000
0010
0001
0010
,
1000
0010
0002
0000
0000
0003
0000
0000
;

//---------------dance-single - Magna Trick----------------
#NOTEDATA:;
#CHARTNAME:Magna Trick;
#STEPSTYPE:dance-single;
#DESCRIPTION:Magna Trick;
#CHARTSTYLE:;
#DIFFICULTY:Challenge;
#METER:15;
#RADARVALUES:0.824181,0.878550,0.941571,0.308151,0.136956,337.000000,282.000000,55.000000,18.000000,0.000000,0.000000,0.000000,0.000000,0.000000,0.824181,0.878550,0.941571,0.308151,0.136956,337.000000,282.000000,55.000000,18.000000,0.000000,0.000000,0.000000,0.000000,0.000000;
#CREDIT:Magna Trick;
#NOTES:
0000
0000
1010
0000
1000
0010
1000
0100
,
1000
0010
0100
0000
0001
0010
0001
0100
,
0001
0000
0010
0000
0200
0000
0000
0000
0300
0000
1000
0001
1000
0000
0100
0000
,
0010
0000
0100
0000
0002
0000
0000
0000
0003
0000
0100
0010
0100
0000
1000
0000
,
0001
0000
0000
0000
0010
0000
0000
0000
0100
0000
0100
0010
0001
0000
0100
0000
,
0010
1000
0200
0000
0300
1000
0010
0001
,
0010
0000
0000
0000
0002
0000
0000
0000
0003
0000
1000
0100
1000
0000
0100
0000
,
0001
0000
1000
0000
0200
0000
0000
0000
0300
0000
0010
0001
0010
0000
0001
0000
,
1000
0000
0000
0000
0020
0000
0000
0000
0130
0000
1000
0100
1000
0000
0100
0000
,
0001
0010
2000
0000
3000
0010
0010
0100
,
0100
0000
1010
0000
1000
0000
0010
1000
,
0100
0000
0011
0000
0001
0000
1000
0010
,
0100
0000
0110
0000
0010
0000
0001
1000
,
0100
0000
1001
0000
0000
0100
1000
0100
,
0001
0000
0100
0001
0010
0001
0100
0001
,
0010
0000
0001
0000
0100
0000
0010
0000
1000
0000
0100
0000
1000
0000
0000
0001
,
0010
0001
0100
0000
1000
0000
0100
0000
0010
0000
0100
0000
1000
0000
0100
0000
,
0010
0100
1000
0001
0010
1000
0100
0000
,
0000
0000
1100
0000
0001
0010
2000
0000
,
3000
0000
0101
0000
1000
0010
0002
0000
,
0003
0000
1100
0000
0001
0100
2000
0000
,
3000
0000
0101
0000
1000
0100
0002
0000
,
0003
0000
1001
1000
0010
0001
0010
1000
,
0010
0001
0011
0000
0010
1000
0100
1000
,
0010
0000
1010
0100
0001
0010
0101
1000
,
0100
0010
1100
0010
1001
0100
2020
0000
,
3030
0000
0110
0000
0011
0100
1010
0100
,
0011
0000
0110
0000
0101
0010
1100
0010
,
0101
0000
1001
0100
0001
0010
0101
1000
,
0100
0010
1100
0010
0001
0100
0020
0000
,
0000
0030
1001
0000
0101
1000
0011
1000
,
0101
0000
1001
0000
1010
0001
1100
0001
,
1010
0000
0110
1000
0010
0100
1001
0010
,
0001
1000
0101
1000
0100
0010
0002
0000
,
0000
0003
1010
0010
0001
1000
0101
0001
,
0100
0000
0010
0000
1001
0000
1000
0000
0100
0000
0001
0000
0010
0100
1000
0001
,
0010
0100
0011
0001
1000
0010
1100
1000
,
0001
0000
0010
0000
0101
0000
1000
0000
0010
0000
0100
0000
1000
0010
0100
0001
,
1000
0000
0100
0000
1010
0000
0000
0000
1000
0000
0001
0010
0200
0000
0000
0000
,
0300
0000
0010
1000
0101
0000
0000
0000
0011
0000
0000
0000
1001
0000
0000
0000
,
1010
0000
0000
0000
0101
0000
0000
0000
0100
0000
0010
1000
0002
0000
0000
0000
,
0003
0000
0010
0001
1100
0000
0000
0000
1010
0000
0000
0000
1001
0000
0000
0000
,
1010
0000
0110
0000
0001
0010
1000
0010
,
0001
0010
1000
0000
0001
0100
1000
0100
,
0001
0100
2000
0000
0000
3000
0000
0000
;
