#TITLE:Game N Dance;
#SUBTITLE:;
#ARTIST:Game N' Dance Producer & Yumiyacchi;
#TITLETRANSLIT:;
#SUBTITLETRANSLIT:;
#ARTISTTRANSLIT:;
#GENRE:;
#CREDIT:Magna Trick;
#BANNER:Game N Dance.png;
#BACKGROUND:Game N Dance bg.png;
#LYRICSPATH:;
#CDTITLE:Magna Trick title!.png;
#MUSIC:Game N Dance.mp3;
#OFFSET:-0.084000;
#SAMPLESTART:39.000000;
#SAMPLELENGTH:14.000000;
#SELECTABLE:YES;
#BPMS:0.000000=243.997986
,4.000000=121.998993
;
#STOPS:
;
#BGCHANGES:;
#KEYSOUNDS:;
#ATTACKS:;

//---------------dance-single - ----------------
#NOTES:
     dance-single:
     :
     Beginner:
     3:
     0.219673,0.414848,0.086914,0.000000,0.020057,230.000000,217.000000,13.000000,0.000000,0.000000,0.000000,0.219673,0.414848,0.086914,0.000000,0.020057,230.000000,217.000000,13.000000,0.000000,0.000000,0.000000:
0000
0000
0000
0000
,
0000
0000
0000
0000
,
0000
0000
0000
0000
,
0010
0000
0100
0000
,
0001
0000
0001
0000
0000
0001
0000
0000
0001
0000
0000
0000
0000
0000
0000
0000
,
1000
1100
0000
0001
,
0000
0010
0000
1000
,
0000
0100
0001
0010
,
1000
0100
0001
0010
,
1000
0000
0001
0000
,
1000
0000
0010
0010
,
0010
0000
0100
0100
,
0001
0001
1000
1000
,
0100
0110
0000
0001
,
0010
0000
0100
0100
,
1000
0000
0001
0000
,
1000
0010
1000
0010
,
0100
0101
0000
0001
,
0000
1000
0000
0100
,
0000
0000
0010
0000
0000
0000
0001
1000
,
0000
0000
1001
0000
,
0100
0010
0000
0100
,
0000
0001
0000
1000
,
0000
0000
0100
0000
0000
0000
0010
0001
,
0000
0000
1000
0000
,
0110
0100
0000
0001
,
0000
1000
0000
0001
,
0000
0000
0010
0000
0000
0000
0100
1000
,
0000
0000
0001
0000
,
1000
0010
0000
0100
,
0000
0001
0000
1000
,
0000
0000
0100
0000
0000
0000
0010
0001
,
0000
0000
1000
0000
,
1001
0000
0000
0000
0000
0000
0000
0000
0010
0000
0000
0010
0000
0000
0010
0000
,
0010
0000
0000
0010
0000
0000
0010
0000
0000
0010
0000
0000
0010
0000
0010
0000
,
0100
0000
0100
0000
0000
0000
0000
0000
0100
0000
0000
0100
0000
0000
0100
0000
,
0100
0000
0000
0100
0000
0000
0100
0000
0100
0000
0010
0000
0000
0000
0100
0000
,
0100
0100
0100
0100
0100
0100
0100
0100
,
0100
0100
0100
0100
0100
0100
0100
0100
,
0001
1000
0001
1000
0001
1000
0001
1000
,
0001
0000
0000
1000
0000
0000
0001
0000
,
1001
0010
0010
0000
,
1000
0000
0000
0000
0001
0001
0001
0001
,
0000
0000
1000
1000
0000
0000
0100
0000
,
0000
0000
0010
0001
,
1000
0000
0000
0000
,
0000
0000
0010
1000
,
0001
0000
0000
0000
,
0100
0000
0000
0001
0000
0000
1000
0000
,
0010
1000
1000
0000
,
0001
0000
0000
0000
0010
0010
0010
0010
,
0000
0000
0100
0100
0000
0000
1100
0000
,
0000
0001
0100
1000
,
0010
0100
0000
0011
,
0000
1000
0000
0001
,
0000
0010
0000
0100
,
1000
0000
0000
0001
0000
0000
0100
0000
,
0010
1010
1010
0000
,
0101
0000
0000
0000
0001
0001
0001
0001
,
0000
0000
1000
1000
0000
0000
0100
0000
,
0000
0000
0010
0010
,
0010
0000
0000
0000
,
0000
0000
0001
1000
,
0001
0000
0000
0000
,
0100
0000
0000
0001
0000
0000
0010
0000
,
0000
1000
0100
0000
,
0001
0000
0000
0000
1000
1000
1000
1000
,
0000
0001
0010
0001
,
0000
1000
0100
0100
,
0100
1000
0001
0100
,
0000
0010
0100
0100
,
0001
1000
0000
0100
,
1000
0000
0000
0001
0000
0000
0010
0000
,
0110
0000
0000
0000
;

//---------------dance-single - ----------------
#NOTES:
     dance-single:
     :
     Easy:
     5:
     0.367713,0.442259,0.401142,0.053486,0.023400,385.000000,325.000000,60.000000,8.000000,0.000000,0.000000,0.367713,0.442259,0.401142,0.053486,0.023400,385.000000,325.000000,60.000000,8.000000,0.000000,0.000000:
0000
0000
0000
0000
,
0001
0001
1000
0000
1000
1000
0100
0010
,
0000
0000
0001
0010
,
0110
0000
1001
0000
,
0010
0000
0010
0000
0000
1000
0000
0000
0010
0000
0000
0000
0000
0000
0000
0000
,
1000
1100
0001
0101
,
1000
1100
0001
1000
,
0001
0000
0100
0100
,
0010
0010
0100
0010
,
0110
0000
0010
1000
0010
0000
0100
0000
,
0001
0000
1001
0000
0010
1000
0010
0000
,
1000
0000
0100
0100
,
1000
1000
0001
0001
,
0010
0110
0001
1001
,
1000
0000
0010
1000
,
1010
0000
0010
0000
,
0100
0001
0100
0010
,
0100
0101
0000
1010
,
1000
1100
0001
0011
,
0100
0101
0001
1001
,
1000
0010
1001
0200
,
0310
0011
0001
0110
,
0010
1100
1000
1001
,
0010
0000
0110
0000
0001
0000
1001
0002
,
0000
0000
0000
0000
2003
3000
1001
0000
,
0001
0011
1000
1010
,
0001
0101
1000
1100
,
0001
0000
0011
0000
1000
0000
1010
0020
,
0000
0000
0000
0000
0230
0300
1001
0000
,
1000
1001
0001
0011
,
1000
1010
0001
0101
,
1000
0000
1100
0000
0001
0000
0110
0020
,
0000
0000
0000
0000
2030
0000
0000
3000
,
1001
0000
0000
0000
0000
0000
0000
0000
0001
0000
0000
0001
0000
0000
1000
0000
,
0001
0000
0000
0001
0000
0000
1000
0000
0000
0001
0000
0000
1000
0000
0001
0000
,
1000
0000
1000
0000
0000
0000
0000
0000
0001
0000
0000
1000
0000
0000
0001
0000
,
1000
0000
0000
1000
0000
0000
0001
0000
0000
1000
0000
0000
0001
0000
0001
0000
,
1000
1000
1000
1000
0001
0001
0001
0001
,
0100
0100
0100
0100
0010
0010
0010
0010
,
1000
1000
1000
1000
1000
1000
1000
1000
,
0010
0100
0001
1000
0010
0100
0001
1000
,
1001
0100
0100
1000
,
1001
0000
0001
0000
0010
0010
0010
0010
,
0001
0000
1001
0001
0000
0000
0100
0000
,
0000
0010
0110
1010
,
0110
0010
0100
0001
,
1000
0100
0010
0001
,
0010
0100
1000
0001
,
0100
0010
0100
1000
0001
1000
0001
0100
,
0010
1010
0101
0001
,
1001
0000
1000
0000
0100
0100
0100
0100
,
1000
0000
0001
0001
0010
0000
0100
0100
,
1000
0001
1001
0110
,
1001
0010
1000
0001
,
0010
0100
1000
0001
,
0100
0010
1000
0001
,
0010
0100
0010
0001
1000
0001
0100
0000
,
1000
0110
0110
0010
,
1001
0000
0100
0000
1000
1000
1000
1000
,
0001
0000
0010
0010
0001
0000
0100
0100
,
0001
1000
1001
0110
,
1001
0100
0010
0001
,
1000
0010
0100
0001
,
1000
0100
0010
0001
,
1000
0001
1000
0000
0010
0100
0010
0000
,
0100
0101
0010
1000
,
1100
0000
0001
0000
0010
0010
0010
0010
,
0001
1001
0010
0110
,
0010
1000
0001
0001
,
0001
1000
0100
0010
,
0001
1000
0010
0010
,
0010
1000
0001
0100
,
0010
0100
0010
0100
0001
0100
0001
1000
,
0200
0000
0300
0000
;

//---------------dance-single - ----------------
#NOTES:
     dance-single:
     :
     Medium:
     9:
     0.472774,0.713134,0.401142,0.106971,0.157114,495.000000,435.000000,60.000000,16.000000,0.000000,0.000000,0.472774,0.713134,0.401142,0.106971,0.157114,495.000000,435.000000,60.000000,16.000000,0.000000,0.000000:
0000
0000
0000
0000
,
1000
0100
1000
0010
1000
0001
1000
1100
,
0000
0000
0000
0000
0000
0000
0010
0000
0001
0000
0000
1000
0000
0100
0000
0000
,
1001
0000
0110
0000
,
0100
0000
0100
0000
0000
0010
0000
0000
0110
0000
0000
0000
0000
0000
0000
0000
,
1000
0010
0110
0000
0001
0100
0110
0000
,
1000
0010
0110
0000
0001
0100
0110
0000
,
1000
0000
1001
0000
1000
1000
1000
1000
,
0001
0001
0001
0001
0010
0100
0010
0100
,
1000
1001
0010
0110
,
0001
0000
1001
0000
1000
0100
1000
0100
,
2000
3001
2000
3200
,
0320
0000
0000
0000
0002
0030
0000
0000
2003
0000
0000
0000
0020
3000
0000
0000
,
0130
0001
0101
0000
1000
0100
0100
0010
,
0020
0000
0031
0000
1000
1000
0001
0001
,
2000
0000
3010
0000
0200
0302
0000
1003
,
0010
0100
0010
0100
0010
0000
1000
0001
1000
0001
0000
0000
0010
0100
0000
0000
,
1000
0000
1001
0000
1000
0100
1000
0000
,
0001
0100
0001
0000
1000
0010
1000
0000
,
0001
0010
0001
0000
1000
0001
1000
0000
,
0001
1000
0001
0000
0100
0010
0100
0000
,
0010
0100
0010
0000
1000
0100
0010
0000
,
0001
0100
0010
0000
1000
0010
0100
0000
,
0001
0010
0100
0000
1000
0100
0001
0000
,
0001
0100
1000
0000
0010
0100
0001
0000
,
1000
0100
0010
0000
0001
0010
0100
0000
,
1000
0010
0001
0000
1000
0100
0001
0000
,
1000
0100
0010
0000
0001
0010
1000
0000
,
0001
0100
1000
0000
0010
0100
0001
0000
,
1000
0100
0010
0000
0001
0100
0010
0000
,
1000
0010
0100
0000
0001
0010
0100
0000
,
1000
0100
0010
0000
0001
0010
0100
2000
,
0000
0000
0000
0000
0000
0000
0000
0000
3002
0000
0000
0000
0000
0000
0000
0003
,
1001
0000
1000
0000
0001
0000
0000
0000
1000
0000
0000
1000
0000
0000
0001
0000
,
0010
0000
0000
0010
0000
0000
0001
0000
0000
0100
0000
0000
0001
0000
0100
0000
,
0010
0000
0010
0000
0000
0000
0000
0000
1000
0000
0000
0001
0000
0000
0010
0000
,
0100
0000
0000
0100
0000
0000
0010
0000
0000
0001
0000
0000
1000
0000
0100
0000
,
0100
1000
1000
1000
0001
0001
0001
0001
,
0100
0100
0100
0100
0010
0010
0010
0010
,
1000
0001
1000
0001
1000
0001
1000
0001
1000
0001
1000
0001
1000
0001
1000
0000
,
0001
0100
0001
0100
0001
0000
1000
0100
1000
0100
1000
0000
0001
1000
0000
0000
,
1001
0000
0001
0010
0110
0000
1000
0000
,
0110
0000
0001
0000
1000
1000
0001
0001
,
0010
0000
0100
0100
0000
0000
1001
0000
,
0010
0100
0101
1010
,
1001
0000
1000
0000
0100
0100
0010
0000
,
0001
1000
0110
1010
,
0101
0010
0001
1000
,
0001
1000
0001
1000
0001
0000
0100
0010
0100
0010
0100
0000
0010
0100
0000
0000
,
0010
1001
1001
0010
,
0101
0000
0010
0000
1000
1000
1000
1000
,
0010
0000
1100
1100
0001
0000
0011
0011
,
0100
1000
1001
0110
,
1010
0000
0100
0000
0010
0000
0110
0110
,
0001
1000
0010
0000
1010
0000
0101
0000
,
1001
0001
1000
0100
,
0010
0100
0010
0100
0010
0000
0001
1000
0001
1000
0001
0000
1000
0010
0000
0000
,
1000
1001
1001
0100
,
1100
0000
0001
0000
0010
0010
0010
0010
,
0100
0000
0100
0100
1000
0000
0001
0001
,
0100
0010
0110
1001
,
1100
0000
0001
0000
0010
0000
1000
0010
,
0001
0001
1000
0000
1010
0000
0101
0000
,
1001
0100
0001
1000
,
0010
1000
0010
1000
0010
0000
0100
0001
0100
0001
0100
0000
0001
1000
0000
0000
,
0001
1001
1100
0001
,
0011
0000
0100
0000
1000
1000
1000
1000
,
0010
0000
0100
0100
0001
0000
1000
1000
,
0001
0010
0110
0011
,
1010
1000
0010
0001
0010
0000
0100
0000
,
1100
0001
0110
1100
,
0011
0000
0100
0010
0001
1000
0001
0000
,
0010
0001
0010
0001
0010
0000
0100
1000
0100
1000
0100
0000
1000
0001
0000
0000
,
2001
0000
3200
0000
0000
0320
0000
0000
0000
0030
0000
0000
0000
0000
0000
0000
;

//---------------dance-single - ----------------
#NOTES:
     dance-single:
     :
     Hard:
     12:
     0.590252,0.762316,0.294171,0.481370,0.300856,618.000000,574.000000,44.000000,72.000000,0.000000,0.000000,0.590252,0.762316,0.294171,0.481370,0.300856,618.000000,574.000000,44.000000,72.000000,0.000000,0.000000:
// measure 0
0000
0000
0000
0000
,  // measure 1
0001
0010
0001
0100
0001
1000
0001
0011
,  // measure 2
0000
0000
0000
0000
0000
0000
0100
1000
0100
1000
0000
0100
0000
0010
0000
0000
,  // measure 3
1001
0000
0110
0000
,  // measure 4
0010
0000
0010
0000
0000
0100
0000
0000
0110
0000
0000
0000
0000
0000
0000
0000
,  // measure 5
0001
0100
0001
0100
0000
0010
0000
0000
1000
0100
1000
0100
0000
0010
0000
0000
,  // measure 6
0001
1000
0001
1000
0000
0000
0001
0000
0100
0001
0100
0010
0100
0001
0100
0010
,  // measure 7
1000
0000
1010
0000
0000
0000
0000
0010
0100
0000
0100
0000
0100
0000
0100
0010
,  // measure 8
1000
0000
1000
0000
1000
0000
1000
0100
0010
0000
0010
0000
0010
0000
0010
0000
,  // measure 9
0011
0000
1000
0100
1000
0100
0000
0010
0000
0000
0100
0000
0000
1000
0000
1000
,  // measure 10
0000
0100
0000
0010
0001
0100
0010
1000
,  // measure 11
0002
1003
0002
0023
,  // measure 12
0230
0000
0000
0000
2000
0300
0000
0000
3002
0000
0000
0000
0200
0003
0000
0000
,  // measure 13
0310
0100
0010
0100
0000
0001
0000
0000
1000
0100
1000
0000
0010
0000
0010
0000
,  // measure 14
0200
0000
0301
0000
0001
0001
1000
1000
,  // measure 15
0002
0000
0103
0000
0020
2030
0000
3001
,  // measure 16
0100
0010
0100
0010
0100
0000
0001
1000
0001
1000
0000
0000
0100
0010
0100
0000
,  // measure 17
1000
0000
0000
1000
0001
0000
0000
0000
0001
0000
1000
0000
0010
0000
0000
0000
,  // measure 18
0100
0001
1000
0100
0010
0001
0101
0000
,  // measure 19
0001
0100
0010
0000
1001
0001
1000
0000
,  // measure 20
0001
0100
0010
1000
1100
0010
2001
3000
,  // measure 21
0010
0100
0001
0000
0001
0100
0010
0000
,  // measure 22
0010
1000
0100
0010
0001
0100
0110
0000
,  // measure 23
0010
1000
0200
0300
0011
0001
0100
0000
,  // measure 24
0010
1010
0001
0010
0100
1000
1001
0000
,  // measure 25
1010
1000
0100
0000
0010
0001
0100
0000
,  // measure 26
0010
0100
0001
1000
0100
0010
0110
0000
,  // measure 27
0010
0100
1000
1010
0010
0100
0001
0000
,  // measure 28
1000
0100
0010
1001
0100
0010
1010
0000
,  // measure 29
1000
0010
0001
0000
1000
0100
0001
0000
,  // measure 30
1000
0100
0001
1000
0010
0001
1000
0000
,  // measure 31
0010
0200
0301
1001
1000
0100
0010
0002
,  // measure 32
0000
0000
0000
0000
0000
0000
0000
0000
2003
0000
0000
0000
0000
0000
0000
3000
,  // measure 33
1001
0000
0000
0000
1000
0001
0000
0001
0010
0000
0010
0100
0000
0100
1000
0000
,  // measure 34
1000
0000
0001
0100
0000
0100
0010
0000
0010
1000
0000
1000
0100
0000
0100
0010
,  // measure 35
0001
0000
0001
0000
1000
0000
0000
0000
1000
0000
0010
1000
0000
1000
0010
0100
,  // measure 36
0001
0000
0001
0100
0000
0100
0010
0000
1000
0000
1000
0000
0100
0000
0010
0001
,  // measure 37
0010
0001
0001
0001
1000
1000
1000
1000
,  // measure 38
0010
0100
0010
0000
0010
0000
0010
0000
0100
0000
0100
0000
0100
0000
0100
0000
,  // measure 39
0001
0010
0001
0010
0001
0010
0001
0010
0001
0010
0001
0010
0001
0010
0001
0010
,  // measure 40
0100
1000
0001
0010
0100
0000
0100
1000
0001
0010
0100
0000
0100
1000
0001
0010
,  // measure 41
0200
0300
1000
0100
0010
0100
1000
0100
,  // measure 42
0001
0100
1000
0100
0010
0010
0010
0010
,  // measure 43
0001
0010
0100
0100
0001
0100
0020
0032
,  // measure 44
1003
0100
0010
0001
2002
3003
2020
3030
,  // measure 45
0202
0000
0303
0000
1000
0000
0100
0000
0010
0001
0010
0000
0001
0000
0100
0000
,  // measure 46
0010
1000
0001
0100
0020
1030
0200
0310
,  // measure 47
0001
1000
0100
0010
0001
1000
0010
0100
,  // measure 48
0001
0010
0001
0010
0001
0000
1000
0100
1000
0100
1000
0000
0001
1000
0001
0000
,  // measure 49
0100
0010
2000
3100
2000
3010
0100
0001
,  // measure 50
0020
0031
0100
0010
2000
3002
2003
3002
,  // measure 51
0103
0010
1000
1000
0100
0010
0011
0001
,  // measure 52
1000
0010
0100
0001
2002
3003
0202
0303
,  // measure 53
2020
3030
1000
0010
0100
0001
0011
0010
,  // measure 54
0100
1000
0100
0000
0010
0000
0001
0000
2000
0000
3010
0000
0200
0000
0301
0000
,  // measure 55
0020
0130
1000
0001
1000
0100
0010
0001
,  // measure 56
1000
0100
1000
0100
1000
0000
0001
0010
0001
0010
0001
0000
0100
0010
0100
0000
,  // measure 57
0001
1000
1001
0010
1001
0100
0001
1000
,  // measure 58
1100
0010
0001
1000
0020
0230
0320
0230
,  // measure 59
0301
1000
0100
0100
0010
0001
2000
3010
,  // measure 60
0100
0001
0010
0001
2002
3003
0220
0330
,  // measure 61
2002
3003
0010
1000
0100
1000
0001
0010
,  // measure 62
0001
1000
0001
0000
1000
0000
0010
0000
0200
0000
0301
0000
0020
0000
1030
0000
,  // measure 63
0200
0310
0100
1000
0100
0001
0100
0010
,  // measure 64
0001
0100
0001
0100
0001
0000
1000
0010
1000
0010
1000
0000
0010
0100
0010
0000
,  // measure 65
1000
0001
1001
0100
1001
0010
1000
0001
,  // measure 66
0011
0100
1000
0001
0200
0320
0230
0320
,  // measure 67
1030
0001
0010
0010
0100
1000
0002
0103
,  // measure 68
0010
1000
0100
1000
2002
3003
0220
0330
,  // measure 69
1001
0000
0101
0000
0010
0000
0101
0000
0010
1000
0100
0000
0010
0000
0100
0000
,  // measure 70
1000
1000
0001
0100
0020
1030
0200
0301
,  // measure 71
0020
0130
0010
0001
0010
1000
0010
0100
,  // measure 72
1000
0010
1000
0010
1000
0000
0001
0100
0001
0100
0001
0000
0100
0010
0100
0000
,  // measure 73
1002
0000
0023
0000
0000
0230
0000
0000
0000
0300
0000
0000
0000
0000
0000
0000
;

//---------------dance-single - ----------------
#NOTES:
     dance-single:
     :
     Challenge:
     17:
     0.917851,1.081997,0.334285,0.200571,1.320426,961.000000,911.000000,50.000000,30.000000,0.000000,0.000000,0.917851,1.081997,0.334285,0.200571,1.320426,961.000000,911.000000,50.000000,30.000000,0.000000,0.000000:
0000
0000
0000
0000
,
1000
0100
1000
0010
1000
0001
1000
1100
,
0000
0000
0000
0000
0000
0000
0010
0001
0010
0001
0000
0010
0000
0100
0000
0000
,
1001
0000
0110
0000
,
1010
0000
0101
0000
0000
1001
0000
0000
0110
0000
0000
0000
0000
0000
0000
0000
,
1000
0010
1000
0010
0000
0100
0000
0000
0001
0010
0001
0010
0000
0100
0000
0000
,
1000
0001
1000
0001
0000
0000
1000
0000
0010
1000
0010
0100
0010
1000
0010
0100
,
0001
0000
0000
0000
0000
0000
0101
0000
0000
0000
0000
0000
0000
0000
0000
0000
0000
0000
0001
0000
0000
1000
0100
0000
0010
0000
0000
0001
0100
0000
0010
0000
0000
1000
0100
0000
0010
0000
0000
0001
0010
0000
0100
0000
0000
1000
0100
0000
,
0010
0000
0000
0001
0100
0000
0010
0000
0000
1000
0010
0000
0100
0000
0000
0001
0010
0000
0100
0000
0000
1000
0001
0000
0010
0000
0000
0100
0010
0000
0001
0000
0000
1000
0100
0000
0010
0000
0000
0001
0100
0000
0010
0000
0000
1000
0100
0000
,
0010
0000
0001
0010
0001
0010
0000
0100
1000
0000
0001
0000
0100
0010
0000
1000
,
0000
0100
0010
0000
0001
0000
1000
0010
1000
0000
0010
0100
0010
0000
0100
0001
,
2000
0000
0000
0000
3001
0000
0010
0100
2000
0000
0000
0000
3200
0000
0000
0010
,
0302
0000
0000
1003
0200
0000
0000
1300
0020
0000
0000
0130
0002
0000
0000
0000
,
0103
0010
0100
0010
0000
1000
0000
1000
0001
0010
0001
0000
0100
0000
0100
0000
,
0020
0000
0000
0030
1001
0000
0000
0000
1000
0000
0100
0010
0001
0000
0010
0100
,
2000
0000
0000
0000
0000
0000
0000
0000
0000
0000
0000
0000
3010
0000
0000
0000
0000
0000
0000
0000
0000
0000
0000
0000
0100
0000
0010
0000
0100
0000
0002
0000
0000
0000
0000
0000
0000
0000
0000
1000
0000
0000
0003
0000
0000
0000
0000
0000
,
0010
0100
0001
1000
0010
0000
1000
0100
0010
0001
0000
0000
0010
0001
1000
0000
,
0100
0000
0000
0000
0000
0000
0010
0000
0100
0000
0010
0000
0100
0000
0000
0000
0000
0000
1000
0000
0000
0001
0000
0000
0000
0000
0000
0001
0000
0000
1000
0000
0000
0000
0000
0000
1010
0000
0000
0000
0000
0000
0000
0000
0000
0000
0000
0000
,
1000
0000
0100
0000
1100
0000
1000
0001
0010
0001
1000
0000
1010
0000
0000
0000
,
1000
0000
0100
0000
1100
0000
1000
0001
0000
0001
1000
0000
0001
0000
0010
0100
,
1000
0000
0000
0001
0000
0000
1001
0000
0000
1000
0000
0000
0001
0100
0000
0010
0000
0000
1002
0000
0000
0003
0000
0000
,
0100
0000
0010
0000
1010
0000
1000
0001
0010
0001
1000
0000
1100
0000
0100
0000
,
0010
0000
0001
0000
0011
0000
0100
1000
0001
1000
0010
0000
0110
0000
0100
0000
,
0001
0000
0010
0000
0200
0000
1300
0001
0010
0001
0100
0000
1000
0000
0100
0000
,
0001
0000
0000
0000
0100
0000
0010
0000
0000
0000
0000
0000
1000
0000
0000
0000
0000
0000
0100
0000
0000
0010
0000
0000
0001
0000
0000
0010
0000
0000
0100
0000
0000
0000
0000
0000
1001
0000
0000
0000
0000
0000
0010
0000
0000
0000
0000
0000
,
0100
0000
0010
0000
0000
0000
1000
0000
0000
0000
0000
0000
1010
0000
0000
0000
0000
0000
1000
0000
0000
0001
0000
0000
0010
0000
0000
0001
0000
0000
1000
0000
0000
0000
0000
0000
1100
0000
0000
0000
0000
0000
0100
0000
0000
0000
0000
0000
,
0010
0000
0001
0000
1001
0000
1000
0010
0100
0010
1000
0001
0100
0000
0010
0000
,
0200
0000
0301
0000
1001
0000
0001
0010
0100
0010
0001
0000
0011
0000
0010
0000
,
0100
0000
1000
0000
1100
0000
0100
0010
0001
0010
0100
0000
1001
0000
0000
0000
,
0001
0000
1000
0000
1100
0000
0100
0010
1000
0010
0001
0000
0011
0000
0010
0000
,
0100
0000
0001
0000
0101
0000
0100
1000
0010
1000
0100
0001
1000
0000
0010
0000
,
0001
0000
0000
0000
0000
0000
1001
0000
0000
0000
0000
0000
0110
0000
0000
0000
0000
0000
1000
0000
0000
0001
0000
0000
1000
0000
0000
0010
0000
0000
0100
0000
0000
0000
0000
0000
0001
0000
0000
0000
0010
0000
0200
0000
0000
0000
0000
0000
,
0000
0000
0000
0000
0320
0000
0000
0030
,
1001
0000
0000
0000
0001
1000
0000
1000
0100
0000
0100
0010
0000
0010
0001
1000
,
0001
0000
1000
0010
0000
0010
0100
0000
0100
0001
0000
0001
0010
0000
0010
0100
,
1000
0000
1100
0000
0110
0000
0100
1000
0001
0000
0100
0001
0000
0001
0100
0010
,
1000
0000
0000
0000
0000
0000
1000
0000
0000
0010
0000
0000
0000
0000
0000
0010
0000
0000
0100
0000
0000
0001
0000
0000
0010
0000
0000
0000
0000
0000
0010
0000
0000
0000
0000
0000
0100
0000
0000
0000
0000
0000
1000
0000
0100
0000
1000
0000
,
0100
1100
1100
1100
0011
0011
0011
0011
,
0100
0010
0100
0000
0110
0000
0110
0000
1001
0000
1001
0000
1001
0000
1001
0000
,
1000
0100
1000
0100
1000
0100
1000
0100
1000
0100
1000
0100
1000
0100
1000
0100
,
0010
0001
1000
0100
0010
0000
0010
0001
1000
0100
0010
0000
0010
0001
1000
0001
,
1001
0100
0010
0001
1000
0100
1000
0100
0010
0001
0010
0100
1000
0001
0010
0100
,
1000
0000
0000
0001
0000
0000
1000
0000
0000
0010
0000
0000
0100
0000
0000
0001
0000
0000
1000
0000
0000
0010
0000
0000
0100
0000
0010
0000
0000
0000
0100
0000
0010
0000
0000
0000
0100
0000
0010
0000
0000
0000
0100
0000
0010
1000
0000
0000
,
0001
0010
0100
1000
0001
0010
0001
0100
0010
1000
0100
0001
1000
0001
0100
1000
,
0001
0010
0100
1000
0001
0010
0100
1000
0010
0100
0010
0100
0001
1000
0001
1000
,
0100
0000
0000
0010
0000
0000
0001
0000
0000
0010
0000
0000
0100
0000
0000
1000
0000
0000
0001
0000
0000
0010
0000
0000
0100
0000
1000
0000
0100
0000
1000
0000
0000
0010
0000
0000
0100
0000
0000
0001
0000
0000
1000
0000
0000
0010
0000
0000
,
0100
0001
1000
0010
0100
0001
1000
0010
0100
1000
0100
0001
0010
0001
0010
1000
,
0010
1000
0001
0100
1000
0001
0100
1000
0001
0010
1000
0001
0010
1000
0001
0100
,
1000
0001
1000
0001
1000
0000
0100
0010
0100
0010
0100
0000
1000
0001
1000
0000
,
0001
0010
0100
1000
0001
0010
0001
0010
0100
1000
0100
0010
0001
1000
0100
0010
,
0001
0000
0000
1000
0000
0000
0001
0000
0000
0100
0000
0000
0010
0000
0000
1000
0000
0000
0001
0000
0000
0100
0000
0000
0010
0000
0100
0000
0000
0000
0010
0000
0100
0000
0000
0000
0010
0000
0100
0000
0000
0000
0010
0000
0100
0001
0000
0000
,
1000
0100
0010
0001
1000
0100
1000
0010
0100
0001
0010
1000
0002
1000
0023
0001
,
1030
0100
0010
0001
1000
0100
0010
0001
0100
0010
0100
0010
1000
0001
1000
0001
,
0010
0100
1000
0100
0010
0001
1000
0100
0010
0001
1000
0010
0200
0001
0320
0100
,
1030
0000
0001
0000
1000
0000
0001
0000
0000
0100
0000
0000
0010
0000
0000
1000
0000
0000
0001
0000
0000
0100
0000
0000
0010
0000
0000
0001
0000
0000
0010
0000
0000
1000
0000
0000
0100
0000
0000
1000
0000
0000
0100
0000
0000
0001
0000
0000
,
0100
0001
1000
0010
0001
1000
0010
0001
1000
0100
0001
1000
0100
0001
1000
0010
,
0001
1000
0001
1000
0001
0000
0010
0100
0010
0100
0010
0000
0001
1000
0100
0000
,
1000
0100
0010
0001
1000
0100
1000
0100
0010
0001
0010
0100
1000
0001
0010
0100
,
1000
0000
0000
0001
0000
0000
1000
0000
0000
0010
0000
0000
0100
0000
0000
0001
0000
0000
1000
0000
0000
0010
0000
0000
0100
0000
0010
0000
0000
0000
0100
0000
0010
0000
0000
0000
0100
0000
0010
0000
0000
0000
0100
0000
0010
1000
0000
0000
,
0001
0010
0100
1000
0001
0010
0001
0100
0010
1000
0100
0001
2000
0001
3200
1000
,
0301
0010
0100
1000
0001
0010
0100
1000
0010
0100
0010
0100
0001
1000
0001
1000
,
0100
0010
0001
0010
0100
1000
0001
0010
0100
1000
0001
0100
0020
1000
0230
0010
,
0301
0000
1000
0000
0001
0000
1000
0000
0000
0010
0000
0000
0100
0000
0000
0001
0000
0000
1000
0000
0000
0010
0000
0000
0100
0000
0000
1000
0000
0000
0100
0000
0000
0001
0000
0000
0010
0000
0000
0001
0000
0000
0010
0000
0000
1000
0000
0000
,
0010
1000
0001
0100
1000
0001
0100
1000
0001
0010
1000
0001
0010
1000
0001
0100
,
1000
0001
1000
0001
1000
0000
0100
0010
0100
0010
0100
0000
1000
0001
0010
0000
,
0001
0010
0100
1000
0001
0010
0001
0010
0100
1000
0100
0010
0001
1000
0100
0010
,
0001
0000
0000
1000
0000
0000
0001
0000
0000
0100
0000
0000
0010
0000
0000
1000
0000
0000
0001
0000
0000
0100
0000
0000
0010
0000
0100
0000
0000
0000
0010
0000
0100
0000
0000
0000
0010
0000
0100
0000
0000
0000
0010
0000
0100
0001
0000
0000
,
1000
0100
0010
0001
1000
0100
1000
0010
0100
0001
0010
1000
0002
1000
0023
0001
,
1030
0100
0010
0001
1000
0100
0010
0001
0100
0010
0100
0010
1000
0001
1000
0001
,
0010
0100
1000
0100
0010
0001
1000
0100
0010
0001
1000
0010
0200
0001
0320
0100
,
1030
0001
1000
0100
0010
1000
0001
0100
0010
0001
0010
1000
0100
1000
0100
0001
,
0100
0001
1000
0010
0001
1000
0010
0001
1000
0100
0001
1000
0100
0001
1000
0010
,
0001
1000
0001
1000
0001
0000
0010
0100
0010
0100
0010
0000
0001
1000
0100
0000
,
1002
0000
0023
0000
0000
0230
0000
0000
0000
0300
0000
0000
0000
0000
0000
0000
;
