#VERSION:0.83;
#TITLE:Strangeprogram;
#SUBTITLE:;
#ARTIST:DJ Sharpnel;
#TITLETRANSLIT:;
#SUBTITLETRANSLIT:;
#ARTISTTRANSLIT:;
#GENRE:;
#ORIGIN:;
#CREDIT:;
#BANNER:Strangeprogram.png;
#BACKGROUND:Strangeprogram bg.png;
#PREVIEWVID:;
#JACKET:;
#CDIMAGE:;
#DISCIMAGE:;
#LYRICSPATH:;
#CDTITLE:Magna Trick title!.png;
#MUSIC:Strange Program.mp3;
#OFFSET:-0.129207;
#SAMPLESTART:42.169998;
#SAMPLELENGTH:12.000000;
#SELECTABLE:YES;
#BPMS:0.000=107.487,
3.000=214.973,
225.000=107.487,
227.000=214.973,
287.000=107.487,
289.000=214.973,
352.500=429.947,
355.500=107.487;
#STOPS:68.000=4.187;
#DELAYS:;
#WARPS:;
#TIMESIGNATURES:0.000=4=4;
#TICKCOUNTS:0.000=4;
#COMBOS:0.000=1;
#SPEEDS:0.000=1.000=0.000=0;
#SCROLLS:0.000=1.000;
#FAKES:;
#LABELS:0.000=Song Start;
#BGCHANGES:;
#KEYSOUNDS:;
#ATTACKS:
;

//---------------dance-single - Magna Trick----------------
#NOTEDATA:;
#CHARTNAME:Magna Trick;
#STEPSTYPE:dance-single;
#DESCRIPTION:Magna Trick;
#CHARTSTYLE:;
#DIFFICULTY:Beginner;
#METER:5;
#RADARVALUES:0.328879,0.502481,0.009397,0.037586,0.046983,245.000000,244.000000,1.000000,4.000000,0.000000,0.000000,0.000000,0.000000,0.000000,0.328879,0.502481,0.009397,0.037586,0.046983,245.000000,244.000000,1.000000,4.000000,0.000000,0.000000,0.000000,0.000000,0.000000;
#CREDIT:Magna Trick;
#NOTES:
0000
0000
0000
1000
,
0001
0000
0000
0000
,
0100
0000
0000
0000
,
0010
0000
0000
0000
,
1000
0000
0000
0000
,
0001
0000
0000
0000
,
0010
0000
0000
0000
,
0100
0000
0000
0000
,
1000
1000
1000
1000
,
0001
0001
0000
1000
,
0000
0001
0000
1000
,
0000
0001
0000
1000
,
0000
0001
0000
1000
,
1000
0001
0000
0100
,
0000
0010
0000
0100
,
0000
0010
0000
1000
,
0001
0001
1000
0001
,
2002
3003
0000
0000
1000
0000
0000
0000
0000
0000
0000
0000
0001
0000
0000
0000
,
0000
1000
0000
0001
,
0000
0100
0000
0010
,
0000
0100
0000
0010
,
0000
1000
0000
0010
,
0000
1000
0000
0010
,
0000
0100
0000
0001
,
0000
0100
0000
0001
,
0000
1000
0000
0001
,
0000
1000
0000
0100
,
0000
0010
0000
0100
,
0000
0010
0000
1000
,
0000
0001
0000
0100
,
0000
0010
0000
1000
,
0000
0100
0000
0010
,
0000
0001
0000
1000
,
0000
0001
0001
0001
,
0001
1000
1000
1000
,
1000
0010
0010
0010
,
0010
0100
0100
0100
,
0100
0001
0001
0001
,
0001
1000
1000
1000
,
1000
0001
0001
0001
,
0001
0100
0100
0100
,
0100
0010
0010
0010
,
0010
1000
1000
1000
,
1000
0001
0001
0001
,
0001
0010
0010
0010
,
0010
0100
0100
0100
,
0100
1000
1000
1000
,
1000
0001
0001
0001
,
0001
1000
0001
1000
,
0001
1000
0001
0001
,
0000
0100
0000
0010
,
0000
1000
1000
0001
,
0000
0100
0000
0010
,
0000
1000
1000
0010
,
0000
0100
0000
0010
,
0000
1000
0000
0001
,
0000
0000
0000
0001
0000
1000
0000
0001
0000
1000
0000
0001
1000
0000
0000
0000
,
0100
0000
1000
0000
,
0001
0000
1000
0000
,
0010
0000
0100
0000
,
0001
0000
0100
0000
,
0001
0000
1000
0000
,
0100
0000
0010
0000
,
0001
0000
1000
0000
,
0100
0000
0010
0000
,
0001
1000
0001
1000
,
0001
0100
0010
0100
,
0010
1000
0001
1000
,
0001
0100
0010
0100
,
0010
1000
0001
1000
,
0001
0100
0010
0100
,
0010
0000
0000
0000
1000
0000
0000
0000
0001
0000
0000
1000
0000
0010
0000
1000
,
0000
0010
0000
1000
0001
0000
0000
0000
1000
0000
0000
0000
0000
0000
0000
0000
,
0100
0000
1000
0000
,
0001
0000
0010
0000
,
0001
0000
1000
0000
,
0010
0000
0100
0000
,
0001
0000
0010
0000
,
0100
0000
0001
0000
,
1000
0000
0010
0000
,
0100
0000
0001
1000
,
0001
0000
1000
0010
,
1000
0000
0001
0100
,
0001
0000
1000
0100
,
1000
0000
0001
0010
,
0001
0000
1000
0010
,
1000
0000
0001
1000
,
1000
0001
1000
0001
,
1000
0200
0000
0000
0000
0000
0300
0020
,
0000
0030
0000
0000
0000
0000
0000
0000
;

//---------------dance-single - Magna Trick----------------
#NOTEDATA:;
#CHARTNAME:Magna Trick;
#STEPSTYPE:dance-single;
#DESCRIPTION:Magna Trick;
#CHARTSTYLE:;
#DIFFICULTY:Easy;
#METER:8;
#RADARVALUES:0.397340,0.502481,0.028190,0.075172,0.037586,296.000000,293.000000,3.000000,8.000000,0.000000,0.000000,0.000000,0.000000,0.000000,0.397340,0.502481,0.028190,0.075172,0.037586,296.000000,293.000000,3.000000,8.000000,0.000000,0.000000,0.000000,0.000000,0.000000;
#CREDIT:Magna Trick;
#NOTES:
0000
0000
0000
0110
,
1001
0010
1000
0010
,
0100
0001
0100
0001
,
1000
0100
1000
0200
,
0010
0010
0010
0310
,
0001
1000
0001
1000
,
0100
0010
0100
0010
,
0001
1000
0100
0020
,
0001
0001
0001
0031
,
1000
0001
0000
1000
,
1000
0001
0000
0001
,
0001
1000
0000
0100
,
0100
0010
0000
0010
,
0010
0100
0000
1000
,
1000
0100
0000
0010
,
0010
0001
0000
1000
,
0001
0001
1000
0001
,
2002
3003
0000
0000
1000
0000
0000
0000
0100
0000
0000
0000
1000
0000
0000
0000
,
0100
1000
0100
1000
,
0100
1000
0100
1000
,
0100
0010
0001
0010
,
0001
1000
0010
1000
,
0010
0100
0001
0010
,
0100
1000
0100
1000
,
0200
0000
0000
0000
,
0300
1000
0000
0001
,
0000
1000
0000
0100
,
0000
0010
0000
0100
,
0000
0010
0000
0001
,
0001
0001
0000
0100
,
0000
0010
0000
1000
,
0000
0100
0000
0010
,
0000
0002
0000
1003
,
0000
0001
0001
0001
,
0001
1000
1000
1000
,
1000
0010
0010
0010
,
0010
0100
0100
0100
,
0100
0001
0001
0001
,
0001
1000
1000
1000
,
1000
0001
0001
0001
,
0001
0100
0100
0100
,
0100
0010
0010
0010
,
0010
1000
1000
1000
,
1000
0001
0001
0001
,
0001
0010
0010
0010
,
0010
0100
0100
0100
,
0100
1000
1000
1000
,
1000
0001
0001
0001
,
0001
1000
0001
1000
,
0001
1000
0001
0001
,
0000
0100
0010
1000
,
0000
1000
1000
0001
,
0000
1000
0100
0010
,
0000
0001
0001
0010
,
0000
0100
1000
0001
,
0000
1000
0000
0001
,
0000
0000
0000
0000
0001
1000
0000
0001
0000
1000
0000
0001
1000
0000
0000
0000
,
0100
0000
1000
0000
,
0001
0000
1000
0000
,
0010
0000
0100
0000
,
0001
0000
0100
0000
,
0001
0000
1000
0000
,
0100
0000
0010
0000
,
0001
0000
1000
0000
,
0100
0000
0010
0000
,
0001
1000
0001
1000
,
0001
0100
0010
0100
,
0010
1000
0001
1000
,
0001
0100
0010
0100
,
0010
1000
0001
1000
,
0001
0100
0010
0100
,
0010
0000
0000
0000
1000
0000
0000
0000
0001
0000
0000
0000
1000
0010
0000
1000
,
0000
0010
0000
1000
0001
0000
0000
0000
1000
0000
0000
0000
0000
0000
0000
0000
,
0100
1000
0100
0000
,
0010
0001
0010
0000
,
0001
1000
0001
0000
,
1000
0010
1000
0000
,
0100
0010
0100
0000
,
0010
0001
0010
0000
,
0100
1000
0100
0000
,
1000
0010
1000
0000
,
0001
0100
0001
0000
,
1000
0100
1000
0000
,
0001
1000
0001
0000
,
0010
0100
0010
0000
,
0001
1000
0001
0000
,
1000
0000
0001
1000
,
1000
0001
1000
0001
,
1000
0200
0000
0000
0000
0000
0300
0020
,
0000
0030
0000
0000
0000
0000
0000
0000
;

//---------------dance-single - Magna Trick----------------
#NOTEDATA:;
#CHARTNAME:Magna Trick;
#STEPSTYPE:dance-single;
#DESCRIPTION:Magna Trick;
#CHARTSTYLE:;
#DIFFICULTY:Medium;
#METER:11;
#RADARVALUES:0.542315,0.586228,0.037586,0.084569,0.037586,404.000000,400.000000,4.000000,9.000000,0.000000,0.000000,0.000000,0.000000,0.000000,0.542315,0.586228,0.037586,0.084569,0.037586,404.000000,400.000000,4.000000,9.000000,0.000000,0.000000,0.000000,0.000000,0.000000;
#CREDIT:Magna Trick;
#NOTES:
0000
0000
0000
1010
,
0101
0010
1000
0010
,
0100
0001
0100
0000
0001
0000
0100
0000
,
0010
1000
0010
0000
1000
0000
0200
0000
,
0010
0010
0010
0310
,
0001
1000
0001
0000
1000
0000
0001
0000
,
0100
0010
0100
0000
0010
0000
0100
0000
,
0001
0010
0001
0000
1000
0000
0200
0000
,
0010
0010
0010
0310
,
0001
1000
0001
0000
1000
0000
0001
0000
,
1000
0010
1000
0000
0010
0000
1000
0000
,
0001
0100
0001
0000
0100
0000
0002
0000
,
1000
1000
1000
1003
,
0010
1000
0010
0000
1000
0000
0010
0000
,
1000
0001
1000
0000
0001
0000
1000
0000
,
0100
0010
0100
0000
0010
0000
0100
0000
,
0010
0001
0010
0000
0001
0000
0010
0000
,
2002
3003
0000
0000
1000
0000
0000
0000
0100
0000
0000
0000
1000
0000
0000
0000
,
0100
1000
0100
0000
0010
0000
0001
0000
,
0010
0001
0010
0000
0001
0000
1000
0000
,
0001
1000
0001
0000
0100
0000
0010
0000
,
0100
0010
0100
0000
0010
0000
1000
0000
,
0010
1000
0010
0000
1000
0000
0001
0000
,
1000
0001
1000
0000
0100
0000
0010
0000
,
0200
0000
0000
0010
0000
0010
0000
0010
,
0300
0010
0001
0000
1000
0000
0100
0000
,
0010
0001
1000
0010
,
0100
0001
1000
0100
,
1000
0001
0100
0001
,
0001
0010
0100
0000
1000
0000
1001
0000
,
0000
0001
1000
0000
0010
0100
0010
0010
,
0000
0000
1000
1000
0000
0001
0001
0000
,
0100
0100
0002
0000
0000
0000
1003
0000
,
0000
0001
0100
0001
,
0100
0010
1000
0010
,
1000
0100
0010
0100
,
0010
0001
1000
0001
,
1000
0010
0001
0010
,
0001
1000
0100
1000
,
0100
0001
0010
0100
,
1000
0001
0100
0010
,
1000
0001
0100
0001
,
0100
0010
1000
0010
,
1000
0100
0010
0100
,
0010
0001
1000
0001
,
1000
0010
0001
0010
,
0001
1000
0100
1000
,
0100
0001
0010
0100
,
1000
0010
0100
0001
,
1000
0010
0010
0100
,
0000
0100
0010
1000
,
0000
1000
1000
0001
,
0000
1000
0100
0010
,
0000
0001
0001
0010
,
0000
0100
1000
0001
,
0000
1000
0000
0001
,
0000
0000
0000
0000
0001
1000
0000
0001
0000
1000
0000
0001
0010
0000
0000
0000
,
0100
0000
1000
0100
1000
0000
0010
0000
,
0100
0000
0001
0100
0001
0000
1000
0000
,
0010
0000
1000
0010
1000
0000
0001
0000
,
0010
0000
0001
0010
0001
0000
0010
0000
,
0100
0000
0010
0100
0010
0000
0001
0000
,
1000
0000
0001
1000
0001
0000
0100
0000
,
0001
0000
0100
0001
0100
0000
0010
0000
,
1000
0000
0010
1000
0010
0000
1000
0000
,
0001
0000
1000
0001
1000
0000
0100
0000
,
0010
0000
0100
0010
0100
0000
0010
0000
,
0001
0000
0010
0001
0010
0000
0001
0000
,
1000
0000
0001
1000
0001
0000
0100
0000
,
0010
0000
0100
0010
0100
0000
0001
0000
,
0010
0000
0001
0010
0001
0000
1000
0000
,
0100
0000
0000
0000
1000
0000
0100
0000
1000
0000
0000
0000
0001
1000
0000
0010
,
0000
0100
0000
0001
1000
0000
0000
0000
0100
0000
0000
0000
1000
0000
0100
0000
,
1000
0000
0010
0000
0100
0000
0001
0100
,
0001
0000
1000
0000
0010
0000
1000
0010
,
1000
0000
0001
0000
0010
0000
0001
0010
,
0001
0000
0010
0000
0100
0000
0010
0100
,
0010
0000
0001
0000
1000
0000
0001
1000
,
0001
0000
0100
0000
0001
0000
0100
0001
,
0100
0000
0010
0000
1000
0000
0010
1000
,
0010
0000
1000
0000
0001
0000
1000
0001
,
1000
0000
0100
0000
0010
0000
0100
0010
,
0100
0000
0010
0000
0001
0000
0010
0001
,
0010
0000
0001
0000
1000
0000
0001
1000
,
0001
0000
0100
0000
0010
0000
0100
0010
,
0100
0000
0001
0000
0010
0000
0001
0010
,
0001
0000
1000
0000
0100
0000
1000
0100
,
1000
0001
1000
0001
,
1000
0200
0000
0000
0000
0000
0300
0020
,
0000
0030
0000
0000
0000
0000
0000
0000
;

//---------------dance-single - Magna Trick----------------
#NOTEDATA:;
#CHARTNAME:Magna Trick;
#STEPSTYPE:dance-single;
#DESCRIPTION:Magna Trick;
#CHARTSTYLE:;
#DIFFICULTY:Hard;
#METER:14;
#RADARVALUES:0.702057,0.753721,0.046983,0.075172,0.037586,523.000000,518.000000,5.000000,8.000000,0.000000,0.000000,1.000000,0.000000,0.000000,0.702057,0.753721,0.046983,0.075172,0.037586,523.000000,518.000000,5.000000,8.000000,0.000000,0.000000,1.000000,0.000000,0.000000;
#CREDIT:Magna Trick;
#NOTES:
0000
0000
0000
0101
,
1010
0000
0100
0001
0000
0001
0100
0000
,
0010
0000
1000
0010
0000
0010
1000
0000
,
0001
0000
0010
0100
0000
0100
0020
0000
,
0001
0000
0100
0100
0000
0001
0031
0000
,
1000
0000
0001
1000
0000
1000
0001
0000
,
0010
0000
0100
1000
0000
1000
0100
0000
,
0010
0000
0001
0010
0000
0010
0002
0000
,
0010
0000
1000
1000
0000
0010
0013
0000
,
0001
0010
0001
0010
0000
0100
1000
0000
,
1000
0010
1000
0010
0000
0100
0001
0000
,
0001
1000
0001
1000
0000
0010
0200
0000
,
0001
0000
0010
0010
0000
0001
0301
0000
,
0100
0001
0100
0001
0000
1000
0010
0000
,
0010
1000
0010
1000
0000
0001
0100
0000
,
0100
0010
0100
0010
0000
1000
0001
0000
,
0100
1000
0100
0001
0100
1000
0100
0010
,
0220
0330
0000
0000
0001
0000
0000
0000
0010
0000
0000
0000
0001
0000
0000
0000
,
0010
0001
1000
0000
0100
0000
1000
0000
,
0100
1000
0001
0000
1000
0000
0001
0000
,
1000
0001
0100
0000
0010
0000
0100
0000
,
0010
0100
1000
0000
0100
0000
0001
0000
,
0100
0001
1000
0000
0001
0000
1000
0000
,
0001
0100
1000
0000
0100
0000
0001
0000
,
0020
0000
0000
0100
0000
0100
0000
0100
,
0030
0100
1000
0010
1000
0001
0010
0001
,
1000
0100
1000
0001
0100
0001
0010
0100
,
1000
0010
1000
0100
0010
0001
1000
0010
,
0100
0001
1000
0001
0100
0010
0100
0001
,
1000
1000
1000
0100
0010
0000
1001
0001
,
0000
1000
0001
0000
0100
0010
0100
0100
,
0001
0000
0001
0001
0000
1000
1000
0000
,
0010
0010
4000
0000
0000
0000
3001
0000
,
1000
0001
1100
0000
0010
0000
1000
0000
,
0010
0100
0000
0001
1000
0001
0100
0010
,
1000
0100
0010
0000
0001
0000
0010
0000
,
0100
1000
0000
0100
1000
0100
0010
0001
,
0100
1000
0100
0000
0001
0000
0100
0000
,
0010
1000
0000
0010
1000
0100
0000
0010
,
1000
0100
0000
1000
0100
0001
0000
1000
,
0100
0001
0000
0010
0001
0000
0100
0001
,
0100
0001
1000
0000
0010
0000
1000
0000
,
0010
0100
0000
0001
1000
0100
0001
0100
,
1000
0010
0001
0000
0010
0000
1000
0000
,
0100
1000
0000
0100
0001
0010
1000
0001
,
1000
0100
0010
0000
0001
0000
0100
0000
,
1000
0100
0000
0001
0010
0100
0000
0001
,
0010
0100
0000
0001
0010
1000
0000
0001
,
0010
1000
0000
1000
0100
0000
1000
0000
,
0001
0100
1000
0000
0100
0000
0010
0000
,
0001
0000
0010
0100
0000
1000
0000
0001
,
0100
0010
0010
0000
1000
0000
0100
0000
,
1000
0000
0001
0010
0000
0100
0000
1000
,
0001
1000
1000
0000
1000
0000
0100
0000
,
0010
0000
0001
0100
0001
0100
0000
0010
,
0000
1000
0001
0000
0100
0000
1000
0000
,
0010
0000
0000
0000
0001
0100
0000
1000
0000
0010
0000
1000
0100
0000
0000
0000
,
0010
0000
0001
0010
0100
0000
1000
0000
,
0010
0000
1000
0010
0001
0000
1000
0000
,
0100
0000
0001
0100
0010
0000
1000
0000
,
0100
0000
0010
0100
1000
0000
0100
0000
,
0010
0000
0001
1000
0100
0000
1000
0000
,
0001
0000
0010
0001
1000
0000
0010
0000
,
0100
0000
0001
1000
0010
0000
0100
0000
,
0001
0000
1000
0001
0010
0000
0001
0000
,
1000
0000
0100
1000
0001
0000
0010
0000
,
0100
0000
0010
0100
1000
0000
0100
0000
,
0001
0000
1000
0100
0001
0000
1000
0000
,
0001
0000
1000
0010
0001
0000
0010
0000
,
0100
0000
1000
0100
0010
0000
0001
0000
,
0100
0000
0001
0100
1000
0000
0001
0000
,
0010
0000
0000
0000
0001
0000
0010
0000
1000
0000
0000
0000
0001
0100
0000
1000
,
0000
0010
0000
0001
1000
0000
0100
0000
0010
0000
1000
0000
0001
0000
0010
0000
,
0001
1000
0100
1000
0010
0001
1000
0010
,
1000
0100
0001
0010
0100
1000
0001
0100
,
0001
0010
1000
0001
0100
0001
1000
0100
,
1000
0010
0100
1000
0010
0001
0100
0010
,
0100
0001
1000
0010
0001
0100
1000
0001
,
1000
0100
0010
0001
1000
0100
0010
1000
,
0010
0001
0100
1000
0001
0010
0100
0001
,
0100
1000
0001
0100
1000
0010
0001
1000
,
0001
0100
0010
1000
0100
0001
0010
0100
,
0010
1000
0100
0010
1000
0001
0100
1000
,
0100
0010
1000
0100
0001
0010
1000
0001
,
1000
0100
0010
0001
0100
1000
0010
0100
,
0010
0001
1000
0010
0100
0001
1000
0100
,
0001
0010
1000
0000
0100
0000
0001
1000
,
0001
1000
0001
1000
,
0001
0020
0000
0000
0000
0000
0030
0200
,
0000
0300
0000
0000
0000
0000
0000
0000
;

//---------------dance-single - Magna Trick----------------
#NOTEDATA:;
#CHARTNAME:Magna Trick;
#STEPSTYPE:dance-single;
#DESCRIPTION:Magna Trick;
#CHARTSTYLE:;
#DIFFICULTY:Challenge;
#METER:15;
#RADARVALUES:0.896700,0.921215,0.122155,0.065776,0.263104,668.000000,655.000000,13.000000,7.000000,0.000000,0.000000,1.000000,0.000000,0.000000,0.896700,0.921215,0.122155,0.065776,0.263104,668.000000,655.000000,13.000000,7.000000,0.000000,0.000000,1.000000,0.000000,0.000000;
#CREDIT:Magna Trick;
#NOTES:
0000
0000
0000
1010
,
0101
0001
1000
0010
0000
1000
0100
0000
,
1100
1000
0001
0010
0000
0001
0100
0000
,
1001
1000
0100
0010
0000
0010
0200
0000
,
1000
1000
1000
0010
0000
0001
0301
0000
,
0110
0010
0001
1000
0000
0010
0100
0000
,
0101
0100
0001
1000
0000
0100
0010
0000
,
1100
1000
0100
0010
0000
0001
2000
0000
,
0100
0100
0100
0010
0000
0001
3001
0000
,
1000
0000
0100
0000
1000
0000
0100
0000
0010
0001
0010
0001
0010
0000
0100
0000
,
0010
0000
0100
0000
1000
0000
0001
0000
0100
0010
0100
0010
0100
0000
0001
0000
,
1000
0000
0100
0000
1000
0000
0001
0000
1000
0100
1000
0100
0020
0000
0000
0000
,
0100
0100
0100
0001
0000
1000
1030
0000
,
0010
0000
1000
0000
0010
0000
0100
0000
0001
1000
0001
1000
0100
0000
0010
0000
,
0010
0000
0001
0000
0010
0000
0100
0000
1000
0001
1000
0001
0010
0000
0100
0000
,
0100
0000
0010
0000
0100
0000
1000
0000
0001
0100
0001
0100
0010
0000
1000
0000
,
1000
0000
0001
0000
1000
0000
0100
0000
0010
0001
0010
0001
1000
0000
0100
0000
,
0220
0330
0000
0000
1000
0000
0100
0000
1000
0000
0100
0000
1000
0000
0100
0000
,
0010
0001
1000
0010
1000
0010
1000
0010
,
0100
0001
0010
0100
0010
0100
0010
0100
,
0001
1000
0010
0001
0010
0001
0010
0001
,
0100
1000
0001
0100
0001
0100
0001
0100
,
0010
1000
0100
0010
0100
0010
0100
0010
,
0001
1000
0100
0010
0001
0100
1000
0001
,
0200
0000
0000
0010
0000
0010
0000
0010
,
0300
0010
0001
0100
0001
1000
0100
1000
,
0001
0010
0001
1000
0010
1000
0100
0010
,
0001
0100
0001
0010
0100
1000
0001
0100
,
0010
1000
0001
1000
0010
0100
0010
1000
,
0001
0001
0001
0010
0100
0000
1001
1000
,
0000
0001
1000
0000
0010
0100
0010
0010
,
1000
0000
1000
1000
0000
0001
0001
0000
,
0100
0000
0100
0000
0001
1000
0001
1000
0001
1000
0001
1000
0001
0000
0000
0000
,
0001
1000
0011
0000
0100
0000
0001
0000
,
0100
0010
0000
1000
0001
1000
0010
0100
,
0001
0010
0100
0000
1000
0000
0100
0000
,
0010
0001
0000
0010
0001
0010
0100
1000
,
0010
0001
0010
0000
1000
0000
0010
0000
,
0100
0001
0000
0100
0001
0010
0000
0100
,
0001
0010
0000
0001
0010
1000
0000
0001
,
0010
1000
0000
0100
1000
0000
0010
1000
,
0010
1000
0001
0000
0100
0000
0001
0000
,
0100
0010
0000
1000
0001
0010
1000
0010
,
0001
0100
1000
0000
0100
0000
0001
0000
,
0010
0001
0000
0010
1000
0100
0001
1000
,
0001
0010
0100
0000
1000
0000
0010
0000
,
0001
0010
0000
1000
0100
0010
0000
1000
,
0100
0010
0000
1000
0100
0001
0000
1000
,
0100
0001
0000
0001
0010
0000
0001
0000
,
1000
0010
0001
0000
0010
0000
0100
0000
,
1000
0000
0110
0010
0000
1000
0000
0001
,
0010
0100
0100
0000
0001
0000
0010
0000
,
0001
0000
1000
1100
0000
0010
0000
0001
,
1000
0001
0011
0000
0001
0000
0010
0000
,
0100
0000
1000
0010
1000
0010
0000
0100
,
0000
0001
1000
0000
0010
0000
0001
0000
,
0100
0000
0000
0000
1000
0010
0000
0001
0000
0100
0000
0001
0010
0000
1000
0000
,
0100
0000
0001
0000
1000
0000
0100
0010
0100
0000
1000
0000
0001
0000
0010
0000
,
0100
0000
1000
0000
0001
0000
0100
1000
0100
0000
0010
0000
0001
0000
0100
0000
,
0010
0000
0001
0000
1000
0000
0010
0001
0010
0000
1000
0000
0001
0000
1000
0000
,
0010
0000
1000
0000
0100
0000
0010
1000
0010
0000
1000
0000
0010
0000
0001
0000
,
0100
0000
0010
0000
1000
0000
0001
0010
0001
0000
0100
0000
0001
0000
0010
0000
,
1000
0000
0001
0000
0100
0000
1000
0001
1000
0000
0010
0000
0100
0000
0001
0000
,
0010
0000
0100
0000
1000
0000
0001
0010
0001
0000
1000
0000
0010
0000
0100
0000
,
1000
0000
0010
0000
0001
0000
1000
0100
1000
0000
0010
0000
1000
0000
0100
0000
,
0001
0000
1000
0000
0010
0000
0001
1000
0001
0000
0010
0000
0100
0000
1000
0000
,
0010
0000
1000
0000
0100
0000
0010
0001
0010
0000
0100
0000
0001
0000
0100
0000
,
1000
0000
0010
0000
0001
0000
0010
1000
0010
0000
0100
0000
0001
0000
0010
0000
,
1000
0000
0010
0000
0001
0000
0100
0001
0100
0000
1000
0000
0100
0000
0001
0000
,
0010
0000
1000
0000
0001
0000
0010
1000
0010
0000
0100
0000
1000
0000
0001
0000
,
0010
0000
0100
0000
1000
0000
0010
0100
0010
0000
0001
0000
1000
0000
0001
0000
,
0100
0000
0010
0000
1000
0000
0100
0001
0100
0000
0010
0000
0001
0010
0000
0001
,
0000
0100
0000
1000
0001
0000
0010
0000
0100
0000
0001
0000
1000
0000
0100
1000
,
0100
0000
0001
0000
0010
0000
0001
0000
0100
0000
1000
0000
0001
0000
0100
0010
,
0100
0000
0010
0000
1000
0000
0100
0000
0010
0000
0001
0000
1000
0000
0010
0001
,
0010
0000
0100
0000
0001
0000
1000
0000
0010
0000
1000
0000
0001
0000
0010
1000
,
0010
0000
0100
0000
0010
0000
0001
0000
0100
0000
1000
0000
0010
0000
0100
1000
,
0100
0000
1000
0000
0001
0000
0100
0000
1000
0000
0010
0000
0001
0000
1000
0010
,
1000
0000
0010
0000
0100
0000
1000
0000
0001
0000
0010
0000
0100
0000
0001
1000
,
0001
0000
1000
0000
0010
0000
0001
0000
1000
0000
0100
0000
0010
0000
1000
0100
,
1000
0000
0001
0000
1000
0000
0010
0000
0001
0000
0100
0000
1000
0000
0001
0010
,
0001
0000
0010
0000
0100
0000
0001
0000
0010
0000
1000
0000
0100
0000
0010
1000
,
0010
0000
0001
0000
0010
0000
0100
0000
0001
0000
1000
0000
0010
0000
0100
0001
,
0100
0000
1000
0000
0001
0000
0010
0000
1000
0000
0100
0000
0001
0000
1000
0100
,
1000
0000
0010
0000
0100
0000
1000
0000
0010
0000
0001
0000
0100
0000
0010
0100
,
0010
0000
1000
0000
0001
0000
0100
0000
0010
0000
1000
0000
0001
0000
0010
0001
,
0010
0000
0100
0000
1000
0000
0000
0000
0010
0000
0000
0000
1000
0000
0001
0100
,
1000
0100
0001
0100
,
1000
0400
0000
0000
0000
0000
0300
0020
,
0000
0030
0000
0000
0000
0000
0000
0000
;
