#VERSION:0.83;
#TITLE:Stone Ocean;
#SUBTITLE:-Jojo's Stone Ocean Opening-;
#ARTIST:Iris feat YZYX;
#TITLETRANSLIT:;
#SUBTITLETRANSLIT:;
#ARTISTTRANSLIT:;
#GENRE:;
#ORIGIN:;
#CREDIT:Magna Trick;
#BANNER:Stone Ocean.png;
#BACKGROUND:Stone Ocean bg.png;
#PREVIEWVID:;
#JACKET:;
#CDIMAGE:;
#DISCIMAGE:;
#LYRICSPATH:;
#CDTITLE:Magna Trick title!.png;
#MUSIC:Stone Ocean.mp3;
#OFFSET:-0.128000;
#SAMPLESTART:16.530001;
#SAMPLELENGTH:14.000000;
#SELECTABLE:YES;
#BPMS:0.000=180.000,
146.000=90.000,
153.000=360.000,
157.000=90.000,
158.000=180.000;
#STOPS:;
#DELAYS:;
#WARPS:;
#TIMESIGNATURES:0.000=4=4;
#TICKCOUNTS:0.000=4;
#COMBOS:0.000=1;
#SPEEDS:0.000=1.000=0.000=0;
#SCROLLS:0.000=1.000;
#FAKES:;
#LABELS:0.000=Song Start;
#BGCHANGES:0.063=Stone Ocean.mp4=1.000=0=0=1=====,
99999=-nosongbg-=1.000=0=0=0 // don't automatically add -songbackground-
;
#KEYSOUNDS:;
#ATTACKS:
;

//---------------dance-single - ----------------
#NOTEDATA:;
#CHARTNAME:;
#STEPSTYPE:dance-single;
#DESCRIPTION:;
#CHARTSTYLE:;
#DIFFICULTY:Beginner;
#METER:3;
#RADARVALUES:0.252475,0.340907,0.042079,0.136757,0.010520,168.000000,164.000000,4.000000,13.000000,0.000000,0.000000,0.000000,0.000000,0.000000,0.252475,0.340907,0.042079,0.136757,0.010520,168.000000,164.000000,4.000000,13.000000,0.000000,0.000000,0.000000,0.000000,0.000000;
#CREDIT:Magna Trick;
#NOTES:
0000
1000
1000
1000
,
1000
1000
1000
1000
,
1000
1000
1000
1000
,
0000
0001
0000
0000
0001
0000
0000
0001
,
0000
0000
0100
0010
,
0000
0000
0100
0000
0000
0001
0000
1000
,
0000
1000
0000
0000
0100
0000
0010
0000
,
0000
0000
0001
0000
0000
0100
0000
0010
,
0000
0010
0000
0000
0100
0000
0001
0000
,
0000
1000
0000
0000
0000
0001
0000
0000
,
0000
1000
0100
0010
,
0000
0001
0200
0000
,
0000
0300
0010
0000
,
0100
0000
0001
0000
,
1000
0000
0001
0000
,
1000
0000
0010
0000
,
1000
0000
0001
0000
,
0100
0000
0001
0000
,
1000
0000
0100
0000
,
1000
0000
0001
0000
,
0010
0000
0001
0000
,
1000
0000
0010
0000
,
0100
0010
1000
0010
,
0100
0010
1000
0001
,
0001
1000
0001
0001
,
0000
0000
1000
1000
,
0000
0001
0000
1000
,
0000
0000
0100
0000
0000
1000
0000
0000
,
0002
0003
0100
0100
,
0000
0000
0010
0000
0000
0100
0000
0000
,
0010
0000
0100
0100
,
0010
0000
0100
0000
0000
0010
0000
0000
,
0100
0000
0001
0001
,
1000
0000
0001
0000
0000
1000
0000
0000
,
0001
0000
1000
1000
,
0100
0000
0100
0000
0000
1000
0000
0000
,
0100
0000
0000
0000
0010
0001
1000
0001
,
0000
0000
1000
0000
0000
0000
0000
0000
1000
0000
0000
0000
2000
0000
0000
0000
0000
0000
0000
0000
0000
3000
0000
0000
0001
0000
0000
0000
0200
0000
0000
0000
,
0000
0320
0000
0000
0000
0000
0000
0000
0000
0000
0000
0000
0000
0000
0030
0000
,
0000
0000
1000
1000
1000
0000
0000
0000
,
0001
1000
0000
0100
,
0000
0010
0000
0000
0000
0000
0001
0000
,
0001
0001
0001
0100
,
0100
0010
0010
0000
,
0100
0001
0000
1000
,
0000
0100
0000
0000
0000
0000
1000
0000
,
1000
0001
0001
0010
,
0001
1000
0001
0000
,
0100
0100
0010
0200
,
0000
0300
0020
0000
0000
0000
0000
0000
0000
0000
0030
0000
0000
0000
0000
0000
,
0100
0100
0010
0200
,
0000
0000
0320
0000
0000
0000
0000
0000
0000
0030
0000
0000
0000
0000
0000
0000
,
1000
1000
0001
0001
,
1000
0100
0010
0002
,
0000
0000
0000
0003
0000
0000
0110
0000
,
0000
0000
0000
0110
,
0000
0000
0000
1001
,
0000
0000
0000
2002
,
0000
0000
0000
0000
,
0000
0000
0000
0000
0000
0000
0000
0000
0000
3003
0000
0000
0000
0000
0000
0000
,
0001
0000
1000
0000
,
0010
0000
1000
0000
,
0001
0000
0000
0000
0100
0000
0010
0010
,
0020
0000
0000
0000
,
0000
0000
0000
0000
0000
0000
0000
0000
0000
0000
0000
0000
0000
0030
0000
0000
;

//---------------dance-single - ----------------
#NOTEDATA:;
#CHARTNAME:;
#STEPSTYPE:dance-single;
#DESCRIPTION:;
#CHARTSTYLE:;
#DIFFICULTY:Easy;
#METER:5;
#RADARVALUES:0.320102,0.443606,0.231435,0.115718,0.015780,213.000000,191.000000,22.000000,11.000000,0.000000,0.000000,0.000000,0.000000,0.000000,0.320102,0.443606,0.231435,0.115718,0.015780,213.000000,191.000000,22.000000,11.000000,0.000000,0.000000,0.000000,0.000000,0.000000;
#CREDIT:Magna Trick;
#NOTES:
0000
0001
0001
0001
,
0001
0001
0001
0001
,
0001
0001
0001
0001
,
0010
0001
0000
0010
0001
0000
0010
0001
,
0000
0000
1000
0000
,
0001
0000
0000
0000
1000
0000
0000
0010
,
0000
0010
0000
0000
0100
0000
0000
0000
,
0010
0000
0000
0000
0100
0000
0000
0001
,
0000
0001
0000
0000
1000
0000
0000
0000
,
0001
0000
1000
0000
,
0100
0000
0010
0000
,
0001
0000
1000
0001
2000
0000
0000
0000
,
0000
0000
0000
3000
0010
0000
0000
0000
,
0100
0000
0001
0000
,
1000
0100
0100
1000
,
1000
0001
0001
1000
,
0001
0000
0100
0000
,
0001
0000
0010
0000
,
0001
1000
1000
0001
,
0001
0100
0001
0010
,
0001
0000
1000
0000
,
0001
0000
0100
0000
,
0010
0100
0100
0001
,
0001
1000
1000
0100
,
0010
0001
1001
1001
,
0010
0100
0110
0110
,
0000
0010
0000
1000
,
0000
0000
0001
0000
0000
1000
0000
0000
,
0100
0000
0010
0010
,
0001
0000
1000
0000
0000
0001
0000
0000
,
1001
0000
0010
0010
,
0100
0000
0110
0000
0000
0110
0000
0000
,
0110
0000
0010
1000
,
0100
0000
1100
0000
0000
1100
0000
0000
,
1100
0000
0010
0001
,
0100
0000
0101
0000
0000
0101
0000
0000
,
0101
0000
0000
0000
0001
1000
0001
1000
,
0000
0100
0000
0000
0100
0000
2000
0000
0000
0000
0000
3000
0001
0000
0100
0000
,
0000
0020
0000
0000
0000
0000
0000
0000
0000
0000
0000
0000
0000
0000
0030
0000
,
0000
0000
0100
0000
0000
0000
0010
1000
0010
0000
0000
0000
0000
0000
0000
0000
,
1000
0001
1001
0001
,
0000
1000
0000
0000
1100
0000
0100
0000
,
0010
0001
1000
0001
,
0001
1000
0010
0000
,
0100
0100
0110
0010
,
0000
1000
0000
0000
1001
0000
0001
0000
,
0001
0010
0010
0100
,
1000
1000
0001
0000
,
1000
1000
0010
0200
,
0000
0302
0000
0000
0000
0003
0000
0000
,
1000
1000
0001
0020
,
0000
0230
0000
0000
0000
0300
0000
0000
,
1000
1000
0001
0001
,
1000
0010
0100
0220
,
0000
0000
0000
0330
0000
0000
1010
0000
,
0000
1000
0000
0101
,
0000
0001
0000
1001
,
0000
0100
0000
2000
,
0000
0000
0000
0001
,
0000
0010
3000
0000
,
0010
1000
0010
0100
,
0001
0100
0001
1000
,
1000
0000
0001
0000
0001
0000
0010
0100
,
2000
0000
0000
0000
,
0000
0000
0000
0000
0000
0000
0000
3000
;

//---------------dance-single - ----------------
#NOTEDATA:;
#CHARTNAME:;
#STEPSTYPE:dance-single;
#DESCRIPTION:;
#CHARTSTYLE:;
#DIFFICULTY:Medium;
#METER:7;
#RADARVALUES:0.387729,0.511853,0.231435,0.126237,0.031559,258.000000,236.000000,22.000000,12.000000,0.000000,0.000000,0.000000,0.000000,0.000000,0.387729,0.511853,0.231435,0.126237,0.031559,258.000000,236.000000,22.000000,12.000000,0.000000,0.000000,0.000000,0.000000,0.000000;
#CREDIT:Magna Trick;
#NOTES:
0000
1000
0100
1000
,
0100
0010
0001
0010
,
0001
0100
0010
0100
,
0010
1000
0000
0001
0100
0000
0100
1000
,
0000
0000
0000
0000
0001
0000
1000
0001
,
0000
0000
1000
0000
0100
0010
0000
0001
,
0000
0001
0000
0000
0010
0000
0100
1000
,
0000
0000
0001
0000
0100
0010
0000
0100
,
0000
0100
0000
0000
0010
0000
1000
0001
,
0000
1000
0000
1000
0100
0010
0000
0100
,
0010
0100
0010
0000
0001
0010
0001
0000
,
1000
0001
1000
0001
2000
0000
0000
0000
,
0000
0000
3000
0000
0010
1000
0000
0000
,
0001
0000
0100
0000
0001
0100
0000
0000
,
0000
0001
1000
0000
0001
0000
0001
0000
,
1000
0000
1000
0100
0000
1000
0000
0001
,
1000
0000
0001
0100
,
0100
0000
0010
0000
0100
0010
0000
0000
,
0000
0100
0001
0000
0001
0000
1000
0000
,
1000
0000
0100
1000
0000
0001
0000
1000
,
0001
0000
0010
0100
,
1000
0000
0001
0100
0000
0010
0000
0000
,
0000
0100
0100
0001
,
0001
0000
1000
0100
0000
1000
0000
0001
,
1000
0010
0100
0100
,
0001
1000
0100
0100
,
0000
1000
0001
0010
,
0100
0000
1000
0001
0000
1000
0000
0010
,
0100
0000
0001
0100
,
0010
0000
1010
0000
0000
0101
0000
0000
,
1010
0000
1000
0100
,
0010
0000
0011
0000
0000
1100
0000
0000
,
0011
0000
1000
0001
,
0100
0000
0110
0000
0000
1001
0000
0000
,
0110
0000
0010
0100
,
0001
0000
1001
0000
0000
0110
0000
0000
,
1001
0000
0000
0000
0000
0000
0000
0000
1000
0001
1000
0000
0001
0000
0100
0010
,
0000
0100
0000
0010
0100
0000
0002
0000
0000
0000
0003
0000
1000
0000
2000
0000
,
0000
3200
0000
0000
0000
0000
0000
0000
0000
0000
0000
0000
0000
0000
0300
0000
,
0000
0000
0000
0000
0010
0000
0010
0001
1000
0000
0000
0000
0001
0000
0000
0000
,
0101
1010
1001
0100
,
1000
0001
0000
0000
0110
0000
0010
0000
,
1000
0001
0010
0100
,
0100
0000
0010
0000
0001
1000
0000
0000
,
0001
0000
1000
0000
0110
0000
0010
1000
,
0000
0001
0000
0000
1100
0000
0100
0010
,
0001
0010
0100
1000
,
1000
0000
0001
0000
1000
0001
0000
0000
,
0100
0100
0100
0020
,
0000
0230
0000
0000
0000
0300
0000
0000
,
0010
0010
0100
0200
,
0000
0320
0000
0000
0000
0030
0000
0000
,
1000
1000
0001
0001
,
1000
0100
0000
0010
0001
0000
2000
0000
,
0000
0000
3000
1001
,
0010
0100
0001
1001
,
0100
0010
0001
1100
,
0010
0001
1000
2002
,
0000
0000
0000
0000
,
0000
0000
0000
3003
,
0010
0100
0001
1000
,
0100
0010
0001
1000
,
1000
0000
0001
0000
1000
0000
0100
0001
,
2000
0000
0000
0000
,
0000
0000
0000
0000
0000
0000
0000
3000
;

//---------------dance-single - ----------------
#NOTEDATA:;
#CHARTNAME:;
#STEPSTYPE:dance-single;
#DESCRIPTION:;
#CHARTSTYLE:;
#DIFFICULTY:Hard;
#METER:9;
#RADARVALUES:0.482407,0.511853,0.168317,0.105198,0.063119,321.000000,305.000000,16.000000,10.000000,0.000000,0.000000,0.000000,0.000000,0.000000,0.482407,0.511853,0.168317,0.105198,0.063119,321.000000,305.000000,16.000000,10.000000,0.000000,0.000000,0.000000,0.000000,0.000000;
#CREDIT:Magna Trick;
#NOTES:
// measure 0
0000
0000
0001
0010
0001
0010
0001
0000
,  // measure 1
1000
0100
1000
0100
2000
0000
3001
1000
,  // measure 2
0001
1000
0001
1000
0001
0100
0010
0000
,  // measure 3
0100
0010
0000
1000
0001
0000
0010
0200
,  // measure 4
0000
0300
0000
0000
1000
0000
0001
1000
,  // measure 5
0000
0000
0001
0000
0100
0010
0000
1010
,  // measure 6
0000
1010
0000
0000
1000
0000
0100
0010
,  // measure 7
0000
0000
0001
0000
1000
0100
0000
0011
,  // measure 8
0000
0011
0000
0000
0001
0000
1000
0001
,  // measure 9
0000
0100
0000
0010
1000
0001
0000
0001
,  // measure 10
0010
0100
1000
0100
0010
0001
1000
0000
,  // measure 11
0001
0100
0010
1000
0002
0000
0000
0000
,  // measure 12
0000
0000
0003
0000
1000
0001
0000
0000
,  // measure 13
0010
0000
0001
0000
1000
0100
0000
0000
,  // measure 14
0000
0010
0001
0000
1000
0000
0001
0000
,  // measure 15
0010
0000
0001
1000
0000
1000
0000
0001
,  // measure 16
0100
0000
0000
0000
0010
1000
0001
0000
,  // measure 17
0100
0000
0001
0000
0010
0100
0000
0000
,  // measure 18
0000
1000
0001
0000
0100
0000
0010
0000
,  // measure 19
1000
0000
0001
0010
0000
1000
0000
0010
,  // measure 20
0001
0000
0000
0000
0100
0001
1000
0010
,  // measure 21
0001
0000
0001
1000
0000
0100
0000
0000
,  // measure 22
0000
1000
0001
0000
0001
0000
1000
0000
,  // measure 23
1000
0000
0001
0010
0000
0100
0000
1000
,  // measure 24
0001
1000
1001
0110
,  // measure 25
0100
0010
0110
1001
,  // measure 26
0000
0010
0001
0000
1000
0000
0001
0000
,  // measure 27
1000
0000
0100
1000
0000
0100
0000
0100
,  // measure 28
1000
0000
0001
0000
1000
0001
1000
0001
,  // measure 29
1000
0000
0001
0000
0010
0001
0000
0010
,  // measure 30
0001
0000
1000
0000
0100
1000
0100
1000
,  // measure 31
0100
0000
1000
0000
0001
0100
0000
0010
,  // measure 32
1000
0000
0001
0000
0010
0100
0010
0100
,  // measure 33
0010
0000
0100
0000
1000
0001
0000
0100
,  // measure 34
0010
0000
0001
0000
0010
0100
0010
0100
,  // measure 35
0010
0000
0100
0000
0001
0010
0000
1000
,  // measure 36
0001
0000
0000
0000
0100
0000
0000
0000
0001
0100
0001
0000
0100
0000
0010
1000
,  // measure 37
0000
0001
0000
1000
0100
0000
0020
0000
0000
0000
0030
0000
0001
0000
0002
0000
,  // measure 38
0000
2003
0000
0000
0000
0000
0000
0000
0000
0000
0000
0000
0000
0000
3000
0000
,  // measure 39
0000
0000
0000
0000
0010
0000
1000
0100
0001
0000
0000
0000
0100
0000
0000
0000
,  // measure 40
1000
0010
0100
0000
0101
0000
0001
1000
,  // measure 41
0100
0010
0000
0000
0011
0000
0001
0010
,  // measure 42
0100
0000
1000
0010
0100
0000
0001
1000
,  // measure 43
0100
0010
0001
0000
0010
0100
0000
0000
,  // measure 44
1000
0000
0001
0000
0110
0000
0010
1000
,  // measure 45
0001
0100
0000
0000
1001
0000
1000
0000
,  // measure 46
0100
0000
0010
0000
0001
0000
1000
0001
,  // measure 47
1000
0001
1000
0010
0100
0001
1000
0000
,  // measure 48
0100
0000
0010
0000
0001
0000
1000
0100
,  // measure 49
1000
0100
1000
0000
0100
0000
0010
0000
,  // measure 50
0001
0000
1000
0000
0010
0000
0100
0001
,  // measure 51
0100
0001
0100
0000
0001
0000
1000
0000
,  // measure 52
0001
0001
1000
1000
,  // measure 53
0001
0010
0100
0000
1000
0000
0020
0000
,  // measure 54
0000
0000
0000
0030
0000
0000
0110
0000
,  // measure 55
0010
0000
0000
1000
0000
1000
0000
1000
0000
1100
0000
0000
,  // measure 56
0100
0000
0000
0010
0000
0010
0000
0010
0000
0110
0000
0000
,  // measure 57
0100
0000
0000
0001
0000
0001
0000
0001
0000
2001
0000
0000
,  // measure 58
0000
0000
0000
0001
,  // measure 59
0000
0001
3001
1000
,  // measure 60
0020
0000
0130
0001
1000
0100
0000
0010
,  // measure 61
0001
0010
0000
0100
1000
0001
0100
0010
,  // measure 62
1000
0100
0010
0000
0001
0100
1000
0010
,  // measure 63
0002
0000
0000
0000
,  // measure 64
0000
0000
0000
0000
0000
0000
0000
0003
;

//---------------dance-single - ----------------
#NOTEDATA:;
#CHARTNAME:;
#STEPSTYPE:dance-single;
#DESCRIPTION:;
#CHARTSTYLE:;
#DIFFICULTY:Challenge;
#METER:12;
#RADARVALUES:0.593616,0.614224,0.378712,0.189356,0.126237,395.000000,359.000000,36.000000,18.000000,0.000000,0.000000,0.000000,0.000000,0.000000,0.593616,0.614224,0.378712,0.189356,0.126237,395.000000,359.000000,36.000000,18.000000,0.000000,0.000000,0.000000,0.000000,0.000000;
#CREDIT:Magna Trick;
#NOTES:
0000
0000
1000
0100
0001
0010
1000
0000
,
0010
0001
0100
1000
0002
0000
0013
1000
,
0100
0001
0100
1000
0010
0100
0001
0000
,
0010
0100
1000
0000
0000
0000
0010
0100
1000
0000
0000
0010
0100
0001
0020
0000
,
0000
0030
0100
0000
0101
0000
1000
0001
,
0100
0000
1000
0100
0001
0010
0000
0011
,
0000
0011
0000
0100
1000
0000
0010
0100
,
1000
0000
0100
0001
0010
1000
0000
1010
,
0000
1010
0000
0001
1000
0000
0010
0100
,
0000
2000
0000
3100
0001
0020
0000
0031
,
0100
1000
0001
0010
0100
1000
0002
0000
,
1003
0010
0100
0001
2000
0000
0001
0000
,
0000
0000
3001
0000
1000
0010
0100
0000
,
0001
0000
1000
0000
0001
0010
0000
0100
,
1000
0100
1000
0000
0001
0000
1000
0100
,
0001
0000
1000
0010
0001
0100
0000
1000
,
0100
0000
0001
0000
0100
0001
0010
1000
,
0001
0000
1000
0000
0010
0001
0000
0000
,
1000
0010
0100
0000
0010
0000
0100
0001
,
0001
0000
1000
0100
0001
0100
0000
1000
,
0010
0000
1000
0000
0010
1000
0001
0100
,
1000
0100
0001
0020
0000
0230
0000
0300
,
0010
1000
0001
0000
0011
0000
0100
0000
,
1100
0000
1000
0010
0001
0100
0000
0100
,
1000
0001
1001
0110
,
0010
0010
0100
0000
0110
0000
1001
0000
,
0010
0100
1000
0000
0001
0000
1000
0010
,
0001
0000
0010
0011
0000
0010
0000
0010
,
1000
0000
1001
0000
0001
0100
1000
0010
,
0001
0000
1001
0000
0100
0101
0000
0010
,
1010
0000
0001
0000
0100
1000
0010
0001
,
1000
0000
1001
0000
0010
1010
0000
0100
,
0101
0000
0001
0000
1000
0100
0001
0010
,
1000
0000
0110
0000
0001
0011
0000
0100
,
1100
0000
1000
0000
0010
1000
0100
0001
,
1000
0000
0110
0000
1000
1100
0000
0001
,
0011
0000
0000
0000
0001
0000
0000
0000
1000
0010
0100
0000
0010
0000
0100
0001
,
0000
1000
0000
0001
0010
0000
0200
0000
0000
0000
0300
0000
1000
0000
2000
0000
,
0000
3002
0000
0000
0000
0000
0000
0000
0000
0000
0000
0000
0000
0000
0003
0000
,
0000
0000
0000
0000
1000
0000
0001
0010
1000
0000
0100
0000
0000
0000
0000
0000
,
1001
0000
0100
0000
0110
0000
1000
0001
,
0010
0100
0000
1000
1100
0000
1000
0100
,
0010
0010
0001
0100
0010
0010
1000
0001
,
1000
0100
0010
0000
0010
0001
1000
0000
,
0001
0100
1000
0000
0110
0000
0100
0001
,
1000
0010
0000
1000
1001
0000
0001
0010
,
0001
0010
0100
1000
0100
1000
0010
0010
,
0100
0001
0010
1000
0010
0001
0100
0000
,
0010
1000
0100
0000
0010
0000
0011
0010
,
0100
0010
0001
0000
0001
0000
0001
0000
,
0001
0100
0010
0000
0010
0000
1010
0010
,
0100
0010
1000
0000
1000
0000
0001
0000
,
1000
0100
0001
0000
0001
0010
1000
0000
,
1000
0100
0010
0000
0001
0010
0200
0000
,
0000
0000
0000
0300
0000
0000
0110
0000
,
0100
0000
0000
0001
0000
0001
0000
0001
0000
0011
0000
0000
,
0010
0000
0000
0100
0000
0100
0000
0100
0000
0110
0000
0000
,
0010
0000
0000
1000
0100
1000
0100
1000
0100
1002
0000
0000
,
0000
0000
0000
1000
,
0000
0000
0000
0000
1000
0000
0000
0000
1003
0100
1000
0100
0010
0000
0000
0000
,
0002
0000
1003
0100
0010
2000
0000
3001
,
0100
0020
0000
1030
0010
0100
1000
0001
,
0010
0000
0000
1000
0000
0000
0001
0000
0100
0000
1000
0000
0001
0000
0010
0000
1000
0000
0010
0000
0000
0001
0000
0000
,
0200
0000
0000
0000
,
0000
0000
0000
0000
0000
0020
0000
0330
;
