#VERSION:0.83;
#TITLE:Santiago De Chile;
#SUBTITLE:;
#ARTIST:Los Bunkers;
#TITLETRANSLIT:;
#SUBTITLETRANSLIT:;
#ARTISTTRANSLIT:;
#GENRE:Synth Pop;
#ORIGIN:;
#CREDIT:OpenITG3;
#BANNER:Santiago De Chile-bn.png;
#BACKGROUND:Santiago De Chile-bg.png;
#PREVIEWVID:;
#JACKET:jacket.png;
#CDIMAGE:;
#DISCIMAGE:;
#LYRICSPATH:;
#CDTITLE:;
#MUSIC:Santiago De Chile.ogg;
#OFFSET:-0.217111;
#SAMPLESTART:48.221001;
#SAMPLELENGTH:12.000000;
#SELECTABLE:YES;
#BPMS:0.000=119.990;
#STOPS:;
#DELAYS:;
#WARPS:;
#TIMESIGNATURES:0.000=4=4;
#TICKCOUNTS:0.000=4;
#COMBOS:0.000=1;
#SPEEDS:0.000=1.000=0.000=0;
#SCROLLS:0.000=1.000;
#FAKES:;
#LABELS:0.000=Song Start;
#BGCHANGES:;
#KEYSOUNDS:;
#ATTACKS:
;

//---------------dance-single - ----------------
#NOTEDATA:;
#CHARTNAME:;
#STEPSTYPE:dance-single;
#DESCRIPTION:;
#CHARTSTYLE:;
#DIFFICULTY:Easy;
#METER:3;
#RADARVALUES:0.237481,0.291927,0.236515,0.486546,0.000000,246.000000,211.000000,35.000000,72.000000,0.000000,0.000000,0.000000,0.000000,0.000000,0.237481,0.291927,0.236515,0.486546,0.000000,246.000000,211.000000,35.000000,72.000000,0.000000,0.000000,0.000000,0.000000,0.000000;
#CREDIT:;
#NOTES:
// measure 0
0000
0000
0000
0000
,  // measure 1
0000
0000
0000
0000
,  // measure 2
0000
0000
0000
0000
,  // measure 3
0000
0000
0000
0000
,  // measure 4
1000
1000
0200
0300
,  // measure 5
0001
0001
0020
0030
,  // measure 6
0100
0100
0001
0001
,  // measure 7
2000
3000
0002
0003
,  // measure 8
0110
0000
0000
0001
0000
0000
0100
0000
,  // measure 9
1001
0000
0000
0010
0000
0000
0001
0000
,  // measure 10
0110
0000
0000
1000
0000
0000
0010
0000
,  // measure 11
1100
0000
0000
0100
0000
0000
0010
0000
,  // measure 12
0101
0000
0000
1000
0000
0000
0100
0000
,  // measure 13
1010
0000
0000
0100
0000
0000
0010
0000
,  // measure 14
2002
0000
0000
3003
0000
0000
0100
0000
,  // measure 15
2002
0000
0000
3003
0000
0000
0000
0000
,  // measure 16
2000
0000
0000
0010
0000
3010
0000
0000
,  // measure 17
0002
0000
0000
0100
0000
0103
0000
0000
,  // measure 18
0020
0000
0000
1000
0000
1030
0000
0000
,  // measure 19
0200
0000
0000
0001
0000
0301
0000
0000
,  // measure 20
0220
0330
0001
1000
,  // measure 21
0220
0330
0100
0010
,  // measure 22
2002
3003
0010
0100
,  // measure 23
2002
3003
0000
0000
,  // measure 24
0001
0100
0020
0030
,  // measure 25
1000
0100
0020
0030
,  // measure 26
1000
1000
0001
0001
,  // measure 27
0110
1001
0200
0300
,  // measure 28
1000
0001
0200
0300
,  // measure 29
0010
0001
0200
0300
,  // measure 30
0010
0100
0010
0100
,  // measure 31
1000
1000
0001
0001
,  // measure 32
0220
0330
2002
3003
,  // measure 33
0200
0300
0002
0003
,  // measure 34
0020
0030
2000
3000
,  // measure 35
0100
0001
0200
0300
,  // measure 36
0010
1000
0020
0030
,  // measure 37
0100
1000
0100
0010
,  // measure 38
0010
0001
0200
0300
,  // measure 39
0010
0001
0100
1000
,  // measure 40
0100
0001
0020
0030
,  // measure 41
0100
0100
2002
3003
,  // measure 42
0010
0010
0220
0330
,  // measure 43
1000
0001
1000
0001
,  // measure 44
0100
0010
0001
0010
,  // measure 45
0100
1000
0010
0100
,  // measure 46
0002
1000
1000
0003
,  // measure 47
0010
0100
0001
0001
,  // measure 48
2000
0100
0100
3000
,  // measure 49
0022
0033
2200
3300
,  // measure 50
0010
1000
0010
0001
,  // measure 51
2200
3300
0022
0033
,  // measure 52
1000
0100
0010
1001
,  // measure 53
1000
0010
0200
0300
,  // measure 54
0001
0010
0200
0300
,  // measure 55
0001
0001
1000
1000
,  // measure 56
0110
1001
0020
0030
,  // measure 57
0001
1000
0020
0030
,  // measure 58
0100
1000
0020
0030
,  // measure 59
0100
0010
0100
0010
,  // measure 60
0001
0001
1000
1000
,  // measure 61
0220
0330
1001
1100
,  // measure 62
1001
2000
3020
0230
,  // measure 63
0301
0020
0230
0302
,  // measure 64
1003
1000
0010
0010
,  // measure 65
0101
0001
1001
1000
,  // measure 66
1001
0002
0203
0320
,  // measure 67
1030
0200
0320
2030
,  // measure 68
3001
0001
0100
0100
,  // measure 69
1010
1000
1001
0100
,  // measure 70
2002
0000
0000
0000
,  // measure 71
0000
0000
0000
0000
,  // measure 72
3003
0000
0000
0000
;

//---------------dance-single - ----------------
#NOTEDATA:;
#CHARTNAME:;
#STEPSTYPE:dance-single;
#DESCRIPTION:;
#CHARTSTYLE:;
#DIFFICULTY:Medium;
#METER:5;
#RADARVALUES:0.331121,0.340582,0.283818,0.446000,0.027030,343.000000,301.000000,42.000000,66.000000,0.000000,0.000000,0.000000,0.000000,0.000000,0.331121,0.340582,0.283818,0.446000,0.027030,343.000000,301.000000,42.000000,66.000000,0.000000,0.000000,0.000000,0.000000,0.000000;
#CREDIT:;
#NOTES:
// measure 0
0000
0000
0000
0000
,  // measure 1
0000
0000
0000
0000
,  // measure 2
0000
0000
0000
0000
,  // measure 3
0000
0000
0000
0000
,  // measure 4
1000
0001
1000
0000
0200
0000
0310
0000
,  // measure 5
0001
0010
0001
0000
0020
0000
1030
0000
,  // measure 6
0100
0010
0100
0000
0001
1000
0001
0000
,  // measure 7
2000
0000
3000
0010
0002
0000
1003
0000
,  // measure 8
0110
0000
0000
0002
0000
0003
0100
0000
,  // measure 9
1001
0000
0000
0020
0000
0030
0001
0000
,  // measure 10
0110
0000
0000
2000
0000
3000
0010
0000
,  // measure 11
1100
0000
0000
0200
0000
0300
0010
0000
,  // measure 12
0101
0000
0000
2000
0000
3000
0100
0000
,  // measure 13
1010
0000
0000
0200
0000
0300
0010
0000
,  // measure 14
2001
0000
0000
3010
0000
0000
0100
0000
,  // measure 15
1002
0000
0000
0023
0000
0030
1000
0000
,  // measure 16
2010
0000
0000
0000
3000
0000
0100
0001
0000
0000
0000
0000
0110
0000
0000
0000
,  // measure 17
0102
0000
0000
0000
0003
0000
0010
1000
0000
0000
0000
0000
1001
0000
0000
0000
,  // measure 18
0120
0000
0000
0000
0030
0000
1000
0001
0000
0000
0000
0000
1010
0000
0000
0000
,  // measure 19
2100
0000
0000
0000
3000
0000
0001
0010
0000
0000
0000
0000
0101
0000
0000
0000
,  // measure 20
0021
0000
0000
0000
0030
0000
0001
0100
0000
0000
0000
0000
1100
0000
0000
0000
,  // measure 21
0220
0000
0000
0000
0330
0000
0001
1000
0000
0000
0000
0000
0100
0000
0000
0000
,  // measure 22
0010
0100
0000
0000
0000
0000
1001
0000
0000
0000
0000
0000
0110
0000
0000
0000
,  // measure 23
0010
0100
0000
0000
0000
0000
0010
0000
0000
0000
0000
0000
1001
0000
0000
0000
,  // measure 24
0001
0100
0001
2000
0000
3000
0010
0000
,  // measure 25
1000
0100
1000
0002
0000
0003
0100
0000
,  // measure 26
1000
0010
0100
0000
0010
0100
0001
0000
,  // measure 27
0010
0100
1000
0200
0000
0300
0010
0000
,  // measure 28
1000
0010
1000
0002
0000
0003
0100
0000
,  // measure 29
0001
0010
0001
2000
0000
3000
0010
0000
,  // measure 30
0001
0100
0010
0000
0100
0010
1000
0000
,  // measure 31
0100
0010
0002
0000
0023
0000
0230
0000
,  // measure 32
2000
0300
3000
0100
,  // measure 33
1001
0000
0100
0002
0000
0013
0100
0000
,  // measure 34
0011
0000
0100
2000
0000
3100
0010
0000
,  // measure 35
0101
0000
0001
0020
0000
0130
1000
0000
,  // measure 36
1010
0000
1000
0200
0000
0310
0001
0000
,  // measure 37
0100
0000
1001
0000
0001
0000
0100
0010
,  // measure 38
2000
0100
0001
3000
,  // measure 39
0011
0000
0100
0000
0010
0000
0001
1000
,  // measure 40
0002
0010
0100
0003
,  // measure 41
1100
0000
0100
0000
0010
0001
0010
0000
,  // measure 42
0101
0000
0010
0000
0100
1000
0100
0000
,  // measure 43
0020
0001
0100
1030
,  // measure 44
0200
1000
0010
0301
,  // measure 45
1010
0000
1000
0000
0100
0000
0010
0100
,  // measure 46
0020
0001
1000
0030
,  // measure 47
0101
0000
0001
0000
0010
0000
0100
1000
,  // measure 48
0200
1000
0001
0300
,  // measure 49
0011
0000
0100
0000
0010
0100
0010
0000
,  // measure 50
1100
0000
0100
0000
0010
0001
0010
0000
,  // measure 51
1100
0000
0100
0000
0010
1000
0010
0000
,  // measure 52
0011
0000
1001
0000
0100
1000
0010
0000
,  // measure 53
1000
0010
1000
0002
0000
0003
0100
0000
,  // measure 54
0001
0010
0001
2000
0000
3000
0010
0000
,  // measure 55
0001
0100
0010
0000
0100
0010
1000
0000
,  // measure 56
0100
0010
0001
0020
0000
0030
0100
0000
,  // measure 57
0001
0100
0001
2000
0000
3000
0010
0000
,  // measure 58
1000
0100
1000
0002
0000
0003
0100
0000
,  // measure 59
1000
0010
0100
0000
0010
0100
0001
0000
,  // measure 60
0010
0100
2000
0000
3200
0000
0320
0000
,  // measure 61
0002
0000
0030
0000
1003
0100
0010
0100
,  // measure 62
2001
0000
3002
0000
0013
0100
1000
0020
,  // measure 63
0000
0230
0000
0301
0010
0100
1000
0000
,  // measure 64
0210
0000
0301
0000
0010
0100
0001
2000
,  // measure 65
0000
3020
0000
0230
0000
0301
0010
0000
,  // measure 66
1002
0000
2003
0000
3100
0010
0001
0200
,  // measure 67
0000
0320
0000
1030
0100
0010
0001
0000
,  // measure 68
0120
0000
1030
0000
0100
0010
1000
0002
,  // measure 69
0000
0203
0000
0320
0000
1030
0001
0100
,  // measure 70
0220
0000
0000
0000
,  // measure 71
0000
0000
0000
0000
,  // measure 72
0330
0000
0000
0000
;

//---------------dance-single - ----------------
#NOTEDATA:;
#CHARTNAME:;
#STEPSTYPE:dance-single;
#DESCRIPTION:;
#CHARTSTYLE:;
#DIFFICULTY:Hard;
#METER:9;
#RADARVALUES:0.544468,0.583855,0.189212,0.391940,0.324364,564.000000,536.000000,28.000000,58.000000,0.000000,0.000000,0.000000,0.000000,0.000000,0.544468,0.583855,0.189212,0.391940,0.324364,564.000000,536.000000,28.000000,58.000000,0.000000,0.000000,0.000000,0.000000,0.000000;
#CREDIT:;
#NOTES:
// measure 0
0000
0000
0000
0000
,  // measure 1
0000
0000
0000
0000
,  // measure 2
0000
0000
0000
0000
,  // measure 3
0000
0000
0000
0000
,  // measure 4
1000
0000
0001
0000
1000
0000
0000
0010
0100
0000
0001
0000
0010
0000
0100
0000
,  // measure 5
1000
0000
1000
0000
0100
0000
0000
0010
0100
0000
0001
0000
0100
0000
1000
0000
,  // measure 6
0001
0000
0001
0000
0100
0000
0000
0010
1000
0000
0010
0000
0001
0000
1000
0000
,  // measure 7
0120
0000
2030
0002
3000
0013
0100
1000
,  // measure 8
0220
0000
0330
1000
0000
0000
0001
0100
,  // measure 9
2002
0000
3003
0010
0000
0000
0001
0100
,  // measure 10
2020
0000
3030
0001
0000
0000
0010
0001
,  // measure 11
0202
0000
0303
1000
0000
0000
0010
1000
,  // measure 12
2200
0000
3300
0001
0000
0000
0100
0010
,  // measure 13
0022
0000
0033
0100
0000
0000
0010
0100
,  // measure 14
2001
0000
0000
3010
0000
0000
0100
0010
,  // measure 15
1002
0000
0000
2003
0000
3000
0010
0000
,  // measure 16
0001
0100
0000
0000
0010
0000
0100
0001
0000
0000
0000
0000
0110
0000
0000
0000
,  // measure 17
0010
1000
0000
0000
0100
0000
0010
0001
0000
0000
0000
0000
1001
0000
0100
0000
,  // measure 18
0001
1000
0000
0000
0010
0000
1000
0001
0000
0000
0000
0000
1010
0000
0000
0000
,  // measure 19
1000
0100
0000
0000
1000
0000
0001
0010
0000
0000
0000
0000
0101
0000
0000
0000
,  // measure 20
0001
0010
0000
0000
1000
0000
0001
0100
0000
0000
0000
0000
1100
0000
0000
0000
,  // measure 21
0100
0010
0000
0000
0100
0000
0010
1000
0000
0000
0000
0000
0100
0000
0000
0000
,  // measure 22
0010
0100
0000
0000
0100
0000
0010
1000
0000
0000
0000
0000
0001
0000
0100
0000
,  // measure 23
0010
1000
0000
0000
0100
0000
0020
0000
0000
0000
0000
0000
1030
0000
0100
0000
,  // measure 24
0010
0001
0010
0001
0010
0000
0100
0000
1000
0000
0100
0000
0001
0000
0100
0000
,  // measure 25
1000
0010
1000
0010
1000
0000
0010
0000
0001
0000
0010
0000
1000
0000
0010
0000
,  // measure 26
0100
0001
0100
0001
0100
0000
0010
0000
1000
0000
0200
0000
0310
0000
0002
0000
,  // measure 27
0103
2000
3100
0002
1000
1000
1003
1000
,  // measure 28
0100
0010
0100
0001
0100
0000
1000
0000
0010
0000
0100
0000
0010
0000
1000
0000
,  // measure 29
0010
1000
0010
0100
0010
0000
0001
0000
0010
0000
0100
0000
0001
0000
0010
0000
,  // measure 30
1000
0010
0100
0010
0001
0000
1000
0000
1000
0000
0020
0000
0130
0000
0002
0000
,  // measure 31
0013
0200
1300
0020
0130
0002
0013
0200
,  // measure 32
1300
0000
0100
0000
0010
0000
0100
0000
1000
0000
0001
0100
0001
0010
0100
1000
,  // measure 33
0001
0000
0000
1000
0100
0000
0010
0000
0001
0000
0010
0000
0200
0000
0000
0000
,  // measure 34
0310
1000
0000
1000
0010
0000
0010
0000
0001
0000
0010
0000
0200
0000
0000
0000
,  // measure 35
0310
0001
0000
0001
0100
0000
0010
0000
1000
0000
0100
0000
2000
0000
0000
0000
,  // measure 36
3100
0010
0000
0010
0100
0000
0010
0000
0001
0000
0010
0000
0100
0000
0010
0000
,  // measure 37
0001
0100
0010
0000
1000
0000
0100
0000
1000
0000
0010
0000
0100
0000
0001
0000
,  // measure 38
0010
0100
0000
0100
0010
0000
1000
0000
0020
0000
0001
0000
0001
0000
0031
0000
,  // measure 39
1000
0100
0010
0000
0100
0000
1000
0000
0010
0000
0100
0000
0010
0000
1000
0000
,  // measure 40
0001
0100
0000
0100
0001
0000
0010
0000
0200
0000
1000
0000
1000
0000
1300
0000
,  // measure 41
0010
0100
0010
0000
0100
0000
0001
0000
1001
0000
1000
0000
1100
0000
0000
0000
,  // measure 42
0100
0010
1000
0000
0100
0000
0010
0000
0011
0000
0001
0000
0101
0000
0000
0000
,  // measure 43
0010
1000
0100
0000
0001
0100
0001
0000
0010
0000
0100
0000
1001
0000
0000
0000
,  // measure 44
0100
0010
0001
0000
0001
0010
0100
0000
1000
0000
0100
0000
0002
0000
0013
0000
,  // measure 45
0100
1000
0100
0000
0010
0000
0100
0000
0010
0001
0010
0000
0100
0000
1000
0000
,  // measure 46
0100
0010
0000
0010
0100
0000
0001
0000
0200
0000
0310
0000
2000
0000
3100
0000
,  // measure 47
0001
0100
0010
0000
0100
0000
1000
0000
0100
0010
0100
0000
0010
0000
0001
0000
,  // measure 48
0100
0010
0000
0010
1000
0000
0100
0000
0020
0000
0031
0000
0200
0000
1300
0000
,  // measure 49
0010
0001
0010
0000
2000
0000
3100
0000
0001
0010
0100
0000
0020
0000
1030
0000
,  // measure 50
0001
0100
0010
1000
0100
0010
0100
1000
,  // measure 51
0100
0010
0000
0010
0100
0000
1000
0000
0010
0000
1000
0000
0100
0000
0001
0000
,  // measure 52
1000
0010
0000
0010
0100
0000
0001
0000
0010
0000
1001
0000
0100
0000
1001
0000
,  // measure 53
0100
1000
0100
1000
0100
0000
0010
0000
0001
0000
0010
0000
1000
0000
0010
0000
,  // measure 54
0001
0100
0001
0100
0001
0000
0100
0000
1000
0000
0100
0000
0001
0000
0100
0000
,  // measure 55
0010
1000
0010
1000
0010
0000
0100
0000
0001
0000
0020
0000
0130
0000
2000
0000
,  // measure 56
3010
0002
0013
2000
0001
0001
3001
0001
,  // measure 57
0010
0100
0010
1000
0010
0000
0001
0000
0100
0000
0010
0000
0100
0000
0001
0000
,  // measure 58
0100
0001
0100
0010
0100
0000
1000
0000
0100
0000
0010
0000
1000
0000
0100
0000
,  // measure 59
0001
0100
0010
0100
1000
0000
0001
0000
0001
0000
0200
0000
0310
0000
2000
0000
,  // measure 60
3100
0020
0031
0200
0310
2000
3100
0020
,  // measure 61
0031
0000
0010
0000
0100
0000
0010
0000
0001
0000
1000
0001
0100
1000
0100
0001
,  // measure 62
0020
0000
0030
0001
0100
0000
0010
0100
1000
0000
1000
0000
0100
0000
0010
0000
,  // measure 63
0002
0000
0003
0100
0010
0000
0010
0100
0001
0000
0001
0000
0100
0000
0010
0000
,  // measure 64
2000
0000
3000
0100
0010
0000
0010
0001
0100
0000
0010
0000
0100
0000
1000
0000
,  // measure 65
1100
0100
0110
0010
0011
0001
1001
1000
,  // measure 66
0200
0000
0300
1000
0010
0000
0100
0010
0001
0000
0001
0000
0010
0000
0100
0000
,  // measure 67
2000
0000
3000
0010
0100
0000
0100
0010
1000
0000
1000
0000
0010
0000
0100
0000
,  // measure 68
0002
0000
0003
0010
0100
0000
0100
1000
0010
0000
0100
0000
0010
0000
0001
0000
,  // measure 69
0011
0000
0010
0000
0110
0000
0100
0000
1100
0000
1000
0100
0010
0001
0100
0010
,  // measure 70
0200
0000
0000
0000
,  // measure 71
0000
0000
0000
0000
,  // measure 72
0300
0000
0000
0000
;
