#TITLE:Renegade;
#SUBTITLE:(We Never Run);
#ARTIST:Stefflon Don, Raja Kumari feat. Jarina de Marco;
#TITLETRANSLIT:;
#SUBTITLETRANSLIT:;
#ARTISTTRANSLIT:;
#CREDIT:;
#BANNER:Renegade-bn.png;
#BACKGROUND:Renegade-bg.png;
#LYRICSPATH:;
#CDTITLE:cd.png;
#MUSIC:Renegade.mp3;
#OFFSET:-6.770;
#SAMPLESTART:45.130;
#SAMPLELENGTH:12.000;
#SELECTABLE:YES;
#BPMS:0.000=161.000,104.000=80.500,108.000=161.000;
#STOPS:;
#BGCHANGES:;

//---------------dance-single - ----------------
#NOTES:
     dance-single:
     :
     Challenge:
     10:
     0.788,0.788,0.412,0.185,0.463: // measure 1
0001
0001
1000
0001
,  // measure 2
1000
1000
0010
0100
,  // measure 3
0001
1000
0010
0100
,  // measure 4
0200
0010
0010
0310
,  // measure 5
0000
0000
1000
1000
0001
0100
0010
0010
,  // measure 6
1000
0001
0100
0010
0100
0000
1001
0000
,  // measure 7
0010
0000
1000
0010
0010
0100
0001
1000
,  // measure 8
0010
0100
0001
1000
0010
0000
1001
0000
,  // measure 9
0010
0001
1000
0010
0010
1000
0001
1000
,  // measure 10
0010
0100
0001
0100
0010
0000
1001
0000
,  // measure 11
0110
0000
0001
0010
0100
0100
1000
0010
,  // measure 12
1000
0001
0100
0010
1000
0000
1000
1000
,  // measure 13
1001
0010
0010
0100
0110
0001
1000
0010
,  // measure 14
0100
0001
0001
1000
0010
0000
1000
0001
,  // measure 15
2001
0000
3010
0100
0001
0001
0010
1000
,  // measure 16
1000
0010
0010
0100
0001
0000
1000
0100
,  // measure 17
1001
0100
0010
0000
0100
0010
1001
0000
,  // measure 18
1001
0010
0100
0001
2001
0000
3010
0010
,  // measure 19
1001
0000
0010
0100
0001
0100
0100
0010
,  // measure 20
0100
0001
1000
0010
0200
0000
0301
0000
,  // measure 21
1001
0000
0000
0001
0000
0000
0001
0000
1000
0000
0000
0000
0000
0000
0000
0000
,  // measure 22
1010
0000
0000
1000
0000
0000
1000
0000
0010
0000
0000
0000
0100
0000
0000
0000
,  // measure 23
0100
0010
0010
0100
,  // measure 24
0010
0100
0010
0100
0010
0000
1001
0000
,  // measure 25
1000
0000
0000
1000
0000
0000
1010
0000
0000
0000
1001
0000
0000
0000
0010
0000
,  // measure 26
0100
0000
0000
0100
0000
0000
0101
0000
0000
0000
1010
0000
0000
0000
1000
0000
,  // measure 27
0001
0000
1000
0010
0010
1000
0010
1000
0001
0100
0010
0100
0010
0000
0100
0000
,  // measure 28
1000
0001
1000
0000
0100
0010
0100
0000
1000
0001
1000
0000
0010
0100
0010
0000
,  // measure 29
0100
0001
0100
0000
0010
1000
0010
0000
0100
0001
0200
0000
0001
0000
0301
0000
,  // measure 30
0001
1000
0001
0000
0010
0100
0010
0000
0001
1000
0001
0000
0100
0010
0100
0000
,  // measure 31
0010
1000
0010
0000
0100
0001
0100
0000
0010
1000
0020
0000
0100
0000
0130
0000
,  // measure 32
1000
0010
1000
0000
0001
1000
0001
0000
0100
0001
0100
0000
0010
1000
0010
0000
,  // measure 33
0100
0010
0100
0000
0001
1000
0001
0000
0100
0001
0200
0000
0001
0000
0301
0000
,  // measure 34
0010
0100
0010
0000
0001
0010
0001
0000
1000
0100
1000
0000
0100
1000
0100
0000
,  // measure 35
1000
0100
1000
0000
0100
1000
0100
0000
1000
0000
1000
0000
1000
0000
1000
0000
,  // measure 36
1000
0010
1001
0000
0000
0100
1001
0000
,  // measure 37
0000
0010
0100
0001
0100
0010
0010
0000
,  // measure 38
0000
0100
0001
1001
0000
0001
1000
1001
,  // measure 39
0000
0010
1000
0001
0100
0010
0020
0000
,  // measure 40
0030
0100
0100
0200
0000
0310
0010
0020
,  // measure 41
0000
0130
0010
0100
0010
1000
1000
0000
,  // measure 42
1000
0001
1000
1001
0010
0100
2002
3003
,  // measure 43
0100
0010
0100
1001
0010
0100
2002
3003
,  // measure 44
0010
0000
0100
0000
0010
0100
0010
0100
0010
0000
0100
0010
0000
0100
0010
0000
,  // measure 45
0100
0000
0100
0001
0000
1000
0001
0000
0002
0000
0000
0000
1003
0000
0000
0000
,  // measure 46
1001
0000
0010
0000
1000
0001
1000
0001
1000
0000
0001
0100
0000
0001
0100
0000
,  // measure 47
0010
0100
0000
0000
0000
0000
1000
0001
1000
0000
1000
0000
0001
0000
0001
0000
,  // measure 48
1000
0000
0001
0010
0001
0010
0001
0100
0001
0000
1000
0001
0000
0000
1000
0000
,  // measure 49
0010
0100
0000
0000
0000
0000
0010
0100
0001
0000
0001
0000
1000
0000
1000
0000
,  // measure 50
0000
0000
0010
0100
0010
0100
0010
0000
1001
0000
1000
0001
0000
0000
1001
0000
,  // measure 51
0100
0010
0100
0010
0200
0000
0000
0000
0300
0000
0010
0100
0010
0000
0000
0000
,  // measure 52
1001
0000
0000
1001
0000
0000
1001
0000
1001
0000
0000
1001
0000
0000
1001
0000
,  // measure 53
1001
0110
1001
0110
0101
0101
1010
1010
,  // measure 54
0002
0000
1003
0010
1000
1000
0001
0100
,  // measure 55
0010
0010
1000
0001
1000
0000
1001
0000
,  // measure 56
0100
0001
0100
0000
0001
1000
0001
0000
1000
0010
1000
0000
0001
0100
0001
0000
,  // measure 57
1000
0001
1000
0000
0010
0100
0010
0000
0100
0001
0200
0000
0001
0000
0301
0000
,  // measure 58
1000
0100
1000
0000
0010
0100
0010
0000
0100
0001
0100
0000
0010
0100
0010
0000
,  // measure 59
1000
0010
1000
0000
0001
0100
0001
0000
1000
0001
2000
0000
0001
0000
3010
0000
,  // measure 60
0100
0001
0100
0000
0001
0100
0001
0000
1000
0001
1000
0000
0100
0010
0100
0000
,  // measure 61
0010
1000
0010
0000
0001
0010
0001
0000
1000
0010
2000
0000
0001
0000
3100
0000
,  // measure 62
0010
0100
0010
0000
0001
1000
0001
0000
1000
0001
1000
0000
0010
1000
0010
0000
,  // measure 63
0100
0001
0100
0000
1000
0010
1000
0000
0100
0001
2000
0000
0001
0000
3010
0000
,  // measure 64
1000
0000
0010
0000
0100
0000
0001
0000
1000
0001
0100
0010
0100
0000
1001
0000
,  // measure 65
1000
0010
1000
0001
1000
0001
1000
0000
0010
0000
0100
0000
0010
0000
1000
0000
,  // measure 66
0001
0000
0100
0000
0010
0000
1000
0000
0001
1000
0010
0100
0010
0000
1001
0000
,  // measure 67
0001
0100
0001
1000
0001
1000
0001
0000
0100
0000
0010
0000
0100
0000
0001
0000
,  // measure 68
0010
0000
1000
0000
0100
0000
0001
0000
0010
0001
0100
1000
0100
0000
0011
0000
,  // measure 69
0010
1000
0010
0001
0010
0001
0010
0000
1000
0000
0100
0000
1000
0000
0010
0000
,  // measure 70
0100
0000
0001
0000
0010
0000
1000
0000
0100
1000
0010
0001
0010
0000
1100
0000
,  // measure 71
0100
0001
0100
1000
0100
1000
0100
0000
0001
0000
0010
0000
0001
0000
0100
0000
,  // measure 72
0002
0000
0000
0000
,  // measure 73
1003
0000
0000
0000
;
