#TITLE:Rats In the House;
#SUBTITLE:Hype Me For Your Life -Chilean Rhythm Videogame-;
#ARTIST:Debonita Conker;
#TITLETRANSLIT:;
#SUBTITLETRANSLIT:;
#ARTISTTRANSLIT:;
#GENRE:;
#CREDIT:;
#BANNER:Rats In The House.png;
#BACKGROUND:Rats In The House bg.png;
#LYRICSPATH:;
#CDTITLE:Magna Trick title!.png;
#MUSIC:Rats In The House.ogg;
#OFFSET:0.332007;
#SAMPLESTART:31.552216;
#SAMPLELENGTH:12.000000;
#SELECTABLE:YES;
#BPMS:0.000000=154.981995
,65.000000=309.963013
,185.000000=154.981995
,189.000000=309.963013
,317.000000=154.981995
;
#STOPS:
;
#BGCHANGES:;
#KEYSOUNDS:;
#ATTACKS:;

//---------------dance-single - Magna Trick----------------
#NOTES:
     dance-single:
     Magna Trick:
     Beginner:
     2:
     0.135936,0.295660,0.000000,0.000000,0.000000,84.000000,84.000000,0.000000,0.000000,0.000000,0.000000,0.135936,0.295660,0.000000,0.000000,0.000000,84.000000,84.000000,0.000000,0.000000,0.000000,0.000000:
0000
0000
0000
0000
,
0000
0000
0000
0000
,
0000
0000
0000
0000
,
0000
0000
0000
0010
,
0010
0000
0000
0000
,
0000
0000
0000
1000
,
1000
0000
0000
0000
,
0000
0001
0001
0000
,
0000
1000
0000
0000
,
0000
0001
0000
0000
,
0000
0100
0000
0000
,
0000
0010
0000
0000
,
0000
1000
0000
0000
,
0000
1000
0000
0000
,
0000
0001
0000
0000
,
0000
0001
0000
0000
,
0000
1000
0000
0000
,
0000
0000
0000
0000
,
0000
0010
0000
0000
,
0000
0000
0000
0000
,
0000
1000
0000
0000
,
0000
0000
0000
0000
,
0000
0001
0000
0000
,
0000
0001
0000
0000
,
0000
1000
0000
0000
,
0000
0000
0000
0000
,
0000
0010
0000
0000
,
0000
0000
0000
0000
,
0000
1000
0000
0000
,
0000
0000
0000
0000
,
0000
0010
0000
0010
,
0000
0010
0000
0000
,
0000
1000
0000
0000
,
0000
0000
0000
0000
,
0000
0001
0000
0000
,
0000
0000
0000
0000
,
0000
1000
0000
0000
,
0000
0000
0000
0000
,
0000
0100
0000
0000
,
0000
0100
0000
0000
,
0000
1000
0000
0000
,
0000
0000
0000
0000
,
0000
0001
0000
0000
,
0000
0000
0000
0000
,
0000
1000
0000
0000
,
0000
0000
0000
0000
,
0000
0010
0010
0010
,
0000
1000
0000
0000
,
0000
0001
0000
0000
,
0000
1000
0000
1000
,
0000
0000
0000
0000
,
0000
0100
0000
0000
,
0000
0010
0000
0000
,
0000
0001
0000
0000
,
0000
0000
0000
0000
,
0000
1000
0000
0000
,
0000
0000
0000
0000
,
0000
0100
0000
0000
,
0000
0000
0000
0000
,
0000
0010
0000
0000
,
0000
0010
0000
0000
,
0000
0100
0000
0100
,
0000
0100
0000
0100
,
0000
1000
0000
0000
,
0000
0000
0000
0000
,
0000
0001
0000
0000
,
0000
0000
0000
0000
,
0000
1000
0000
0000
,
0000
0100
0000
0000
,
0000
0010
0000
0000
,
0000
0000
0000
0000
,
0000
1000
0000
0000
,
0000
0000
0000
0000
,
0000
0001
0000
0000
,
0000
0001
0000
0000
,
0000
1000
0000
0000
,
1000
0000
0000
0000
,
0000
0000
0000
0010
,
0000
0010
0000
0010
,
0000
0100
0000
0010
,
0000
0100
0000
0010
,
0010
1000
0000
0001
,
0000
1000
0000
0100
,
0100
0010
0000
0100
,
0000
0010
0000
0001
,
0001
1000
0000
0001
,
0000
1000
0000
0100
,
0100
0000
0000
0000
;

//---------------dance-single - Magna Trick----------------
#NOTES:
     dance-single:
     Magna Trick:
     Easy:
     4:
     0.244361,0.444765,0.045312,0.022656,0.011328,151.000000,147.000000,4.000000,2.000000,0.000000,0.000000,0.244361,0.444765,0.045312,0.022656,0.011328,151.000000,147.000000,4.000000,2.000000,0.000000,0.000000:
0000
0000
0000
0000
,
0000
0000
0000
0000
,
0000
0000
0000
0000
,
0000
0000
0000
1000
,
0001
0010
0000
0100
,
0000
0010
0010
0001
,
1000
0010
0000
0100
,
0000
0001
0001
1000
,
0100
0010
0000
0100
,
0000
1000
1000
0001
,
0000
0100
0000
0010
,
0000
0000
0000
0000
0100
0000
0000
0100
0000
0000
0000
0000
0000
0000
0000
0000
,
0000
0001
0000
1000
,
0000
0100
0100
0010
,
0000
0001
0000
1000
,
0000
0000
0000
0000
0100
0000
0000
0100
0000
0000
0000
0000
0000
0000
0000
0000
,
0000
1000
0000
0000
,
0000
0001
0000
0000
,
0000
0100
0000
0100
,
0000
0010
0000
0100
,
0000
0001
0000
0000
,
0000
1000
0000
0000
,
0000
0100
0000
0100
,
0000
1000
0000
1000
,
0000
0001
0000
0000
,
0000
0100
0000
0000
,
0000
0010
0000
0000
,
0000
1000
0000
0000
,
0000
1000
0000
1000
,
0000
0010
0000
0010
,
0000
0100
0000
0001
,
0000
1000
0000
1000
,
0000
0100
0000
0000
,
0000
0010
0000
0000
,
0000
0100
0000
0100
,
0000
1000
0000
0000
,
0000
0001
0000
0000
,
0000
0100
0000
0000
,
0000
0010
0000
0000
,
0000
0010
0000
0000
,
0000
0100
0000
0001
,
0000
0100
0000
0001
,
0000
1000
0000
0100
,
0000
1000
0000
0100
,
0000
0010
0000
0000
,
0000
0010
0000
0000
,
0000
0001
0001
1000
,
0000
0010
0000
0000
,
0000
0100
0000
0000
,
0000
0001
0000
0001
,
0000
0000
0000
1000
,
0000
0001
0000
0001
,
0000
1000
0000
1000
,
0000
0100
0000
0000
,
0000
0100
0000
0000
,
0000
1000
0000
0100
,
0000
1000
0000
0100
,
0000
0010
0000
0001
,
0000
0010
0000
0001
,
0000
1000
0000
0000
,
0000
0001
0000
0000
,
0000
0100
0000
0100
,
0000
0100
0000
0010
,
0000
0100
0000
0000
,
0000
0001
0000
0000
,
0000
1000
0000
1000
,
0000
0001
0000
1000
,
0000
0100
0000
0000
,
0000
0010
0000
0000
,
0000
0001
0000
0000
,
0000
1000
0000
0000
,
0000
0200
0000
0000
,
0000
0000
0300
0000
,
0000
1000
0000
1000
,
0000
0001
0000
0100
,
0000
0010
0000
0000
,
0010
0000
0000
0000
,
0000
0110
0000
1001
,
0000
0110
0000
1001
,
0000
0010
0000
0100
,
0000
0001
0000
1000
,
1000
0001
0000
0100
,
0000
0010
1000
0100
,
0100
0010
0000
0001
,
0000
1000
0001
1000
,
1000
0010
0000
0100
,
0000
0001
1000
0100
,
0200
0300
0000
0000
;

//---------------dance-single - Magna Trick----------------
#NOTES:
     dance-single:
     Magna Trick:
     Medium:
     7:
     0.354404,0.543601,0.147264,0.135936,0.039648,219.000000,206.000000,13.000000,12.000000,0.000000,0.000000,0.354404,0.543601,0.147264,0.135936,0.039648,219.000000,206.000000,13.000000,12.000000,0.000000,0.000000:
0000
1000
0000
0001
,
0000
0000
1000
0000
0001
0000
1000
0100
,
1000
0001
0000
1000
,
0000
0000
0000
0000
0010
0000
0000
0010
0000
0000
0000
0000
0200
0000
0000
0000
,
0320
0030
1001
0000
0010
0000
0100
0000
,
0010
0000
0100
0000
0010
0000
0100
0010
,
0100
0010
0000
0100
,
0000
0000
0000
0000
0010
0000
0000
0010
0000
0000
0000
0000
0002
0000
0000
0000
,
2003
3000
0110
0000
0000
0000
0010
0000
,
0000
1000
0010
1000
,
0200
0310
0001
0100
,
0001
0000
0000
0000
0010
0000
0000
0010
0000
0000
0000
0000
0000
0000
0000
0000
,
0000
0001
0010
0001
,
0100
0010
1000
0100
,
2000
3001
0100
0010
,
1000
0000
0000
0000
0001
0000
0000
0002
0000
0000
0000
0000
0003
0000
0000
0000
,
0000
0100
0000
0010
,
0000
0100
0000
0010
,
0000
1000
0000
1000
,
0000
0001
0000
0010
,
0000
0100
0000
0100
,
0000
0010
0000
0001
,
0000
1100
0000
0000
,
0000
1100
0000
0000
,
0000
1000
0000
0010
,
0000
1000
0000
0010
,
0000
0100
0000
0001
,
0000
0100
0000
0001
,
0000
1000
0000
0100
,
0000
0010
0000
0001
,
0000
1001
0000
0100
,
0000
0000
0010
0000
0000
0100
0000
0000
,
0000
0001
0000
0010
,
0000
0001
0000
1000
,
0000
0010
0000
0100
,
0000
1000
0000
0100
,
0000
0010
0000
0010
,
0000
1000
0000
0001
,
0000
1010
0000
0000
,
0000
1010
0000
0000
,
0000
0010
0000
0100
,
0000
0010
0000
0100
,
0000
0001
0000
1000
,
0000
0001
0000
1000
,
0000
0100
0000
0010
,
0000
0001
0000
1000
,
0000
0000
0000
0000
0110
0000
0000
0000
0000
0000
0000
0000
0001
0000
0000
1000
,
0000
1010
0000
0100
,
0000
0010
0010
0010
,
0000
1000
0000
1000
,
0000
0000
0000
0001
,
0000
0010
0000
0010
,
0000
0100
0000
0010
,
0000
0001
0000
0001
,
0000
0001
0000
1000
,
0000
0010
0000
0010
,
0000
0010
0000
0010
,
0000
0100
0000
0100
,
0000
0100
0000
0100
,
0000
0001
0000
1000
,
0000
0001
0000
1000
,
0000
0100
0000
0100
,
0000
0100
0000
0100
,
0100
0100
0000
0010
,
0000
0001
0000
1000
,
0000
0010
0000
0010
,
0000
1000
0000
0001
,
0000
0100
0000
0100
,
0000
1000
0000
1000
,
0000
0001
0000
0100
,
0000
0010
0000
0010
,
0000
2000
0000
0000
,
0000
0000
3000
0000
,
0000
0100
0000
0010
,
0000
0001
0000
1000
,
1000
2000
0000
0000
,
3002
0000
0000
0000
,
0003
1001
0000
0110
,
0000
0110
0000
1001
,
0000
0100
0001
0010
,
0100
0000
1000
0000
0001
0000
0100
0010
,
0100
0010
0100
0001
,
1000
0000
0000
0000
0100
0000
0000
0100
0000
0000
0000
0000
0000
0000
0000
0000
,
0000
0010
0001
1000
,
0010
0000
1000
0000
0001
0000
0100
0010
,
0100
0010
1000
0001
,
0100
0000
0000
0000
0010
0000
0000
0010
0000
0000
0000
0000
2000
0000
0000
0000
,
3002
0003
0000
0000
;

//---------------dance-single - Magna Trick----------------
#NOTES:
     dance-single:
     Magna Trick:
     Hard:
     14:
     0.773539,0.840111,0.147264,0.124608,0.118944,478.000000,465.000000,13.000000,11.000000,0.000000,0.000000,0.773539,0.840111,0.147264,0.124608,0.118944,478.000000,465.000000,13.000000,11.000000,0.000000,0.000000:
0000
0000
0001
0100
0001
0100
0010
1000
,
0010
1000
0100
0010
0100
0010
0001
0100
,
1000
0000
0100
1000
0100
1000
0001
0010
,
0001
0000
0010
0000
1000
0000
0000
0100
0000
0000
0000
0000
0010
0000
0001
0000
,
0100
0000
1001
0010
0001
0010
0100
1000
,
0100
1000
0010
0100
0010
0100
0001
0010
,
1000
0000
0010
1000
0010
1000
0001
0100
,
0001
0000
0100
0000
1000
0000
0000
1000
0000
0000
0000
0000
0100
0000
0001
0000
,
1000
0000
0000
0000
0110
0000
0010
0000
0001
0000
0000
0100
0000
0000
0010
0000
,
0100
0000
0001
0000
1000
0000
1000
0000
0001
0000
0000
0010
0000
0000
0000
0000
,
0100
0000
1000
0000
0001
0000
0010
0000
0100
0000
0000
0010
0000
0000
0001
0000
,
1000
0000
0001
0000
0100
0000
0000
0100
0000
0000
0000
0000
0000
0000
0000
0000
,
0000
0000
0000
0000
1010
0000
1000
0000
0100
0000
0000
0010
0000
0000
0001
0000
,
0010
0000
0001
0000
0100
0000
0100
0000
0001
0000
0000
1000
0000
0000
0000
0000
,
1000
0000
0010
0000
0100
0000
1000
0000
0100
0000
0000
0001
0000
0000
1000
0000
,
0100
0000
0010
0000
0001
0000
0000
2000
0000
0000
0000
0000
3001
0000
1000
0001
,
1000
0001
1000
0001
0010
0000
0000
0000
0100
0000
0010
0000
0000
0000
0100
0000
,
0000
0010
0100
0000
1000
0000
1000
0000
,
0010
1000
0010
0000
1000
0000
0001
0010
,
0001
0000
0100
0010
0100
0010
0000
0000
,
1000
0100
1000
0000
0100
0000
1000
0000
,
0010
0000
0100
0010
0100
0010
0000
0000
,
1000
0010
1000
0010
1000
0001
0000
0000
,
0001
0010
0001
0010
0001
1000
0000
0000
,
1000
0000
0001
0000
1000
0001
0000
1000
,
0000
0001
1000
0000
0001
1000
0000
0000
,
0100
0000
0100
0000
1000
0100
0000
1000
,
0001
1000
0001
0000
0100
0001
0000
0000
,
1000
0000
1000
0000
0010
0100
0000
0010
,
0100
0010
0100
0000
0001
1000
0000
0001
,
1000
1001
0000
0010
,
0000
0000
0100
0000
0000
1001
0000
0000
,
0000
0000
0100
0000
0010
0100
0000
0010
,
0000
0100
0010
0000
0001
0000
0001
0000
,
0100
0001
0100
0000
0001
0000
1000
0100
,
1000
0000
0010
0100
0010
0100
0000
0000
,
0001
0010
0001
0000
0010
0000
0001
0000
,
0100
0000
0010
0100
0010
0100
0000
0000
,
0001
0100
0001
0100
0001
1000
0000
0000
,
1000
0100
1000
0100
1000
0001
0000
0000
,
0001
0000
1000
0000
0001
1000
0000
0001
,
0000
1000
0001
0000
1000
0001
0000
0000
,
0010
0000
0010
0000
0001
0010
0000
0001
,
1000
0001
1000
0000
0010
1000
0000
0000
,
0001
0000
0001
0000
0100
0010
0000
0100
,
0010
0100
0010
0000
1000
0001
0000
1000
,
0001
0000
0000
0000
1001
0000
0100
0000
0010
0000
0001
0000
1000
0001
1000
0002
,
0000
0000
0000
0003
0110
0000
0000
0000
0000
0000
0000
0000
0010
0000
0000
0000
,
0000
0100
0001
1000
,
0000
0000
0000
0001
0000
0010
0000
0001
0000
0010
0000
0000
,
0100
0000
1000
1000
,
0001
0000
0000
0100
0000
0010
0000
0100
0000
0010
0000
0000
,
0100
0100
0100
0002
,
0003
0000
1000
0001
1000
0001
1000
0001
,
1000
0001
0100
0000
0010
0100
0000
0010
,
0000
0000
0100
0010
0100
0010
0100
0010
,
0100
0010
0100
0000
0010
1000
0001
1000
,
0100
0010
0001
0010
0001
0010
0001
0010
,
0001
0010
0100
0000
1000
0100
1000
0000
,
0100
0010
0100
0010
0001
1000
0100
0010
,
0001
1000
0100
1000
0100
1000
0001
0000
,
0000
0000
0100
0010
0100
0010
1000
0001
,
1000
0001
0010
0100
0010
0100
1000
0001
,
0010
0100
1000
0000
0001
0000
1000
0000
,
0010
0100
0000
0000
0010
0000
1000
0000
,
0100
0000
1000
0100
1000
0100
0010
0001
,
0010
0001
1000
0100
0000
0010
0000
0001
,
1000
0000
1010
0000
1000
0010
0000
0100
,
0001
0010
0010
0010
,
0010
0000
0100
1000
0001
0000
0100
1000
,
0001
0000
0200
0000
0000
0020
0300
0000
,
0001
2030
0000
0000
,
0000
0000
0000
0000
,
3000
0000
0001
1000
0001
1000
0001
1000
,
0100
2000
0000
3001
,
0001
0002
0000
0000
,
2003
0000
0000
0000
,
3000
1010
0000
1100
,
0000
0011
0000
0101
,
0000
0000
1001
0100
0001
0100
0010
1000
,
0010
1000
0100
0010
0100
0010
0001
0100
,
1000
0000
0100
1000
0100
1000
0001
0010
,
0001
0000
0010
0000
1000
0000
0000
0100
0000
0000
0000
0000
0010
0000
0001
0000
,
0100
0000
0001
0010
0001
0010
0100
1000
,
0100
1000
0010
0100
0010
0100
0001
0010
,
1000
0000
0010
1000
0010
1000
0001
0100
,
0001
0000
0100
0000
1000
0000
0000
1000
0000
0000
0000
0000
0200
0000
0000
0000
,
0320
0030
0000
0000
;

//---------------dance-single - Magna Trick----------------
#NOTES:
     dance-single:
     Magna Trick:
     Challenge:
     16:
     0.867400,1.085126,0.226560,0.101952,0.300191,536.000000,516.000000,20.000000,9.000000,0.000000,0.000000,0.867400,1.085126,0.226560,0.101952,0.300191,536.000000,516.000000,20.000000,9.000000,0.000000,0.000000:
0000
0000
1000
0010
1000
0010
0100
1000
,
0100
1000
0001
0010
0001
0010
1000
0100
,
0001
0000
0100
0001
0100
0001
1000
0010
,
1000
0000
0000
0000
0000
0000
0010
0000
0000
0000
0000
0000
0001
0000
0000
0000
0000
0000
0000
0000
0000
1000
0000
0000
0000
0000
0000
0000
0000
0000
0000
0000
0000
0000
0000
0000
1000
0000
0001
0000
1000
0000
0001
0000
1000
0000
0001
0000
,
0100
0000
1001
0100
0001
0100
0010
0001
,
0010
0001
1000
0100
1000
0100
0001
0010
,
1000
0000
0010
1000
0010
1000
0001
0100
,
0001
0000
0000
0000
0000
0000
0100
0000
0000
0000
0000
0000
1000
0000
0000
0000
0000
0000
0000
0000
0000
0001
0000
0000
0000
0000
0000
0000
0000
0000
0000
0000
0000
0000
0000
0000
0001
0000
1000
0000
0001
0000
1000
0000
0001
0000
1000
0000
,
0010
0000
0000
0000
0110
0000
0100
0000
1000
0000
0010
0010
0000
0000
0100
0000
,
0010
0000
1000
0000
1001
0000
0001
0000
1000
0000
0100
0100
0000
0000
0000
0000
,
0010
0000
0001
0000
0010
0000
0001
0000
0000
1000
0000
0000
0010
0000
0000
0000
0000
0000
0100
0000
0000
0000
0000
0000
0010
0000
0000
0000
0000
0000
0100
0000
0000
0100
0000
0000
0000
0000
0000
0000
0000
0000
1000
0000
0000
0000
0000
0000
,
0100
0000
0001
0000
0010
0000
0000
0010
0000
0000
0000
0000
0000
0000
0000
0000
,
0000
0000
0000
0000
0101
0000
0001
0000
0010
0000
0100
0100
0000
0000
1000
0000
,
0100
0000
1000
0000
0010
0000
0010
0000
1000
0000
0001
0001
0000
0000
0000
0000
,
0001
0000
0100
0000
0001
0000
0100
0000
0000
0010
0000
0000
1000
0000
0000
0000
0000
0000
0001
0000
0000
0000
0000
0000
0010
0000
0000
0000
0000
0000
1000
0000
0000
1000
0000
0000
0000
0000
0000
0000
0000
0000
0001
0000
0000
0000
0000
0000
,
0100
0000
1000
0000
0010
0000
0000
0200
0000
0300
0000
0000
1001
0000
0010
1000
,
0001
1000
0100
1000
0001
0000
0000
0000
0010
0000
0100
0000
0000
0000
1000
0000
,
0000
0100
0010
0000
0001
0000
0001
0000
,
0100
1000
0100
0000
0001
0000
1000
0100
,
0001
0000
0100
1000
0010
0100
0000
0000
,
1000
0100
0001
0000
0010
0000
0001
0000
,
0100
0000
1000
0001
0010
1000
0000
0000
,
0001
0100
1000
0100
1000
0001
0000
0000
,
1000
0100
0001
0100
0001
1000
0000
0000
,
0001
0000
1000
0000
0001
0010
0000
0001
,
0000
0100
0001
0000
1000
0001
0000
0000
,
0010
0000
0010
0000
0001
0010
0000
0001
,
0010
1000
0010
0000
0001
1000
0000
0000
,
0001
0000
0001
0000
0100
1000
0000
0100
,
0010
1000
0100
0000
0010
0001
0000
1000
,
0100
1001
1000
0100
,
0100
0000
0010
0001
0100
1000
0000
0000
,
0000
0000
1000
0000
0100
0010
0000
0001
,
0000
0010
0100
0000
1000
0000
1000
0000
,
0010
0001
0010
0000
1000
0000
0001
0010
,
1000
0000
0010
0001
0100
0010
0000
0000
,
0001
0010
1000
0000
0100
0000
1000
0000
,
0010
0000
0001
1000
0100
0001
0000
0000
,
1000
0010
0001
0010
0001
1000
0000
0000
,
0001
0010
1000
0010
1000
0001
0000
0000
,
1000
0000
0001
0000
1000
0100
0000
1000
,
0000
0010
1000
0000
0001
1000
0000
0000
,
0100
0000
0100
0000
1000
0100
0000
1000
,
0100
0001
0100
0000
1000
0001
0000
0000
,
1000
0000
1000
0000
0010
0001
0000
0010
,
0100
0001
0010
0000
0100
1000
0000
0001
,
0010
0000
0000
0000
1001
0000
0001
0000
1000
0000
1000
0000
0100
0001
0100
1000
,
0000
0100
0100
1000
,
1000
0010
1000
0002
,
0000
0000
0000
1003
0000
0100
0000
0010
0000
0001
0000
0000
,
0010
0000
0001
0001
,
1000
0000
0000
0010
0000
0100
0000
0001
0000
1000
0000
0000
,
0010
0010
1010
2100
,
0000
0000
3001
1000
0100
1000
0001
1000
,
0100
1000
0010
0000
0100
0010
0000
0100
,
0000
0000
0010
0100
1000
0100
0001
0100
,
0010
0100
1000
0000
0100
0001
1000
0001
,
0010
0100
1000
0100
0010
0100
0001
0100
,
1000
0100
0010
0000
0001
0010
1000
0000
,
0010
0100
0010
0001
1000
0001
0010
0100
,
1000
0001
0010
0001
0010
0001
1000
0000
,
0000
0000
0010
0100
1000
0100
0001
0010
,
0001
0000
0000
1000
0000
0000
0100
0000
0000
0001
0000
0000
0100
0000
0000
0010
0000
0000
0001
0000
1000
0000
0100
0000
,
0010
0001
1000
0100
0000
0000
1000
0000
0000
0001
0000
0000
,
0100
0010
0000
0000
0100
0000
0001
0000
,
0010
0000
0001
0010
1000
0010
0100
0001
,
0100
1000
0001
0010
0000
0100
0000
1000
,
0001
0000
0101
0000
0001
0100
0000
0010
,
1000
1100
0110
0011
,
1001
0000
0000
0000
0000
0000
0001
0000
0010
0000
0100
0000
1000
0000
0000
0000
0000
0000
0001
0000
0000
0010
0000
0000
,
1000
0000
0020
0000
0000
0200
0030
0000
,
1000
0302
1000
1000
,
0000
0010
0000
0010
0000
0000
0100
0000
,
0103
0000
1000
0100
0010
0001
0010
0100
,
1000
0000
0000
0001
0000
0000
0100
0000
0001
0000
0100
0000
0002
0000
0000
0000
0000
0000
1003
0000
0000
0000
0000
0000
,
1000
2000
0000
0001
,
3002
0000
0000
0000
,
0003
0101
0000
0011
,
0000
1100
0000
1010
,
0000
0000
1001
0100
0001
0100
0010
0001
,
0010
0001
1000
0100
1000
0100
0001
0010
,
1000
0000
0010
1000
0010
1000
0001
0100
,
0001
0000
0000
0000
0000
0000
0100
0000
0000
0000
0000
0000
1000
0000
0000
0000
0000
0000
0000
0000
0000
0001
0000
0000
0000
0000
0000
0000
0000
0000
0000
0000
0000
0000
0000
0000
0001
0000
1000
0000
0001
0000
1000
0000
0001
0000
1000
0000
,
0010
0000
1001
0010
1000
0010
0100
1000
,
0100
1000
0001
0010
0001
0010
1000
0100
,
0001
0000
0100
0001
0100
0001
1000
0010
,
1000
0000
0000
0000
0000
0000
0010
0000
0000
0000
0000
0000
0001
0000
0000
0000
0000
0000
0000
0000
0000
1000
0000
0000
0000
0000
0000
0000
0000
0000
0000
0000
0000
0000
0000
0000
0010
0000
0100
0000
0010
0000
0100
0000
0001
0000
1000
0000
,
0010
0100
0001
0000
0000
0000
0000
0000
0000
0000
0000
0000
0000
0000
0000
0000
0000
0000
0000
0000
0000
0000
0000
0000
;
