#TITLE:¡Potomiru Piñera!;
#SUBTITLE:El Marepoto;
#ARTIST:Misamirú;
#TITLETRANSLIT:;
#SUBTITLETRANSLIT:;
#ARTISTTRANSLIT:;
#GENRE:;
#CREDIT:Magna Trick;
#BANNER:potomiru-bn.png;
#BACKGROUND:potomiru-bg.png;
#LYRICSPATH:Potomiru.lrc;
#CDTITLE:;
#MUSIC:Potomiru.mp3;
#OFFSET:-1.027636;
#SAMPLESTART:31.756001;
#SAMPLELENGTH:11.980000;
#SELECTABLE:YES;
#BPMS:0.000000=180.000000
,212.500000=360.000000
,339.500000=720.000000
,341.000000=180.000000
,347.000000=720.000000
,348.000000=180.000000
;
#STOPS:148.000000=0.667000,
341.500000=0.250000,
341.750000=0.250000,
342.000000=0.250000,
342.250000=0.083000,
342.500000=0.083000,
342.750000=0.083000,
343.000000=0.250000,
343.250000=0.083000,
343.500000=0.083000,
343.750000=0.083000,
344.000000=0.250000,
344.250000=0.250000,
344.500000=0.250000,
344.750000=0.250000,
345.000000=0.083000,
345.250000=0.083000,
345.500000=0.083000,
345.750000=0.250000,
347.000000=0.270000
;
#BGCHANGES:12.000=POTOMIRU.mp4=1.000=1=0=0=StretchNoLoop==CrossFade==,
99999=-nosongbg-=1.000=0=0=0 // don't automatically add -songbackground-
;
#KEYSOUNDS:;
#ATTACKS:;

//---------------dance-single - Magna Trick----------------
#NOTES:
     dance-single:
     :
     Beginner:
     7:
     0.302588,0.448063,0.085345,0.240519,0.000000,273.000000,262.000000,11.000000,31.000000,0.000000,0.000000,0.302588,0.448063,0.085345,0.240519,0.000000,273.000000,262.000000,11.000000,31.000000,0.000000,0.000000:
0000
0000
0000
0000
,
0000
0000
0000
0000
,
0000
0000
0000
0000
,
0000
0000
0000
0000
,
0000
0000
0000
0000
,
0000
0000
0000
0000
,
0000
0000
0000
0000
,
0000
0000
0000
0000
,
0000
0000
0000
0000
,
0000
0000
0000
0000
,
0000
0000
0000
0000
,
0100
0000
0000
0000
,
0001
0000
1000
0001
,
1000
0000
0010
0000
,
0010
0100
0000
0001
,
0000
0001
1000
1000
,
0001
0000
0010
0000
,
1000
0000
0100
0000
,
0001
0010
1000
0100
,
0001
0010
1000
0100
,
1001
0000
0000
0020
0000
0000
1030
0000
,
0000
0000
0000
0002
0000
0023
0000
0030
,
0100
0000
0000
0200
0000
0000
0000
0300
,
2000
3020
0032
0203
,
0301
0000
0000
0200
0000
0000
0300
0000
,
1000
0000
0000
0020
0000
0032
0000
0003
,
1000
0000
0000
0002
0000
0000
0003
0010
,
0000
0010
0002
2003
,
3001
0000
0000
0002
0000
0000
0103
0000
,
0010
0000
0000
0002
0000
0023
0000
0000
,
0130
0000
0000
0020
0000
0000
0030
0000
,
0002
0203
2300
3020
,
0130
0000
0000
0020
0000
0000
0031
0000
,
1000
0000
0000
0200
0000
0302
0000
0000
,
0103
0000
0000
0002
0000
0000
0003
0000
,
0001
0000
0001
0000
2000
0000
3002
0003
,
1001
0000
0100
0000
0000
0100
0000
0000
,
0020
0030
0000
0000
1000
0000
0001
0000
,
0100
0010
1000
1000
,
0010
0010
0001
0001
,
1000
1000
0001
0001
,
1000
1000
0010
0010
,
0001
0001
0100
0100
,
0010
0010
1000
1000
,
0001
0001
1010
1000
,
1000
0001
0011
1000
,
0100
0010
0001
0001
,
0010
0010
0100
0010
,
0001
0010
0100
0100
,
1000
1000
0001
0001
,
0010
0010
0001
0100
,
1000
0000
1000
0000
0001
1000
0001
0000
,
1000
0001
1000
0000
0010
0000
0100
0000
,
0100
0000
0000
0001
0000
0100
0000
0010
,
0000
0000
0000
0000
0000
1000
0000
0010
,
0000
0000
0000
0001
0000
0010
0000
0001
,
0000
0000
0000
0000
,
0000
1000
0000
0100
0000
0000
0000
0100
,
0000
0000
0000
0000
0000
1000
0000
0010
,
0000
0000
0000
0100
0000
0000
0000
0010
,
0000
0000
0000
1001
0000
0000
0000
1001
,
0000
0000
0000
0100
0000
0000
0000
0010
,
0000
0000
0000
0000
0000
0000
0000
0001
,
0000
0000
0000
1000
0000
0000
0000
0001
,
0000
0000
0000
0001
0000
0000
0000
0001
,
0000
0000
0000
1000
0000
0000
0000
0001
,
0000
0000
0000
0001
0000
0000
0000
0100
,
0000
0000
0000
0010
0000
0000
0000
1000
,
0000
0000
0000
0000
0000
0000
0000
1000
,
0000
0000
0000
0001
0000
0000
0000
1000
,
0000
0000
0000
0000
0000
0000
0000
0001
,
0000
0000
0000
0100
0000
0000
0000
0010
,
0000
0000
0000
0000
,
0000
0000
0000
1000
0000
0000
0000
0010
,
0000
0000
0000
0000
0000
0000
0000
0100
,
0000
0000
0000
0010
0000
0000
0000
1000
,
0000
0000
0000
0011
0000
0000
0000
1100
,
0000
0000
0000
1000
0000
0000
0000
1000
,
0000
0000
0000
0000
0000
0000
0000
0001
,
0000
0000
0000
0100
0000
0000
0000
0001
,
0000
0000
0000
0100
0000
0001
0000
0100
,
0000
0000
0000
0010
0000
0000
0000
0010
,
0000
0000
0000
1000
0000
0010
0000
1000
,
0000
0000
0000
0010
0000
0000
0000
0010
,
0000
0000
0000
0000
0000
0000
0000
1001
,
0000
0000
0000
0000
,
0000
0000
0000
0000
,
0000
0000
0000
0001
0000
1000
0000
0001
,
0000
0010
0000
0000
0000
1000
0000
0001
,
0000
0100
0000
0000
0000
0100
0000
1000
,
0000
0010
0000
0100
0000
0100
0000
0001
,
0000
0001
0000
0000
0000
0100
0000
1000
,
0000
1000
0000
0010
0000
0100
0000
0001
,
0000
0001
0000
0010
0000
0100
0000
1000
,
0000
1000
0000
0001
0000
0001
0000
0100
,
0000
0100
0000
0001
0000
1000
0000
0010
,
0000
0010
0000
0000
0000
0001
0000
0100
,
0000
0100
0000
0001
0000
0010
0000
0010
,
0000
0010
0000
0100
0000
1000
0000
0001
,
0000
0010
0000
0100
0000
0100
0000
0010
,
0000
1000
0000
0000
0000
0001
0000
0100
,
0000
0010
0000
1000
0000
1000
0000
0001
,
0000
0010
0000
0100
0100
0100
0000
1000
,
0000
0001
0000
0101
0000
0010
0000
0000
,
0010
0000
0000
2002
0000
0000
0000
0000
,
3003
0000
0000
0000
;

//---------------dance-single - Magna Trick----------------
#NOTES:
     dance-single:
     :
     Easy:
     10:
     0.391259,0.855394,0.108621,0.217243,0.034914,353.000000,339.000000,14.000000,28.000000,0.000000,0.000000,0.391259,0.855394,0.108621,0.217243,0.034914,353.000000,339.000000,14.000000,28.000000,0.000000,0.000000:
0000
0000
0000
0000
,
0000
0000
0000
0000
,
0000
0000
0000
0000
,
0000
0000
0000
0000
,
0000
0000
0000
0000
,
0000
0000
0000
0000
,
0000
0000
0000
0000
,
0000
0000
0000
0000
,
0000
0000
0000
0000
,
0000
0000
0000
0000
,
0000
0000
0000
0000
,
0010
0000
0000
0000
,
1000
1000
0001
1000
,
0001
0001
0100
0010
,
0100
0100
0010
0100
,
0010
0010
1000
0001
,
0100
1000
0010
0001
,
0100
1000
0010
0001
,
0100
1000
0010
0001
,
0100
1000
0010
0001
,
1001
0000
0010
0200
0000
0000
0301
0000
,
0100
0000
0010
2000
0000
3200
0000
0300
,
0010
0000
0001
0020
0000
0000
0000
0030
,
0002
0203
2300
3020
,
1030
0000
0100
0020
0000
0000
0030
0000
,
0001
0000
0010
0200
0000
2300
0000
3000
,
0001
1000
0001
2000
0000
0000
3000
0100
,
0100
0010
0100
0000
2000
0000
3002
0000
,
1003
0000
0100
2000
0000
0000
3010
0000
,
0100
0000
0010
2000
0000
3200
0000
0000
,
0310
0001
1000
0200
0000
0000
0300
0000
,
1001
1100
0011
0101
,
0010
0000
1000
0200
0000
0000
0310
0000
,
0001
0000
0100
0020
0000
2030
0000
0000
,
3010
0100
0001
2000
0000
0000
3001
0001
,
1000
0001
1000
0000
0002
0000
2003
3000
,
1001
0000
0010
0001
0000
0001
0010
0000
,
0200
0300
0000
0000
0001
0000
1000
0000
,
0010
0100
0001
0001
,
0100
0000
0100
0000
0010
1000
0010
0000
,
0001
0100
0001
0000
1000
0000
1000
0000
,
0001
0010
0001
0000
0100
0000
0100
0000
,
1000
0000
1000
0000
0010
0100
0010
0000
,
0100
1000
0100
0000
0001
0010
0001
0000
,
1000
0010
1000
0000
0101
0000
0001
0000
,
0001
1000
1100
0001
,
0010
0100
1000
1000
,
0100
0100
0010
0100
,
1000
0100
0010
0010
,
0001
0000
0001
0000
1000
1000
1000
0000
,
0100
0100
1000
0010
,
0001
0001
0001
0000
0100
0001
0100
0000
,
0100
1000
0100
0000
0100
0001
0010
0100
,
0010
0001
0000
1000
0000
0010
0000
0100
,
0000
0000
0000
0000
0000
0001
0000
0100
,
0000
0000
0000
1000
0000
0100
0000
1000
,
0000
0000
0000
0000
,
0000
0001
0000
0010
0000
0000
0000
0010
,
0000
0000
0000
0000
0000
0001
0000
0100
,
0000
0000
0000
0010
0000
0000
0000
0100
,
0000
0000
0000
1001
0000
0000
0000
1001
,
0000
0000
0000
0010
0000
0000
0000
0100
,
0000
0000
0000
0000
0000
0000
0000
1000
,
0000
0000
0000
0001
0000
0000
0000
1000
,
0000
0000
0000
1000
0000
0000
0000
1000
,
0000
0000
0000
0001
0000
0000
0000
1000
,
0000
0000
0000
1000
0000
0000
0000
0010
,
0000
0000
0000
0100
0000
0000
0000
0001
,
0000
0000
0000
0000
0000
0000
0000
0001
,
0000
0000
0000
1000
0000
0000
0000
0001
,
0000
0000
0000
0000
0000
0000
0000
1000
,
0000
0000
0000
0010
0000
0000
0000
0100
,
0000
0000
0000
0000
,
0000
0000
0000
0001
0000
0000
0000
0100
,
0000
0000
0000
0000
0000
0000
0000
0010
,
0000
0000
0000
0100
0000
0000
0000
0001
,
0000
0000
0000
1100
0000
0000
0000
0011
,
0000
0000
0000
0001
0000
0000
0000
0001
,
0000
0000
0000
0000
0000
0001
0000
1000
,
0000
0000
0000
1000
0000
0010
0000
1000
,
0000
0000
0000
0010
0000
1000
0000
0010
,
0000
0000
0000
0100
0000
0010
0000
0100
,
0000
0000
0000
0001
0000
0100
0000
0001
,
0000
0000
0000
0100
0000
0001
0000
0100
,
0000
0000
0000
0000
0000
0001
0000
1000
,
0000
0000
0000
0000
0000
0000
0001
1000
1000
0100
0010
0001
0010
0100
1000
0001
,
1000
0001
0100
0010
0100
0010
1000
0001
1000
0000
0000
0000
0002
0000
0000
0000
,
0003
0000
0000
1000
0000
0001
0000
1000
,
0000
0100
0000
0010
0000
0001
0000
1000
,
0000
0010
0000
1000
0000
0010
0000
0001
,
0000
0100
0000
0010
0000
0010
0000
1000
,
0000
1000
0000
0100
0000
0010
0000
0001
,
0000
0001
0000
0100
0000
0010
0000
1000
,
0000
1000
0000
0100
0000
0010
0000
0001
,
0000
0001
0000
1000
0010
1000
0000
0010
,
0000
0010
0000
1000
0000
0001
0000
0100
,
0000
0100
0000
0001
0000
1000
0000
0010
,
0000
0010
0000
1000
0000
0100
0000
0100
,
0000
0100
0000
0010
0000
0001
0000
1000
,
0000
0100
0000
0010
0000
0010
0000
0100
,
0000
0001
0000
1000
0000
1000
0000
0010
,
0000
0100
0000
0001
0000
0001
0000
1000
,
0000
0100
0000
0010
0100
0010
0000
0001
,
0000
1000
0000
1010
0000
0100
0010
0000
,
0100
0010
0000
2002
0000
0000
0000
0000
,
3003
0000
0000
0000
;

//---------------dance-single - Magna Trick----------------
#NOTES:
     dance-single:
     :
     Medium:
     13:
     0.529807,0.896127,0.248278,0.876730,0.034914,478.000000,446.000000,32.000000,113.000000,0.000000,0.000000,0.529807,0.896127,0.248278,0.876730,0.034914,478.000000,446.000000,32.000000,113.000000,0.000000,0.000000:
0000
0000
0000
0000
,
0000
0000
0000
0000
,
0000
0000
0000
0000
,
0000
0000
0000
0000
,
0000
0000
0000
0000
,
0000
0000
0000
0000
,
0000
0000
0000
0000
,
0000
0000
0000
0000
,
0000
0000
0000
0000
,
0000
0000
0000
0000
,
0000
0000
0000
0000
,
0110
0000
0000
0000
,
1000
0001
0010
0000
0001
0000
0100
0000
,
1000
0001
0010
0000
0001
0000
0100
0000
,
1000
0100
0010
0000
0001
0000
0100
0000
,
0001
1000
0010
0000
0001
0000
0100
0000
,
0001
0010
0100
0000
0001
0000
0100
0000
,
1000
0100
0010
0000
0001
0000
0100
0000
,
1000
0001
0010
0000
0100
1000
0001
0000
,
0100
0001
1000
0000
1000
0001
0010
0100
,
1001
0000
0100
0020
0000
0000
0030
0000
,
0001
0000
1000
0000
0100
0000
0020
0000
0000
0030
0002
0000
0000
0000
1003
0000
,
0010
0100
0001
0200
0000
0000
0000
0300
,
0020
2030
3200
0320
,
0031
0000
0010
0000
0100
0000
2000
0000
0000
0000
0000
0000
0000
0000
0000
3000
,
0100
0010
0001
0200
0000
0310
0000
1000
,
0100
0010
0001
0200
0000
0000
0300
0020
,
0032
2003
3020
0030
0220
0330
2002
3003
,
1000
0100
1000
0200
0000
0000
0000
0300
,
0001
0000
1000
0000
0100
0000
0020
0000
0000
0030
0002
0000
0000
0000
1003
0000
,
0010
0100
0001
0200
0000
0000
0000
0300
,
0020
2030
3200
0320
,
0031
0000
0010
0000
0100
0000
2000
0000
0000
0000
0000
0000
0000
0000
0000
3000
,
0100
0010
0001
0200
0000
0310
0000
1000
,
0100
0010
0001
0200
0000
0000
0300
0020
,
0032
2003
3020
0030
0220
0330
2002
3003
,
1000
0001
0100
0010
0000
1000
0001
0000
,
0220
0330
0000
0000
1100
0001
1000
0001
,
1000
0100
0010
0000
0100
0000
0010
0000
,
0001
0001
0001
0000
0100
0100
0010
0100
,
1000
1000
0001
0000
1000
1000
0010
0010
,
0100
0100
0001
0100
0001
0100
0100
0000
,
0010
1000
1000
0100
0001
1000
1000
0100
,
0010
0001
0001
0100
0010
0100
0010
0010
,
0100
0100
0100
0001
0100
1000
0100
0010
,
0001
0001
0100
0010
1000
1000
1000
0000
,
0001
0010
0100
0000
1000
0100
0010
0000
,
0001
1000
0001
0000
1000
0001
1000
0100
,
0100
0010
0010
0001
1000
1000
1000
0010
,
0100
0001
1000
0100
0100
1000
0100
0010
,
0010
0001
0001
0010
0100
1000
1000
0100
,
0010
0001
0001
0100
0010
0010
0010
1000
,
0001
0001
0001
1000
1000
0001
1000
0001
,
1000
0001
0000
1000
0000
0010
0000
0110
,
0000
0000
0000
1001
0000
0000
0000
0010
,
0000
0100
0000
1001
0000
0100
0000
0010
,
0000
0000
0000
1001
0000
0000
0000
0100
,
0000
0000
0000
1001
0000
0001
0000
0010
,
0000
0000
0000
1001
0000
0100
0000
0010
,
0000
0100
0000
1001
0000
0001
0000
0100
,
0000
0000
0000
1001
0000
0010
0000
0010
,
0000
0000
0000
1002
0000
0000
0000
0023
,
0000
0000
0030
1001
0000
0200
0300
0020
,
0030
0002
0003
2001
3000
0200
0300
0020
,
0030
0200
0300
1002
0003
0020
0030
0200
,
0300
0020
0030
1002
0000
0203
0000
0310
,
0000
2000
3000
1001
0000
0020
0030
0002
,
0003
0000
0000
0000
0200
0000
0000
0000
0300
0000
0000
0000
1001
0000
0000
0000
0000
0000
0000
0000
0020
0000
0000
0000
0000
0000
0000
0030
0020
0000
0000
0000
,
0000
0000
0000
0000
0000
0000
0030
0000
0000
0000
0000
0000
0000
0000
0000
0000
0000
0000
1001
0000
0000
0000
0000
0000
0000
0000
0000
0000
0000
0000
0200
0000
0000
0000
0000
0000
0000
0000
0000
0000
0000
0300
0200
0000
0000
0000
0000
0000
,
0000
0300
0000
1001
0000
0010
0000
0100
,
0000
1000
0000
1000
0000
1000
0000
0000
,
0000
0001
0000
0001
0000
0001
0000
0000
,
0000
0001
0000
1000
0000
1000
0000
0001
,
0000
1000
0000
0001
0000
0002
0000
0003
,
0000
0001
0000
0001
0000
0001
0000
0000
,
0000
1000
0000
1000
0000
1000
0000
0000
,
0000
0000
0000
0101
0000
0000
0000
1010
,
0000
0000
0000
0001
0000
0000
0000
0001
,
0000
1000
0000
1000
0000
1000
0000
0000
,
0000
0001
0000
0001
0000
0001
0000
0000
,
0000
0100
0000
0100
0000
0100
0000
0000
,
0000
0010
0000
0010
0000
0010
0000
0000
,
0000
0100
0000
0100
0000
0200
0000
0300
,
0000
0010
0000
0010
0000
0020
0000
0030
,
0000
0020
0030
2000
3000
0200
0300
0020
,
0000
0000
0030
0000
0000
0000
1000
0010
0100
0001
0100
0010
1000
0100
0010
0001
,
1000
0010
0100
0001
0010
0100
1000
0001
0200
0000
0000
0000
0320
0000
0000
0000
,
2030
0000
3000
0001
1000
0010
0200
0000
,
0000
0000
0300
0000
0000
0000
1000
0000
0001
0000
0010
0000
0200
0000
0000
0300
,
2000
0000
3001
0100
0010
1000
0020
0000
,
0000
0000
0030
0200
0000
0302
0000
0023
,
0000
0230
0000
1300
0100
0010
0002
0000
,
0000
0000
0000
0000
0000
0003
0010
0000
0100
0000
1000
0000
0020
0000
0000
0000
,
0130
0000
0001
0010
0100
1000
0020
0000
,
0000
0030
0200
2300
3002
0203
0300
0220
,
0330
2002
3003
0001
0010
0001
0020
0000
,
0000
0000
0000
0000
0030
0000
1000
0000
0001
0000
0010
0000
0200
0000
0000
0300
,
2000
0000
3001
0100
0010
1000
0020
0000
,
0000
0000
0030
0200
0000
0302
0000
0023
,
0000
0230
0000
1300
0100
0010
0002
0000
,
0000
0000
0000
0000
0000
0003
0010
0000
0100
0000
1000
0000
0020
0000
0000
0000
,
0130
0000
0001
0010
0100
1000
0020
0000
,
0000
0030
0200
2300
3002
0203
0300
0220
,
0330
2002
3003
0001
1000
0010
0100
0000
,
0001
1000
0000
2002
0000
0000
0000
0000
,
3003
0000
0000
0000
;

//---------------dance-single - Magna Trick----------------
#NOTES:
     dance-single:
     :
     Hard:
     15:
     0.769217,1.221991,0.263795,0.783626,0.453882,694.000000,660.000000,34.000000,101.000000,0.000000,1.000000,0.769217,1.221991,0.263795,0.783626,0.453882,694.000000,660.000000,34.000000,101.000000,0.000000,1.000000:
0000
0000
0000
0000
,
0000
0000
0000
0000
,
0000
0000
0000
0000
,
0000
0000
0000
0000
,
0000
0000
0000
0000
,
0000
0000
0000
0000
,
0000
0000
0000
0000
,
0000
0000
0000
0000
,
0000
0000
0000
0000
,
0000
0000
0000
0000
,
0000
0000
0000
0000
,
1010
0000
0000
0000
,
1000
0000
0001
0000
0010
0000
0000
0001
0000
1000
0001
0000
0100
0000
0010
0000
,
1000
0000
0100
0000
0010
0000
0000
0100
0000
0010
0100
0000
1000
0000
0001
0000
,
0100
0000
0010
0000
1000
0000
0000
0010
0000
0100
0010
0000
1000
0000
0100
0000
,
0010
0000
0100
0000
1000
0000
0000
0001
0000
0100
0001
0000
1000
0000
0010
0000
,
0100
0000
0001
0000
0010
0000
0000
0100
0000
1000
0100
0000
0010
0000
0001
0000
,
1000
0000
0010
0000
0100
0000
0000
0100
0000
0010
1000
0000
0100
0000
0010
0000
,
0001
0000
0010
0000
0100
0000
0000
1000
0000
0001
0100
0000
0001
0000
1000
0000
,
0100
0000
1000
0000
0001
0000
0000
0100
0000
0001
1000
0000
0001
0000
0100
0000
,
1001
0001
0100
2000
0001
3000
0010
0000
,
0100
0001
1000
0200
0000
0310
0001
0010
,
0001
0100
0010
2000
0001
0000
3100
0000
,
0001
0000
0000
0001
0010
0000
0000
0010
0100
0000
0000
0100
1000
0000
0000
1000
,
0010
1000
0100
0020
0001
0030
0100
0000
,
0001
0100
0010
2000
0000
3001
0001
0100
,
0010
1000
0010
0200
1000
0300
0001
0020
,
0032
2003
3020
0030
2200
3300
0022
0033
,
0001
1000
0010
0200
0001
0300
0010
1000
,
0100
0010
0001
0020
0100
0030
0001
0001
,
1000
0010
0100
0002
0010
0003
0100
0000
,
1000
0000
0000
1000
0100
0000
0000
0100
0010
0000
0000
0010
0001
0000
0000
0001
,
1000
0001
0010
0200
1000
0300
0010
0000
,
0100
0010
0100
2000
0001
3001
0010
0001
,
0100
0001
0100
0020
0001
0030
1000
0200
,
2300
3002
0203
0300
0022
0033
2200
3300
,
1001
0100
0010
0001
0000
1000
0001
0000
,
0220
0000
1330
0001
0000
0000
0000
0000
1001
0000
1000
0000
0001
0000
0010
0100
,
0010
0100
1000
0001
0100
0000
0010
0000
0010
0000
1000
0100
1000
0000
0010
0100
,
0010
0100
0001
1000
0001
1000
0100
0000
0100
0010
0001
1000
0001
0000
0100
0000
,
0100
0010
1000
0100
1000
0000
0100
0010
0001
0010
0100
0010
0001
0010
0100
0010
,
0001
1000
0100
0010
0001
1000
0001
0000
1000
0000
1000
0000
0010
0000
0100
0000
,
0001
1000
0001
0100
0010
0100
0001
0000
1000
0100
0010
0001
0010
0100
1000
0000
,
0001
1000
0001
1000
0001
0100
0010
0000
0010
1000
0100
1000
0100
0000
1000
0010
,
0100
0001
0010
0001
0010
0000
0100
0000
1001
0000
0001
0000
1000
0000
0001
0010
,
0100
1000
0100
0010
0001
1000
0001
0000
1001
0000
0100
0010
0100
0000
0001
0000
,
0100
0000
0010
1000
0010
0000
0100
0001
0100
0001
1000
0010
0200
0000
0010
0300
,
1000
0001
1000
0001
1000
0000
0001
0000
1000
0100
1000
0000
0001
0100
0001
1000
,
0100
1000
0100
0010
0001
0010
0001
1000
0100
0010
0001
0100
0010
0000
0100
0000
,
0001
1000
0100
1000
0100
0000
0010
0001
0010
0001
0100
0001
0010
0000
0001
1000
,
0001
0100
0010
1000
0100
0001
1000
0010
,
0001
0100
0010
0100
0010
0000
1000
0001
0100
0001
0100
0010
1000
0000
1000
0100
,
0010
0001
0010
0001
1000
0000
0010
0100
0001
0010
0100
0010
0100
0010
0100
0010
,
0100
0010
0001
0000
0000
0000
1000
0000
0000
0000
0010
0000
0000
0000
0100
0000
,
0000
0000
0000
1001
0000
0000
0000
0010
,
0000
0100
0000
1001
0000
0100
0000
0010
,
0000
0000
0010
0001
0100
0000
0000
0100
,
0000
0000
0000
1001
0000
0001
0000
0010
,
0000
0000
0000
1001
0000
0100
0000
0010
,
0000
0100
0000
1001
0000
0001
0000
0100
,
0000
0000
0000
0001
1000
0010
0100
0001
,
0000
0000
0000
1002
0000
0000
0000
0023
,
0000
0000
0030
1001
0000
0200
0300
0020
,
0030
0002
0003
2001
3000
0200
0300
0020
,
0030
0200
0300
2001
3000
0020
0030
0200
,
0300
0020
0030
1002
0000
0203
0000
0310
,
0000
2000
3000
1002
0003
0020
0030
0002
,
0003
0000
0000
0000
0200
0000
0000
0000
0300
0000
0000
0000
1002
0000
0000
0000
0003
0000
0000
0000
0020
0000
0000
0000
0000
0000
0000
0030
0020
0000
0000
0000
,
0000
0000
0000
0000
0000
0000
0030
0000
0000
0000
0000
0000
0000
0000
0000
0000
0000
0000
1001
0000
0000
0000
0000
0000
0000
0000
0000
0000
0000
0000
0200
0000
0000
0000
0000
0000
0000
0000
0000
0000
0000
0300
0200
0000
0000
0000
0000
0000
,
0000
0300
0000
1001
0000
0010
0000
0100
,
0000
1000
0100
1000
0100
0020
0000
0030
,
0000
0001
0100
0001
0100
0020
0000
0030
,
0000
0001
0010
0100
1000
0100
0010
0001
,
0010
0100
1000
0100
0010
0002
0000
0003
,
0000
0001
0010
0001
0010
0200
0000
0300
,
0000
1000
0010
1000
0010
0200
0000
0300
,
0000
0001
0010
0100
1000
0001
0010
0100
,
1000
0001
0010
0100
1000
0100
0010
0001
,
0000
1000
0001
1000
0001
0020
0000
0030
,
0000
0001
1000
0001
1000
0200
0000
0300
,
0000
0100
0010
0100
0010
0002
0000
0003
,
0000
0010
0100
0010
0100
2000
0000
3000
,
0000
0100
0010
0001
1000
0200
0000
0300
,
0000
0010
0001
1000
0010
0200
0000
0300
,
0000
0010
0001
1000
0010
0100
0001
0020
,
0000
0000
0030
0000
0000
0000
0001
0110
0010
1000
0001
1000
0001
0010
0100
1000
,
0011
1100
0001
0010
0100
1000
0001
0010
0002
0000
0000
0000
2003
0000
0000
0000
,
3001
1000
0002
0000
0003
0000
0100
0000
1000
0000
0010
0000
0002
0000
1000
0000
,
0003
0100
0000
0010
1000
0001
0020
0000
,
0130
1000
0100
1000
0010
0100
0002
1000
,
0000
0000
0013
0000
0000
0000
1000
0000
0000
1000
0100
0000
0000
0100
0010
0000
,
0000
0010
0001
0000
0000
0001
0100
0000
0001
0000
0010
0000
0200
0000
1000
0000
,
0300
0010
0000
1000
0010
0100
0002
0000
,
1003
1000
0010
0100
0001
0100
0020
0001
,
0030
1000
0200
2300
3002
0203
0300
0022
,
0033
2200
3300
1000
0001
0100
0020
1000
,
0030
0100
0001
0010
0100
1000
0200
0010
,
0300
1000
1000
0001
0100
0010
2000
0100
,
3000
0000
0010
0000
0000
0000
0001
0000
0000
0001
0010
0000
0000
0010
0100
0000
,
0000
0100
1000
0000
0000
1000
0001
0000
1000
0000
0100
0000
0020
0000
0001
0000
,
0030
0100
0000
0010
0100
0010
0002
1000
,
1003
0100
1000
0010
1000
0010
0200
1000
,
0300
0001
0020
0032
2003
3020
0030
2200
,
3300
0022
0033
1001
0010
0100
1000
0000
,
0001
1000
0000
2002
0000
0000
0000
0000
,
3003
0000
0000
0000
;

//---------------dance-single - Magna Trick----------------
#NOTES:
     dance-single:
     :
     Challenge:
     18:
     0.915524,1.344190,0.256036,0.721557,0.768109,826.000000,793.000000,33.000000,93.000000,0.000000,1.000000,0.915524,1.344190,0.256036,0.721557,0.768109,826.000000,793.000000,33.000000,93.000000,0.000000,1.000000:
0000
0000
0000
0000
,
0000
0000
0000
0000
,
0000
0000
0000
0000
,
0000
0000
0000
0000
,
0000
0000
0000
0000
,
0000
0000
0000
0000
,
0000
0000
0000
0000
,
0000
0000
0000
0000
,
0000
0000
0000
0000
,
0000
0000
0000
0000
,
0000
0000
0000
0000
,
1001
0000
0000
0000
,
0001
0000
1000
0000
0100
0000
0000
1000
0000
0001
1000
0000
0010
0000
0100
0000
,
0001
0000
0010
0000
0100
0000
0000
0010
0000
0100
0010
0000
0001
0000
1000
0000
,
0010
0000
0100
0000
0001
0000
0000
0100
0000
0010
0100
0000
0001
0000
0010
0000
,
0100
0000
0010
0000
0001
0000
0000
1000
0000
0010
1000
0000
0001
0000
0100
0000
,
0010
0000
1000
0000
0100
0000
0000
0010
0000
0001
0010
0000
0100
0000
1000
0000
,
0001
0000
0100
0000
0010
0000
0000
0010
0000
0100
0001
0000
0010
0000
0100
0000
,
1000
0000
0100
0000
0010
0000
0000
0001
0000
1000
0010
0000
1000
0000
0001
0000
,
0001
0010
0100
1000
0001
0010
0100
1000
0010
0100
0001
1000
0010
0100
0010
1000
,
0001
0000
1000
0000
0010
0000
0100
0001
0010
0000
0010
0000
0100
0000
1000
0000
,
0100
0000
0010
0000
0001
0000
0010
0100
1000
0001
0100
0000
0100
0000
0100
0001
,
1000
0000
0010
0000
0100
0000
0001
0100
0010
0000
0001
0000
1000
0000
0100
0000
,
2000
0000
3001
0000
0200
0000
0310
1000
0002
0010
0103
0000
0200
0000
1300
0010
,
0100
0000
0001
0000
0010
0000
0100
1000
0001
0000
1000
0000
0010
0000
0100
0000
,
0001
0000
0010
0000
0100
0000
0010
0100
1000
0001
0100
0000
0001
0000
1000
0010
,
0100
0000
0001
0000
0100
0000
0010
0100
0001
0000
0001
0000
1000
0000
0200
0000
,
2300
3002
0203
0300
0022
0033
2200
3300
,
1000
0000
0001
0000
0100
0000
0010
1000
0100
0000
0100
0000
0010
0000
0001
0000
,
0010
0000
0100
0000
1000
0000
0100
0010
0001
1000
0010
0000
0010
0000
0010
1000
,
0001
0000
0100
0000
0010
0000
1000
0010
0100
0000
1000
0000
0001
0000
0010
0000
,
0002
0000
1003
0000
0020
0000
0130
0001
2000
0100
3010
0000
0020
0000
0031
0100
,
0010
0000
1000
0000
0100
0000
0010
0001
1000
0000
0001
0000
0100
0000
0010
0000
,
1000
0000
0100
0000
0010
0000
0100
0010
0001
1000
0010
0000
1000
0000
0001
0100
,
0010
0000
1000
0000
0010
0000
0100
0010
1000
0000
1000
0000
0001
0000
0020
0000
,
0032
2003
3020
0030
2200
3300
0022
0033
,
1001
0010
0100
1000
0000
0001
1000
0000
,
0220
0000
0331
1000
0000
0000
1000
0010
1000
0010
0100
0001
0100
0001
0010
0100
,
0010
0100
1000
0100
1000
0001
1000
0001
0010
0000
0100
0010
1000
0000
0100
0010
,
0100
0010
1000
0001
1000
0001
0010
0000
0010
0100
1000
0001
1000
0001
0100
0010
,
1000
0010
1000
0001
0010
0001
0010
0100
1000
0100
0010
0001
1000
0100
0010
0001
,
0100
0100
0100
0001
0001
0001
1000
0010
0100
0001
1000
0010
0100
0001
1000
0100
,
0001
0100
1000
0010
0001
0010
1000
0000
0001
0010
0100
1000
0100
0010
0001
0000
,
0010
1000
0100
1000
0100
0010
0001
0010
0001
1000
0010
0001
0010
0000
0001
0100
,
0010
1000
0100
0001
0100
0000
0001
0010
1001
0010
0100
1000
0001
0000
1000
0100
,
0010
0001
0010
0100
1000
1000
0100
0000
0010
0001
0010
0001
0010
0100
1000
0100
,
0010
0001
0100
0010
1000
0100
0010
0001
0100
0010
1000
0001
0020
0000
0100
0030
,
0010
0100
0010
0100
0010
0000
0001
0000
1000
0001
0010
0100
1000
0010
0100
0001
,
0010
0001
0010
0100
1000
0100
1000
0001
0010
0010
0010
0010
0001
1000
0010
0100
,
0001
0001
0001
0001
0010
0100
1000
0010
1000
0001
1000
0100
0010
0001
1000
0001
,
0010
0010
0010
0100
0100
0100
0010
1000
0010
0100
0001
0100
1000
0100
0001
0010
,
1000
0010
0001
0010
0100
0010
0100
1000
0010
1000
0010
1000
0010
0100
0001
0010
,
0100
1000
0100
1000
0100
1000
0100
0010
0001
0100
0010
0100
0010
0100
0010
0100
,
0010
0100
1000
0000
0000
0000
0001
0000
0000
0000
0100
0000
0000
0000
0010
0000
,
0000
0000
0000
1001
0000
0000
0000
0100
,
0000
0010
0000
1001
0000
0010
0000
0100
,
0000
0000
0100
1001
0010
0000
0000
0010
,
0000
0000
0000
1001
0000
1000
0000
0100
,
0000
0000
0000
1001
0000
0010
0000
0100
,
0000
0010
0000
1001
0000
1000
0000
0010
,
0000
0000
0000
1001
0001
0100
0010
1000
,
0000
0000
0000
2001
0000
0000
0000
3200
,
0000
0000
0300
1001
0000
0020
0030
0200
,
0300
2000
3000
1002
0003
0020
0030
0200
,
0300
0020
0030
1002
0003
0200
0300
0020
,
0030
0200
0300
2001
0000
3020
0000
0130
,
0000
0002
0003
2001
3000
0200
0300
2000
,
3000
0000
0000
0000
0020
0000
0000
0000
0030
0000
0000
0000
2001
0000
0000
0000
3000
0000
0000
0000
0200
0000
0000
0000
0000
0000
0000
0300
0200
0000
0000
0000
,
0000
0000
0000
0000
0000
0000
0300
0000
0000
0000
0000
0000
0000
0000
0000
0000
0000
0000
1001
0000
0000
0000
0000
0000
0000
0000
0000
0000
0000
0000
0020
0000
0000
0000
0000
0000
0000
0000
0000
0000
0000
0030
0020
0000
0000
0000
0000
0000
,
0000
0030
0000
1001
0000
0100
0000
0010
,
0000
0001
0010
0001
0010
0200
0000
0300
,
0000
1000
0010
1000
0010
0200
0000
0300
,
0000
1000
0100
0010
0001
0010
0100
1000
,
0100
0010
0001
0010
0100
2000
0000
3000
,
0000
1000
0100
1000
0100
0020
0000
0030
,
0000
0001
0100
0001
0100
0020
0000
0030
,
0000
1000
0100
0010
0001
1000
0100
0010
,
0001
1000
0100
0010
0001
0010
0100
1000
,
0000
0001
1000
0001
1000
0200
0000
0300
,
0000
1000
0001
1000
0001
0020
0000
0030
,
0000
0010
0100
0010
0100
2000
0000
3000
,
0000
0100
0010
0100
0010
0002
0000
0003
,
0000
0010
0100
1000
0001
0020
0000
0030
,
0000
0100
1000
0001
0100
0020
0000
0030
,
0000
0100
1000
0001
0100
0010
1000
0200
,
0000
0000
0300
0000
0000
0000
1000
0110
0100
0001
1000
0001
1000
0100
0010
0001
,
1100
0011
1000
0100
0010
0001
1000
0100
2000
0000
0000
0000
3002
0000
0000
0000
,
1003
0001
2000
0000
3100
0000
0001
0000
1000
0000
0010
0000
0100
0001
0010
0000
,
0010
0000
0100
0000
1000
0000
0100
0000
0010
0000
0001
0000
0010
0100
1000
0001
,
0100
0000
0100
0000
0100
0001
1000
0000
0010
0000
0100
0000
0001
0100
0010
0000
,
0001
0000
1000
0000
0100
0000
2000
0000
3001
0000
0200
0000
0310
1000
0002
0010
,
0103
0000
0200
0000
1300
0010
0100
0000
0001
0000
0010
0000
0100
1000
0001
0000
,
1000
0000
0010
0000
0100
0000
0001
0000
0010
0000
0100
0000
0010
0100
1000
0001
,
0100
0000
0001
0000
1000
0010
0100
0000
0001
0000
0100
0000
0010
0100
0001
0000
,
0001
1000
0200
2300
3002
0203
0300
0220
,
0330
0000
2002
0000
3003
0000
1000
0000
0001
0000
0100
0000
0010
1000
0100
0000
,
0100
0000
0010
0000
0001
0000
0010
0000
0100
0000
1000
0000
0100
0010
0001
1000
,
0010
0000
0010
0000
0010
1000
0001
0000
0100
0000
0010
0000
1000
0010
0100
0000
,
1000
0000
0001
0000
0010
0000
0002
0000
1003
0000
0020
0000
0130
0001
2000
0100
,
3010
0000
0020
0000
0031
0100
0010
0000
1000
0000
0100
0000
0010
0001
1000
0000
,
0001
0000
0100
0000
0010
0000
1000
0000
0100
0000
0010
0000
0100
0010
0001
1000
,
0010
0000
1000
0000
0001
0100
0010
0000
1000
0000
0010
0000
0100
0010
1000
0000
,
1000
0001
0020
0032
2003
3020
0030
2020
,
3030
0202
0303
1001
1000
0010
0100
0000
,
0001
1000
0000
2002
0000
0000
0000
0000
,
3003
0000
0000
0000
;
