#TITLE:Papá te Quiero;
#SUBTITLE:;
#ARTIST:31 minutos - Exequiel Tapia y los Tapia;
#TITLETRANSLIT:;
#SUBTITLETRANSLIT:;
#ARTISTTRANSLIT:;
#GENRE:Children's song;
#CREDIT:OpenITG3;
#BANNER:Papá te Quiero-bn.png;
#BACKGROUND:Papá te Quiero-bg.png;
#LYRICSPATH:;
#CDTITLE:;
#MUSIC:Papá te Quiero.ogg;
#OFFSET:0.000000;
#SAMPLESTART:47.772999;
#SAMPLELENGTH:12.000000;
#SELECTABLE:YES;
#BPMS:0.000000=160.759995
;
#STOPS:239.500000=2.985817
;
#BGCHANGES:;
#KEYSOUNDS:;
#ATTACKS:;

//---------------dance-single - ----------------
#NOTES:
     dance-single:
     :
     Beginner:
     1:
     0.068099,0.082692,0.000000,0.000000,0.000000,49.000000,49.000000,0.000000,0.000000,0.000000,0.000000,0.068099,0.082692,0.000000,0.000000,0.000000,49.000000,49.000000,0.000000,0.000000,0.000000,0.000000:
0000
0000
0000
0000
,
0000
0000
0000
0000
,
0000
0000
0000
0000
,
0000
0000
0000
0000
,
1000
0001
1000
0001
1000
0001
1000
0001
,
1000
0001
1000
0001
1000
0001
1000
0001
,
1000
0001
1000
0001
1000
0001
1000
0001
,
1000
0001
1000
0001
1000
0001
1000
0001
,
1000
0001
1000
0001
1000
0001
1000
0001
,
1000
0001
1000
0001
1000
0001
1000
0001
,
1000
0000
0000
0000
;

//---------------dance-single - ----------------
#NOTES:
     dance-single:
     :
     Hard:
     8:
     0.636520,0.790439,0.788007,0.107013,0.009728,458.000000,377.000000,81.000000,11.000000,0.000000,0.000000,0.636520,0.790439,0.788007,0.107013,0.009728,458.000000,377.000000,81.000000,11.000000,0.000000,0.000000:
0000
0000
0000
0000
,
0000
0000
0000
0000
,
0000
0000
0000
0000
,
0000
0000
0000
0000
,
1001
1100
1001
0101
,
0000
0001
0100
0001
0010
0100
1000
0000
,
0110
0101
0011
1001
,
0000
0010
1000
0100
0001
0100
1000
0000
,
1100
0110
0011
1010
,
0000
0100
0001
0010
0001
0100
1000
0000
,
1010
0101
0110
1001
,
0000
0010
0100
1000
0100
0010
0002
0000
,
1003
0100
1000
0010
0100
0001
0010
0011
,
0000
0100
2001
0000
3000
0100
0010
0100
,
1000
0100
1000
0100
0010
0001
0010
0001
,
0000
0010
0210
0000
0300
0001
1000
0100
,
0011
0101
1010
1100
,
0001
0100
0001
0100
0010
1000
0100
0000
,
1010
1100
1010
1001
,
0010
0100
0010
0001
0010
0100
0010
0000
,
1010
0000
0100
0000
0011
0001
0100
0000
,
1010
0000
0100
0000
1010
1000
0100
0000
,
1001
1100
1001
0101
,
0001
0100
0001
0010
0100
1000
0100
0000
,
0001
0010
0100
0010
0001
1000
0100
0001
,
0000
0100
1002
0000
0003
0100
1000
0100
,
0010
0001
0010
0100
0010
0100
0010
1000
,
0000
0100
0120
0000
0030
0100
0010
0001
,
1000
0001
0100
0001
0010
0100
1000
0010
,
0000
0000
0100
0000
2100
0000
0000
0000
3010
0000
0000
0100
0001
0000
0010
0000
,
0001
0100
0001
1000
0010
1000
0100
0001
,
0000
0000
0010
0000
0210
0000
0000
0000
0301
0000
0000
0010
1000
0000
0100
0000
,
0010
0001
0010
1000
0010
0001
0010
1000
,
0001
0100
1000
0100
0001
0100
1000
0100
,
0010
0001
0100
0010
1000
0100
0010
0001
,
0100
0010
0100
0010
1000
0001
1000
0001
,
1010
0101
0011
1100
,
0000
0001
0100
0001
0010
1000
0100
0000
,
0011
0101
0110
1100
,
0000
1000
0100
1000
0010
0001
0100
0000
,
1001
0110
1010
1001
,
0000
0010
0100
0001
0010
1000
0001
0000
,
0101
1100
0011
1001
,
0001
0010
0100
1000
0100
0010
1000
0000
,
0101
0001
0100
0000
1010
1000
0200
0000
,
0300
1000
0001
0100
0010
0001
1000
0001
,
1001
1000
0100
0000
0110
0010
0100
0000
,
1000
0010
0100
0001
0010
0001
0100
1000
,
1100
0001
0100
0000
0011
1000
0100
0000
,
0010
0100
0010
0100
0001
0010
0100
1000
,
1010
0010
0100
0000
0110
0100
0001
0000
,
0001
0010
0100
1000
1000
0100
0010
0100
,
0001
0100
0001
0100
1000
0100
0001
0010
,
0000
0010
1002
0000
0003
0100
1000
0100
,
0010
0100
1000
0100
0010
0001
0100
0001
,
0000
0010
0012
0000
0003
0010
0100
0010
,
0001
0100
0001
1000
0100
0010
0100
1000
,
0000
0100
2010
0000
3000
0100
0010
0001
,
1000
1000
0001
0100
0001
0010
0100
1000
,
0010
0000
1001
0000
0000
0100
0010
0100
,
1100
0100
1000
0100
0110
0110
0010
0100
,
0101
0001
0100
0001
0011
0011
0010
0100
,
0110
0010
0100
0010
1010
1010
1000
0100
,
1001
1000
1100
0100
0110
0110
0010
0001
,
0101
0000
0000
0000
,
1000
0000
0000
0000
;

//---------------dance-single - ----------------
#NOTES:
     dance-single:
     :
     Medium:
     6:
     0.441951,0.529229,0.573980,0.107013,0.000000,318.000000,259.000000,59.000000,11.000000,0.000000,0.000000,0.441951,0.529229,0.573980,0.107013,0.000000,318.000000,259.000000,59.000000,11.000000,0.000000,0.000000:
// measure 0
0000
0000
0000
0000
,  // measure 1
0000
0000
0000
0000
,  // measure 2
0000
0000
0000
0000
,  // measure 3
0000
0000
0000
0000
,  // measure 4
0001
1100
1000
0101
,  // measure 5
0000
0000
0100
0000
0010
0100
1000
0000
,  // measure 6
0100
0101
0001
1001
,  // measure 7
0000
0000
1000
0000
0001
0100
1000
0000
,  // measure 8
1000
0110
0001
1010
,  // measure 9
0000
0000
1000
0000
0001
0100
1000
0000
,  // measure 10
0010
0101
0010
1001
,  // measure 11
0000
0010
0100
0000
0100
0010
0002
0000
,  // measure 12
1003
0000
0100
0010
0100
0000
0001
0010
,  // measure 13
0000
2001
3001
0010
,  // measure 14
1000
0100
1000
0000
0100
0000
0010
0001
,  // measure 15
0000
0210
0310
1000
,  // measure 16
0001
0101
1000
1100
,  // measure 17
0000
0000
0001
0000
0010
1000
0100
0000
,  // measure 18
0010
1100
1000
1001
,  // measure 19
0000
0000
1000
0000
0010
0100
0010
0000
,  // measure 20
1000
0000
0100
0000
0010
0001
0100
0000
,  // measure 21
1000
0000
0100
0000
0010
1000
0100
0000
,  // measure 22
0001
1100
0001
0101
,  // measure 23
0000
0000
0001
0000
0100
1000
0100
0000
,  // measure 24
0001
0000
0100
0010
0001
0000
0100
1000
,  // measure 25
0000
1002
0013
1000
,  // measure 26
0010
0001
0010
0000
0100
0000
0010
1000
,  // measure 27
0000
0120
0130
0010
,  // measure 28
1000
0000
0100
0001
0010
0000
1000
0010
,  // measure 29
0000
2100
3010
0100
,  // measure 30
0001
0100
0001
0000
0010
0000
0100
1000
,  // measure 31
0000
2010
3100
1000
,  // measure 32
0010
1001
1100
1001
,  // measure 33
0010
1001
0101
1001
,  // measure 34
0100
0011
0101
0011
,  // measure 35
1001
1001
1100
1001
,  // measure 36
0010
0101
0001
1100
,  // measure 37
0000
0000
0100
0000
0010
1000
0100
0000
,  // measure 38
0010
0101
0010
1100
,  // measure 39
0000
0000
0100
0000
0010
0001
0100
0000
,  // measure 40
1000
0110
0010
1001
,  // measure 41
0000
0000
0100
0000
0010
1000
0001
0000
,  // measure 42
0100
1100
0001
1001
,  // measure 43
0001
0000
0100
0000
0100
0010
1000
0000
,  // measure 44
0100
0001
0100
0000
1010
0000
0200
0000
,  // measure 45
0300
0000
0001
0000
0010
0001
1000
0000
,  // measure 46
0001
1000
0100
0000
0110
0000
0010
0000
,  // measure 47
0000
0000
0100
0000
0010
0001
0100
0000
,  // measure 48
1000
0001
0100
0000
0011
0000
0100
0000
,  // measure 49
0000
0000
0010
0000
0001
0010
0100
0000
,  // measure 50
1000
0010
0100
0000
0110
0000
0001
0000
,  // measure 51
0000
0000
0100
0000
1000
0100
0010
0000
,  // measure 52
0001
0000
0001
0100
1000
0000
0001
0010
,  // measure 53
0000
1002
1003
0100
,  // measure 54
0010
0100
1000
0000
0010
0000
0100
0001
,  // measure 55
0000
0012
0103
0100
,  // measure 56
0001
0100
0001
0000
0100
0000
0100
1000
,  // measure 57
0000
2010
3001
0010
,  // measure 58
1000
0010
1000
0000
0001
0000
0100
1000
,  // measure 59
0000
0000
1001
0000
0000
0100
0010
0000
,  // measure 60
1100
1000
0110
0010
,  // measure 61
0101
0100
0011
0010
,  // measure 62
0110
0100
1010
1000
,  // measure 63
1001
1100
0110
0010
,  // measure 64
0101
0000
0000
0000
;

//---------------dance-single - ----------------
#NOTES:
     dance-single:
     :
     Easy:
     4:
     0.318260,0.373574,0.194570,0.252940,0.000000,229.000000,209.000000,20.000000,26.000000,0.000000,0.000000,0.318260,0.373574,0.194570,0.252940,0.000000,229.000000,209.000000,20.000000,26.000000,0.000000,0.000000:
// measure 0
0000
0000
0000
0000
,  // measure 1
0000
0000
0000
0000
,  // measure 2
0000
0000
0000
0000
,  // measure 3
0000
0000
0000
0000
,  // measure 4
0001
0100
1000
0100
,  // measure 5
0000
0100
1001
0010
,  // measure 6
0100
0001
0100
0001
,  // measure 7
0000
1000
0101
1000
,  // measure 8
0010
0010
0100
0100
,  // measure 9
0000
1000
0110
0001
,  // measure 10
0010
0001
0010
1000
,  // measure 11
0000
0010
1010
1000
,  // measure 12
0001
0000
0100
0000
0001
0000
0100
0020
,  // measure 13
0000
0000
0001
0030
,  // measure 14
1000
0000
1000
0000
0100
0000
0010
0002
,  // measure 15
0000
0000
0010
0003
,  // measure 16
0001
0100
1000
1000
,  // measure 17
0000
0001
0110
0100
,  // measure 18
0010
0100
1000
0001
,  // measure 19
0000
1000
0110
0010
,  // measure 20
1000
0100
1001
0100
,  // measure 21
1000
0100
1010
0100
,  // measure 22
0001
0100
0001
0100
,  // measure 23
0000
0001
0100
1000
,  // measure 24
0001
0000
0100
0000
0001
0000
0100
2000
,  // measure 25
0000
0000
0010
3000
,  // measure 26
0010
0000
0010
0000
0100
0000
0010
0200
,  // measure 27
0000
0000
0010
0300
,  // measure 28
1000
0000
0100
0000
0001
0000
1000
0020
,  // measure 29
0000
0000
0100
0030
,  // measure 30
0001
0000
1000
0000
0010
0000
0100
0002
,  // measure 31
0000
0000
0100
0003
,  // measure 32
0200
0302
0203
0302
,  // measure 33
0023
0230
0320
0230
,  // measure 34
2300
3002
2003
3002
,  // measure 35
1003
1001
1001
1001
,  // measure 36
0010
0100
0001
0100
,  // measure 37
0000
0100
0011
0001
,  // measure 38
0010
0100
0010
1000
,  // measure 39
0000
0100
1001
0100
,  // measure 40
1000
0010
0010
0001
,  // measure 41
0000
0100
1010
0001
,  // measure 42
0100
1000
0001
1000
,  // measure 43
0001
0000
0200
0000
0010
0010
0310
0000
,  // measure 44
1000
0100
0010
0001
,  // measure 45
0000
0001
0110
1000
,  // measure 46
0001
1000
0100
0010
,  // measure 47
0000
0100
1010
0010
,  // measure 48
0100
0100
0010
0001
,  // measure 49
0000
0010
0101
0100
,  // measure 50
1000
0100
0100
0001
,  // measure 51
0000
0100
1100
0010
,  // measure 52
0001
0000
0001
0000
1000
0000
0001
0020
,  // measure 53
0000
0000
1000
0030
,  // measure 54
1000
0000
1000
0000
0010
0000
0100
0002
,  // measure 55
0000
0000
0100
0003
,  // measure 56
0001
0000
0010
0000
0100
0000
0100
2000
,  // measure 57
0000
0000
0001
3000
,  // measure 58
1000
0000
1000
0000
0001
0000
0100
0010
,  // measure 59
0000
1001
0000
1001
,  // measure 60
2000
0010
0001
3010
,  // measure 61
0200
0010
1000
0310
,  // measure 62
0002
1000
0100
1003
,  // measure 63
0020
0001
0100
0031
,  // measure 64
0100
0000
0000
0000
;
