#TITLE:ORION.78;
#SUBTITLE:(Primeval Rain Mix);
#ARTIST:2Mb vs LexX Fv28;
#TITLETRANSLIT:;
#SUBTITLETRANSLIT:;
#ARTISTTRANSLIT:;
#CREDIT:LexX Fv28;
#BANNER:orion78prm.png;
#BACKGROUND:orion78prm-bg.png;
#LYRICSPATH:;
#CDTITLE:lxfv28-logo.png;
#MUSIC:orion78prm.ogg;
#OFFSET:0.986;
#SAMPLESTART:19.180;
#SAMPLELENGTH:12.000;
#SELECTABLE:YES;
#BPMS:0.000=200.000,214.000=100.000,215.000=200.000;
#STOPS:104.000=0.390
;
#BGCHANGES:;

//---------------dance-single - Heavy----------------
#NOTES:
     dance-single:
     Heavy:
     hard:
     10:
     0.754,0.768,0.866,0.303,0.068:
0000
0000
0000
0000
,
0000
0000
0000
0000
,
0000
0000
0000
0000
1010
0000
0100
0010
,
0001
0000
0001
0000
0011
0000
0100
0010
,
1000
0000
1000
0000
0110
0000
1000
0001
,
0100
0000
0010
0000
1001
0000
0100
0010
,
1000
0000
0001
0000
1100
0000
0001
0100
,
0010
0000
1000
0000
0101
0000
1000
0010
,
0100
0000
0001
0000
0000
0002
0000
0003
,
1000
0100
1000
0001
0100
0001
1010
1000
,
1001
0000
0000
0000
2000
0000
0000
3001
,
1000
0000
0002
0000
0200
0003
0000
1300
,
0001
0000
0020
0000
2000
0030
0000
3010
,
0001
0000
0200
0000
0020
0300
0000
1030
,
0100
0000
0002
0003
2002
0000
3003
0000
,
0220
0330
2002
3003
,
0220
0330
0110
1001
,
1100
0101
1010
0011
,
1100
0000
0101
0000
0001
0000
0001
1000
,
0001
1000
0001
1000
0001
0000
0010
0100
,
0010
0000
1000
0001
1000
0000
0001
0100
,
0001
0100
0001
0100
0001
0000
0010
1000
,
0010
0000
1000
0100
1000
0000
1000
0010
,
1000
0010
1000
0010
1000
0000
0100
0001
,
0100
0000
0010
0100
0010
0000
0010
1000
,
0010
1000
0010
1000
0010
0000
0001
0100
,
0001
0000
1000
0100
0010
0001
0100
0010
,
0001
0100
1000
0000
0001
0001
1001
0000
,
0000
0000
0001
0100
0010
1000
0010
0001
,
1000
0100
0001
0000
0010
0010
0110
0000
,
0000
0000
1000
0010
0100
0001
0100
1000
,
0100
0001
1000
0000
0001
0100
1100
0000
,
0000
0000
0020
0000
0000
0000
1030
0100
,
0001
0010
1000
0000
1000
0010
0011
0000
,
0000
0000
0000
0000
1001
0000
0000
0000
0000
0000
0001
0000
0000
0100
0000
0000
,
0000
0000
0100
0000
0000
1000
0000
0000
0000
0010
0000
1000
0000
0000
0000
0000
,
1000
0000
0000
0100
0000
0000
0000
0000
0010
0000
0000
0100
0000
0000
0000
0000
,
0001
0000
0000
1000
0000
0000
0000
0000
0100
0000
0000
0001
0000
0000
0000
0000
,
0010
0000
0000
0100
0000
0000
0000
0000
1000
0000
0000
0100
0000
0000
0000
0000
,
0010
0000
0000
1000
0000
0000
0000
0000
0100
0000
0000
0010
0000
0000
0000
0000
,
0000
0000
0010
0100
1000
0000
1001
0000
,
0000
0000
0010
0100
0001
0000
1001
0000
,
0000
0000
0001
0100
1000
0000
0110
0000
,
0000
0000
1000
0100
0001
0000
0110
0000
,
1000
0101
0010
1100
,
0001
1010
0100
0011
,
1001
0000
0110
0000
0001
1000
0001
1000
,
0001
0000
1001
0000
0010
0100
0010
0000
,
1010
0000
0001
0100
0001
0100
0001
0000
,
0010
1000
0100
0000
0010
0001
0100
0000
,
0010
0100
1100
0000
0010
0100
0101
0000
,
0010
0100
1100
0000
0010
0100
0101
0000
,
1000
0100
0101
0000
0001
0100
1100
0000
,
0100
0000
0000
0100
0000
0000
1001
0000
0000
0000
0000
0000
0001
0000
1000
0010
0000
0000
0100
0000
0000
0000
0000
0000
,
1001
0000
1000
0000
0010
0001
0010
0001
,
0010
1001
0110
0100
,
1000
0100
1000
0100
1000
0000
0001
0100
,
0001
0000
1100
0100
0011
0000
0000
0000
,
0001
0010
1000
0010
0001
0010
1000
0010
,
0001
0100
1000
0100
0001
0100
1000
0100
,
0001
0101
1000
1010
,
0100
0110
0010
1001
,
1000
0001
1000
0001
1000
0000
1100
0000
,
0010
0100
0010
0100
0010
0000
0011
0000
,
1200
0000
0000
1300
0101
0000
0000
0000
,
0102
0000
0000
0103
1010
0000
0000
0000
,
0120
0000
0000
1030
0101
0000
0000
0000
,
2001
0000
0000
3100
0011
0000
0010
1000
,
1100
0000
0010
0100
0101
0000
1000
0100
,
0110
0000
0001
0100
1100
0000
0010
0100
,
1001
0000
1000
0010
0001
0010
0001
0010
,
2000
0000
0010
0100
0010
3001
0000
0000
,
0001
0100
1000
0100
1000
0100
0001
0000
,
0002
0000
0100
0010
0100
1003
0000
0000
,
2002
0000
0000
0000
,
3003
0000
0010
1000
0200
0000
0001
0000
,
0301
1002
1000
1000
,
1003
0120
0100
0100
,
0130
0010
0010
0010
,
0011
1100
0110
0101
,
0101
1100
0110
1010
,
1010
1001
1100
0101;

//---------------dance-single - Light----------------
#NOTES:
     dance-single:
     Light:
     easy:
     6:
     0.370,0.554,0.428,0.250,0.005: // measure 1
0000
0000
0000
0000
,  // measure 2
0000
0000
0000
0000
,  // measure 3
0000
0000
1010
0000
,  // measure 4
0000
0000
0011
0000
,  // measure 5
0000
0000
0110
0000
,  // measure 6
0000
0000
1001
0000
,  // measure 7
0000
0000
1100
0000
,  // measure 8
0000
0000
0101
0000
,  // measure 9
0000
0000
0001
0000
0000
2000
0000
3000
,  // measure 10
0000
0000
0100
0010
,  // measure 11
1001
0000
0000
0000
2100
0000
0000
3000
,  // measure 12
0000
0000
0000
0000
0012
0000
0000
0003
,  // measure 13
0000
0000
0000
0000
2010
0000
0000
3000
,  // measure 14
0000
0000
0100
0000
0020
0000
0000
0030
,  // measure 15
0000
0000
1001
0000
,  // measure 16
0110
0000
1001
0000
,  // measure 17
0110
0000
0100
0001
,  // measure 18
1000
0001
0100
0001
,  // measure 19
0010
0000
0001
0000
1000
0000
0001
1000
,  // measure 20
0001
0000
0001
0000
,  // measure 21
0001
0000
0000
0000
1000
0000
0001
0100
,  // measure 22
0001
0000
1000
0000
,  // measure 23
1000
0000
0000
0000
0100
0000
1000
0010
,  // measure 24
1000
0000
0001
0000
,  // measure 25
0001
0000
0000
0000
0100
0000
0010
1000
,  // measure 26
0010
0000
1000
0001
,  // measure 27
1100
1000
0000
0100
,  // measure 28
0000
1000
1000
0001
,  // measure 29
0000
0001
0000
0100
,  // measure 30
0000
0001
0001
1000
,  // measure 31
0000
1000
0000
0010
,  // measure 32
0000
1000
0010
0100
,  // measure 33
0000
2000
0000
3000
,  // measure 34
0100
0001
0010
0100
,  // measure 35
0000
1001
0000
0000
,  // measure 36
0000
1000
0000
0000
,  // measure 37
0000
0100
0000
0000
,  // measure 38
0000
0010
0000
0000
,  // measure 39
0001
0000
0000
0100
0000
0000
0000
0000
0000
0000
0000
0000
0000
0000
0000
0000
,  // measure 40
0000
1000
0000
0000
,  // measure 41
0000
0200
0300
1001
,  // measure 42
0000
0020
0030
1001
,  // measure 43
0000
0002
0003
1001
,  // measure 44
0000
2000
3000
1001
,  // measure 45
0000
0101
0000
1100
,  // measure 46
0000
1010
0000
0011
,  // measure 47
0000
0110
0000
0000
,  // measure 48
0000
1001
0000
0000
,  // measure 49
0000
0000
0100
0000
0000
0100
0001
0000
,  // measure 50
0000
0000
0100
0000
0000
0100
1000
0000
,  // measure 51
0000
0000
0010
0000
0000
1000
0100
0000
,  // measure 52
0000
0000
0100
0000
0000
0010
1000
0000
,  // measure 53
0000
0000
0010
0000
0000
0100
0001
0000
,  // measure 54
0000
1000
0001
0000
,  // measure 55
1001
0000
0001
0000
,  // measure 56
1000
0000
0010
1000
0001
0000
0000
0000
,  // measure 57
1001
0000
1000
0000
,  // measure 58
0100
0000
0010
0001
1000
0000
0000
0000
,  // measure 59
0001
1000
0001
1000
,  // measure 60
0001
1000
0001
1000
,  // measure 61
0000
0101
0000
1010
,  // measure 62
0000
0110
0000
1001
,  // measure 63
0020
0000
0030
1000
,  // measure 64
0200
0000
0300
0001
,  // measure 65
0200
0000
0000
0300
0001
0000
0000
0000
,  // measure 66
0002
0000
0000
0003
1000
0000
0000
0000
,  // measure 67
0020
0000
0000
0030
0100
0000
0000
0000
,  // measure 68
2000
0000
0000
3000
0010
0000
0000
0000
,  // measure 69
0110
0000
1001
0000
,  // measure 70
1100
0000
0101
0000
,  // measure 71
2002
0000
3003
0000
1000
0001
1000
0000
,  // measure 72
0002
0010
0013
0000
,  // measure 73
2002
0000
3003
0000
0001
1000
0001
0000
,  // measure 74
2000
0100
3100
0000
,  // measure 75
0220
0000
0000
0000
,  // measure 76
0330
0000
0100
0000
,  // measure 77
0010
0000
1000
1000
,  // measure 78
1000
0000
0010
0000
,  // measure 79
0100
0000
0001
0001
,  // measure 80
0001
0000
1001
0000
,  // measure 81
1001
0000
0010
0010
,  // measure 82
0010
0000
0100
0010
;

//---------------dance-single - Standard----------------
#NOTES:
     dance-single:
     Standard:
     medium:
     7:
     0.502,0.640,0.616,0.282,0.063:
0000
0000
0000
0000
,
0000
0000
0000
0000
,
0000
0000
0000
0000
1010
0000
0000
0001
,
0000
0000
0000
0000
0011
0000
0000
1000
,
0000
0000
0000
0000
0110
0000
0000
0001
,
0000
0000
0000
0000
1001
0000
0000
0010
,
0000
0000
0000
0000
1100
0000
0000
0100
,
0000
0000
0000
0000
0101
0000
0000
0010
,
0000
0000
0001
0000
0000
2000
0000
3000
,
0000
0000
0100
1010
,
1001
0000
0000
0000
2000
0000
0000
3100
,
0000
0000
0000
0000
0002
0000
0000
0103
,
0000
0000
0010
0000
2000
0000
0000
3010
,
0000
0000
0100
0000
0020
0000
0000
0130
,
0000
0000
2002
3003
,
0220
0330
2002
3003
,
0220
0330
0100
0001
,
1000
0001
0100
0001
,
0010
0000
0001
0000
1000
0000
0001
1000
,
0001
0001
0001
0001
,
0010
0000
0010
0000
0010
0000
0001
0100
,
0001
1000
1000
1000
,
0100
0000
0100
0000
0100
0000
1000
0010
,
1000
0001
0001
0001
,
1000
0000
1000
0000
1000
0000
0010
1000
,
0010
0000
0001
0000
1000
0000
0001
0010
,
0100
1000
0010
0100
,
0001
0000
1000
0000
1000
0100
0001
0000
,
0000
0001
0010
0100
,
1000
0000
0001
0000
0001
0100
1000
0000
,
0000
1000
0100
0010
,
0001
0000
1000
0000
0010
1000
0100
0000
,
0000
2000
0000
3000
,
0100
0000
0001
0000
0010
0001
0100
0000
,
0000
0000
0000
0000
1001
0000
0000
0000
0000
0000
0000
0000
0000
0100
0000
0000
,
0000
0000
0000
0000
0000
1000
0000
0000
0000
0000
0000
1000
0000
0000
0000
0000
,
0000
0000
0000
0100
0000
0000
0000
0000
0000
0000
0000
0100
0000
0000
0000
0000
,
0000
0000
0000
1000
0000
0000
0000
0000
0000
0000
0000
0001
0000
0000
0000
0000
,
0000
0000
0000
0100
0000
0000
0000
0000
0000
0000
0000
0100
0000
0000
0000
0000
,
0000
0000
0000
1000
0000
0000
0000
0000
0000
0000
0000
0010
0000
0000
0000
0000
,
0000
0010
0100
1001
,
0000
0010
0100
1001
,
0000
0001
1000
0101
,
0000
1000
0001
1100
,
0000
0101
0000
1100
,
0000
1010
0000
0011
,
0000
0000
0110
0000
0000
1100
0000
0000
,
0000
0000
1001
0000
0000
0011
0000
0000
,
0000
0000
0001
0000
0000
0100
0001
0000
,
0000
0000
0010
0000
0000
0100
1000
0000
,
0000
0000
0010
0000
0000
1000
0101
0000
,
0000
0000
0010
0000
0000
0001
1100
0000
,
0000
0000
0110
0000
0000
0100
1001
0000
,
0000
0000
0000
0000
0000
0000
1001
0000
0000
0000
0000
0000
0001
0000
0010
0100
0000
0000
0100
0000
0000
0000
0000
0000
,
1001
1000
0001
0010
,
0001
0000
0010
1000
0001
0000
0000
0000
,
1001
0001
1000
0010
,
1000
0000
0010
0001
1000
0000
0000
0000
,
0001
1000
0001
1000
,
0001
1000
0001
1000
,
0001
0101
1000
1010
,
0100
0110
0010
1001
,
0020
0000
0030
1100
,
0200
0000
0300
0011
,
0200
0000
0000
0300
0101
0000
0000
0000
,
0002
0000
0000
0003
1010
0000
0000
0000
,
0020
0000
0000
0030
0101
0000
0000
0000
,
2000
0000
0000
3000
0011
0000
0000
0000
,
1100
0000
0101
0000
,
0110
0000
1100
0000
,
1001
0000
1000
0000
0001
0100
0001
0000
,
2000
0010
0010
3010
,
1001
0000
1000
0000
0001
0010
0001
0000
,
0002
0100
0100
0103
,
2002
0000
0000
0000
,
3003
0010
0100
0100
,
0100
0002
1000
1000
,
1003
0020
0100
0100
,
0130
2000
0010
0010
,
3010
1001
1001
1001
,
1001
0110
0110
0110
,
0110
1001
0100
0011
;
