#TITLE:OIIA OIIA;
#SUBTITLE:-Psytrance Remix-;
#ARTIST:KnoBoi85;
#TITLETRANSLIT:;
#SUBTITLETRANSLIT:;
#ARTISTTRANSLIT:;
#GENRE:;
#CREDIT:;
#BANNER:OIIA OIIA -Psytrance Remix-.png;
#BACKGROUND:OIIA OIIA -Psytrance Remix- bg.png;
#LYRICSPATH:;
#CDTITLE:Magna Trick title!.png;
#MUSIC:OIIA OIIA -Psytrance Remix-.mp3;
#OFFSET:0.432833;
#SAMPLESTART:3.220000;
#SAMPLELENGTH:12.000000;
#SELECTABLE:YES;
#BPMS:0.000000=144.574005
,8.000000=114.000000
,12.500000=150.000000
,72.500000=75.000000
,74.000000=600.000000
,78.000000=300.000000
,92.000000=600.000000
,94.000000=300.000000
,108.000000=600.000000
,110.000000=300.000000
,124.000000=600.000000
,126.000000=300.000000
,138.000000=150.000000
,169.000000=600.000000
,173.000000=150.000000
;
#STOPS:12.250000=0.932000,
92.000000=0.200000,
108.000000=0.200000,
124.000000=0.200000,
134.000000=0.800000
;
#BGCHANGES:1.083=OIIA OIIA -Psytrance Remix-.avi=1.000=0=0=1=====,
99999=-nosongbg-=1.000=0=0=0 // don't automatically add -songbackground-
;
#KEYSOUNDS:;
#ATTACKS:;

//---------------dance-single - Magna Trick----------------
#NOTES:
     dance-single:
     :
     Beginner:
     3:
     0.177636,0.261125,0.082897,0.099476,0.000000,75.000000,70.000000,5.000000,6.000000,0.000000,0.000000,0.177636,0.261125,0.082897,0.099476,0.000000,75.000000,70.000000,5.000000,6.000000,0.000000,0.000000:
0000
0000
0000
0000
,
0000
0000
0000
0000
,
0000
0000
0000
0000
,
0000
1000
0000
0000
0000
0000
0000
0000
,
0000
0001
0000
0000
0000
0000
0000
0000
,
0000
1000
0000
0000
0000
0000
0000
0000
,
0000
0001
0000
0000
0000
0000
0000
0000
,
0000
0010
0000
0000
0000
0000
0000
0000
,
0000
0100
0000
0000
0000
0000
0000
0000
,
0000
1000
0000
0000
0000
0000
0000
0000
,
0000
0100
0000
0000
0000
0000
0000
0000
,
0000
0001
0000
0000
0000
0010
0000
0000
,
0000
1000
0000
0000
0000
0100
0000
0000
,
0000
0001
0000
0000
0000
0010
0000
0000
,
0000
1000
0000
0000
0000
0100
0000
0000
,
0000
0001
0000
0000
0000
0100
0000
0000
,
0000
1000
0000
0000
0000
0010
0000
0000
,
0000
0001
0000
0000
0000
0100
0000
0000
,
0000
2000
0000
0000
3002
0000
0000
0000
,
0000
0000
1003
0000
,
0000
0000
0001
0000
,
0000
0000
1000
0000
,
0000
0000
0001
0000
,
1001
0000
0010
0000
,
0000
0000
0100
0000
,
0000
0000
0010
0000
,
0000
0000
0100
0000
,
0110
0000
0010
0000
,
0000
0000
1000
0000
,
0000
0000
0001
0000
,
0000
0000
1000
0000
,
0110
0000
0010
0000
,
0000
0000
1000
0000
,
0000
0000
1001
0020
,
0000
0000
0031
0000
,
1000
1000
0001
0100
,
0000
0010
0010
1000
,
0000
0001
0000
1000
,
1000
0100
0000
0010
,
0000
0001
0001
0000
,
0010
0000
0100
0100
,
0000
1000
0001
1000
,
0001
2000
0000
0000
,
0000
3001
0000
0001
,
0000
0001
2002
0000
,
3003
0000
0000
0000
;

//---------------dance-single - Magna Trick----------------
#NOTES:
     dance-single:
     :
     Easy:
     6:
     0.326850,0.373035,0.082897,0.066317,0.000000,138.000000,133.000000,5.000000,4.000000,0.000000,0.000000,0.326850,0.373035,0.082897,0.066317,0.000000,138.000000,133.000000,5.000000,4.000000,0.000000,0.000000:
0000
0000
0000
0000
,
0000
0000
0000
0000
,
0000
0000
0000
0000
,
0000
1000
0000
0001
0000
1000
0000
0001
,
0000
0100
0000
0010
0000
0100
0000
0010
,
0000
1000
0000
0100
0000
1000
0000
0100
,
0000
0010
0000
0001
0000
0010
0000
0001
,
0000
0100
0000
0010
0000
0100
0000
0010
,
0000
1000
0000
0001
0000
1000
0000
0001
,
0000
0010
0000
1000
0000
0010
0000
1000
,
0000
0001
0000
0100
0000
0001
0000
0100
,
0000
1000
0000
0010
0000
0001
0000
0100
,
0000
1000
0000
1000
0000
0100
0000
0001
,
0000
0010
0000
0010
0000
1000
0000
0100
,
0000
0100
0000
0001
0000
1000
0000
0001
,
0000
1000
0000
0010
0000
0100
0000
0001
,
0000
0001
0000
1000
0000
0100
0000
0010
,
0000
0001
0000
1000
0000
0100
0000
0001
,
0000
0010
0010
0010
0002
0000
0000
0000
,
0000
0000
1003
0000
,
0001
0000
1000
0000
,
0001
0000
1000
0000
,
0001
0000
1000
0000
,
0110
0000
0001
0000
,
1000
0000
0001
0000
,
1000
0000
0001
0000
,
1000
0000
0001
0000
,
0110
0000
0010
0000
,
1000
0000
1000
0000
,
0001
0000
1000
0000
,
1000
0000
0001
0000
,
0011
0000
0100
0000
,
0010
0000
0001
0000
,
1000
0000
1100
0010
,
0000
0010
0001
1000
,
0001
1000
1000
0001
,
0100
0010
0100
0100
,
0001
1000
0100
0100
,
0010
0001
1000
1000
,
0001
0010
0100
0100
,
0001
0001
1000
0001
,
0100
0010
1000
0001
,
1000
2000
0000
0000
,
0000
3001
0001
0001
,
0001
0001
2002
0000
,
3003
0000
0000
0000
;

//---------------dance-single - Magna Trick----------------
#NOTES:
     dance-single:
     :
     Medium:
     11:
     0.532908,0.671464,0.265270,0.099476,0.099476,225.000000,209.000000,16.000000,6.000000,0.000000,0.000000,0.532908,0.671464,0.265270,0.099476,0.099476,225.000000,209.000000,16.000000,6.000000,0.000000,0.000000:
0000
0000
0000
0000
0001
1000
0100
1000
,
0001
0100
0001
0010
0000
0000
0000
0000
,
0000
0000
0000
1000
0000
0001
0000
0100
0000
0001
0000
1000
0000
0100
0000
1000
,
0000
0010
1000
0000
0001
0000
1000
0000
0100
0000
0010
0000
0001
0000
1000
0000
,
1000
0001
0010
0100
0010
0001
0001
0010
,
0100
0100
0010
0001
1000
0100
0001
0100
,
1000
0010
0010
1000
1000
0100
0010
0001
,
0010
0100
0100
1000
1000
0010
0100
0010
,
0100
0001
0001
0010
0010
0001
0100
1000
,
0100
0001
0001
1000
1000
0100
0010
0001
,
1000
0100
0100
0010
0010
0001
1000
0001
,
1000
0010
0100
1000
0100
0001
0010
1100
,
0000
0101
0000
0001
0001
1000
0000
1000
,
1000
0010
0000
1000
0000
0001
0000
0110
,
0000
1001
0000
0100
0000
0010
0010
1000
,
1000
1100
0000
0001
0000
1000
0000
0011
,
0000
1100
0000
1000
1000
0001
0000
0001
,
1000
1000
0000
0010
0000
0100
0000
0001
,
0000
1000
0001
1000
0200
0000
0000
0000
,
0000
0000
1300
0001
,
1000
0001
1000
0001
,
1000
0001
1000
0001
,
1000
0001
1000
0001
,
0110
0000
0010
0100
,
0010
0100
0010
0100
,
0010
0100
0010
0100
,
0010
0100
0010
0100
,
1001
0000
0001
0000
,
1000
0000
1000
0000
,
0001
0000
0100
0000
,
0100
0000
0010
1000
,
1001
0000
0001
0000
,
1000
0000
0100
0000
,
0010
0000
1001
0002
,
0000
2003
3001
0001
,
1000
1000
0010
0100
,
0001
0000
0000
1000
0001
1000
1000
0000
0000
0100
0000
0000
,
0010
0001
1000
1000
,
0001
0100
1010
0010
,
0100
0001
1000
1000
,
0100
0000
0000
0010
0001
0001
1000
0000
0000
1000
0000
0000
,
0100
0010
0011
0011
,
1100
0020
0000
0000
,
0000
1030
1000
1000
,
1000
1000
2002
0000
,
3003
0000
0000
0000
;

//---------------dance-single - Magna Trick----------------
#NOTES:
     dance-single:
     :
     Hard:
     14:
     0.916601,1.156410,0.149214,0.066317,0.895285,387.000000,378.000000,9.000000,4.000000,0.000000,0.000000,0.916601,1.156410,0.149214,0.066317,0.895285,387.000000,378.000000,9.000000,4.000000,0.000000,0.000000:
0000
0000
0000
0000
0000
0000
0000
0000
0001
0000
0010
0001
0010
0000
0100
1000
,
0001
1000
0001
1000
0100
0000
0010
0000
0000
0000
0000
0000
0000
0000
0000
0000
,
0000
0000
0000
1000
0000
0010
1000
0010
0000
0100
0001
1000
0001
1000
0001
0100
,
0000
0010
0100
0000
0001
1000
0001
0000
1000
0000
0100
0000
0010
0000
0001
0000
,
1000
0010
1000
0000
0010
1000
0010
0000
0100
0000
0001
0000
1000
0000
0001
1000
,
0001
1000
0100
0000
0010
0001
0010
0000
0100
0000
1000
0000
0010
0000
1000
0000
,
0100
0010
0100
0000
0010
0100
0010
0000
0100
0000
1000
0000
0001
0000
0010
0000
,
0001
1000
0001
0000
1000
0001
1000
0000
0010
0000
0100
0000
0001
0000
1000
0000
,
0100
0010
0001
0000
1000
0100
0010
0000
0001
0000
0100
0000
1000
0000
0100
0000
,
0001
0010
0100
0000
0010
0100
1000
0000
0100
0000
0001
0000
0100
0000
1000
0000
,
0001
0010
0001
0000
1000
0100
1000
0000
0001
0000
1000
0000
0001
0000
0010
0100
,
0010
0100
0010
0000
0100
1000
0000
1000
0100
0000
0010
0000
0001
0000
0101
0000
,
0000
0000
1010
0000
1000
0000
0001
0000
0100
0001
0000
0001
0100
0000
0010
0100
,
0010
0100
0001
0000
1000
0100
0000
0100
0010
0000
0001
0000
1000
0000
1100
0000
,
0000
0000
0011
0000
0010
0000
0001
1000
0001
0000
0100
0010
1000
0001
1000
0100
,
0010
0000
0001
0000
0010
0001
0000
0001
0010
0000
0100
1000
0100
1000
0001
0000
,
0100
1000
0001
0000
0001
0000
0001
0100
0010
0000
0010
1000
0010
1000
0001
1000
,
0001
0100
0010
0000
0010
1000
0000
1000
0100
0000
0100
0010
0001
1000
0001
0000
,
1000
0000
0000
0000
1000
0000
0001
1000
0000
0001
1000
0100
0010
0100
0010
0100
2000
0000
0000
0000
0000
0000
0000
0000
0000
0000
0000
0000
0000
0000
0000
0000
,
0000
0000
0000
0000
3001
1000
0001
1000
,
0001
1000
0001
1000
0001
1000
0001
1000
,
0001
1000
0001
1000
0001
1000
0001
1000
,
0001
1000
0001
1000
0001
1000
0001
1000
,
0110
0000
0000
0000
0010
0100
0010
0100
,
0010
0100
0010
0100
0010
0100
0010
0100
,
0010
0100
0010
0100
0010
0100
0010
0100
,
0010
0100
0010
0100
0010
0100
0010
0100
,
1001
0000
0000
0000
0001
0010
0000
0010
,
0100
0000
0100
1000
0000
1000
0001
0000
,
0100
0010
1000
0100
0010
0000
0001
0010
,
0000
0010
0001
0100
0000
0010
1000
0000
,
0110
0000
0000
0000
1000
0100
0010
0001
,
1000
0100
0010
0000
0001
0010
0001
0000
,
0001
0010
0100
0000
1001
0000
0001
1000
,
0001
0000
0000
1000
0000
0000
0001
0000
0000
1000
0000
0000
0100
0000
0000
0000
1000
0000
0001
0000
0000
0000
0001
0000
,
1000
0000
0010
1000
0010
1000
0100
0000
0100
0010
0000
0010
,
0001
0000
0001
1000
0001
0100
0010
0000
1000
0001
0000
0001
,
0010
0001
0010
0100
0000
0100
1000
0000
1000
0010
1000
0010
,
1000
0100
1000
0001
1000
0100
0010
0000
0001
0100
0000
0100
,
0010
0000
0010
0100
0001
1000
0001
0000
0010
0001
0000
0001
,
0010
0100
0010
0100
1000
0001
1000
0000
1000
0100
0000
0100
,
0010
0001
0100
0010
0000
1000
0001
0100
0010
1000
0100
1000
,
0010
0100
0001
2000
0000
0000
0000
0000
0000
0000
0000
0000
,
0000
0000
3001
0010
0001
1000
0001
0010
,
0001
1000
0001
0100
2002
0000
0000
0000
,
3003
0000
0000
0000
;

//---------------dance-single - Magna Trick----------------
#NOTES:
     dance-single:
     :
     Challenge:
     17:
     1.077658,1.305624,0.132635,0.066317,1.400955,455.000000,447.000000,8.000000,4.000000,0.000000,0.000000,1.077658,1.305624,0.132635,0.066317,1.400955,455.000000,447.000000,8.000000,4.000000,0.000000,0.000000:
// measure 0
0000
0000
0000
0000
0000
0000
0000
0000
1000
0000
0100
1000
0100
0000
0010
0001
,  // measure 1
0100
0001
1000
0001
0010
0000
0100
0000
0000
0000
0000
0000
0000
0000
0000
0000
,  // measure 2
0000
0000
0000
0010
0000
0100
0001
0100
0000
0010
1000
0100
0001
0100
1000
0001
,  // measure 3
0000
1000
0010
0000
1000
0001
1000
0000
0001
0010
0001
0100
0001
1000
0100
0010
,  // measure 4
0100
0000
0000
0010
0000
0000
0001
0000
0000
0000
0000
0000
1000
0000
0000
0010
0000
0000
1000
0000
0000
0000
0000
0000
0100
0000
0000
0010
0000
0000
0100
0000
0000
1000
0000
0000
0100
0000
0000
0010
0000
0000
0001
0000
0000
1000
0000
0001
,  // measure 5
0000
1000
0000
0001
0000
0000
0010
0000
0000
0000
0000
0000
0100
0000
0000
1000
0000
0000
0010
0000
0000
0000
0000
0000
0001
0000
0000
0010
0000
0000
1000
0000
0000
0010
0000
0000
0100
0000
0000
0010
0000
0000
1000
0000
0000
0000
0000
0000
,  // measure 6
0100
0010
0001
0000
1000
0010
0100
0000
0001
0010
0001
0100
0001
0010
1000
0000
,  // measure 7
0010
0001
1000
0000
0100
0010
0001
0000
1000
0100
1000
0010
1000
0100
0001
0000
,  // measure 8
0100
0000
0000
1000
0000
0000
0010
0000
0000
0000
0000
0000
0001
0000
0000
0010
0000
0000
1000
0000
0000
0000
0000
0000
0100
0000
0000
0010
0000
0000
0001
0000
0000
1000
0000
0000
0100
0000
0000
1000
0000
0000
0010
0000
0000
0100
0000
0001
,  // measure 9
0000
0100
0000
0001
0000
0000
1000
0000
0000
0000
0000
0000
0010
0000
0000
1000
0000
0000
0100
0000
0000
0000
0000
0000
0010
0000
0000
0001
0000
0000
0100
0000
0000
0010
0000
0000
1000
0000
0000
0100
0000
0000
0010
0000
0000
0001
0000
0000
,  // measure 10
1000
0001
1000
0000
0010
0100
0001
0000
0010
0100
1000
0001
0100
0010
1000
0100
,  // measure 11
0100
0100
0010
0001
0100
0001
1000
0100
1000
0001
0010
0001
0100
0010
1000
0100
,  // measure 12
1000
0100
0010
0001
0010
0100
1000
0100
1001
0010
0100
0000
0100
1000
0001
0100
,  // measure 13
0010
0000
1000
0000
0010
0000
1000
0000
0000
0100
0000
0000
1000
0000
0000
0001
0000
0000
0010
0000
0000
0001
0000
0000
0100
0000
0000
0010
0000
0000
1000
0000
0000
0001
0000
0000
1000
0000
0000
0100
0000
0000
0001
0000
0000
0000
0000
0000
,  // measure 14
0001
0100
1000
0000
0100
0000
0010
0010
0001
0000
1000
1000
1000
0001
0001
0001
,  // measure 15
1000
0000
0010
0000
1000
0100
0001
0100
1000
0000
0001
0100
1000
0100
0001
0000
,  // measure 16
0100
0010
1000
0000
1000
0000
1000
0010
0010
0000
0100
1000
0100
0001
0010
0001
,  // measure 17
1000
0000
0010
0000
1000
0000
0010
0000
0000
0000
0000
0000
0100
0000
0000
1000
0000
0000
0001
0000
0000
1000
0000
0000
0100
0000
0000
0001
0000
0000
0010
0000
0000
0001
0000
0000
1000
0000
0000
0100
0000
0000
0010
0000
0000
0001
0000
0000
,  // measure 18
1000
0000
0000
0000
0001
0000
1000
0001
0000
0100
0001
0010
0100
1000
0100
0010
0002
0000
0000
0000
0000
0000
0000
0000
0000
0000
0000
0000
0000
0000
0000
0000
,  // measure 19
0000
0000
0000
0000
1003
0010
1000
0100
,  // measure 20
0001
0100
1000
0010
1000
0100
0001
0100
,  // measure 21
1000
0010
1000
0100
0001
0100
1000
0010
,  // measure 22
1000
0100
0001
0100
1000
0010
1000
0001
,  // measure 23
0101
0000
0000
0000
0001
0010
0001
0100
,  // measure 24
1000
0100
0001
0010
0001
0100
1000
0100
,  // measure 25
0001
0010
0001
0100
1000
0100
0001
0010
,  // measure 26
0001
0100
1000
0100
0001
0010
0001
0100
,  // measure 27
1100
0000
0000
0000
1000
0100
0000
0001
,  // measure 28
0010
0000
1000
0001
0000
0100
0010
0000
,  // measure 29
1000
0100
0001
0010
1000
0000
0001
0100
,  // measure 30
0000
0010
1000
0010
0000
0100
0001
0000
,  // measure 31
0110
0000
0000
0000
0001
0010
0100
1000
,  // measure 32
0001
0010
1001
0000
1000
0100
1001
0000
,  // measure 33
1000
0100
0010
0001
1001
0000
1000
0100
,  // measure 34
0010
0000
0000
0001
0000
0000
1000
0000
0000
0100
0000
0000
0010
0000
0000
0000
0001
0000
1000
0000
0000
0000
1000
0000
,  // measure 35
0001
0000
0100
0010
1000
0100
0010
0000
0010
0100
0000
0100
,  // measure 36
1000
0000
0010
0000
1000
0000
0001
0000
1000
0100
0010
0000
0001
0000
0000
0000
0001
0000
1000
0000
0000
0000
1000
0000
,  // measure 37
0100
0100
0100
0010
0000
0010
0001
0000
0001
0100
1000
0100
,  // measure 38
0001
0000
0010
0000
0100
0000
1000
0000
0001
0000
1000
0010
0100
0000
0000
0000
1000
0000
0010
0000
0000
0000
1000
0000
,  // measure 39
0100
0000
0001
0010
1000
0100
0001
0000
0100
1000
0000
0001
,  // measure 40
0100
0000
0100
0000
0100
0000
0001
0000
1000
0100
0010
0000
0001
0000
0000
0000
0001
0000
0010
0000
0000
0000
0010
0000
,  // measure 41
1000
0001
0010
1000
0000
0001
1000
0010
0001
1000
0100
0001
,  // measure 42
0100
0010
1000
0002
0000
0000
0000
0000
0000
0000
0000
0000
,  // measure 43
0000
0000
0000
0000
1003
0100
0010
0100
1000
0100
0010
0100
1000
0100
0010
0100
,  // measure 44
1000
0100
0010
0100
1000
0100
0010
0100
2002
0000
0000
0000
0000
0000
0000
0000
,  // measure 45
3003
0000
0000
0000
;
