#TITLE:Lord of the Winter Snow;
#SUBTITLE:;
#ARTIST:Luca Turilli;
#TITLETRANSLIT:;
#SUBTITLETRANSLIT:;
#ARTISTTRANSLIT:;
#CREDIT:LexX Fv28;
#BANNER:lordofthewintersnow.png;
#BACKGROUND:lordofthewintersnow-bg.png;
#LYRICSPATH:;
#CDTITLE:lxfv28-logo.png;
#MUSIC:lordofthewintersnow.mp3;
#OFFSET:0.000;
#SAMPLESTART:66.880;
#SAMPLELENGTH:12.000;
#SELECTABLE:YES;
#BPMS:0.000=86.001,32.000=172.001,252.000=150.501,256.000=86.001;
#STOPS:;
#BGCHANGES:;

//---------------dance-single - MANIAC----------------
#NOTES:
     dance-single:
     MANIAC:
     Hard:
     9:
     0.604,0.794,0.722,0.444,0.074:
0000
0000
0000
0000
,
0000
0000
0000
0000
,
1001
0100
0100
0100
,
0010
0010
0010
0010
,
1010
0000
0100
0001
0100
0100
0000
0000
0101
0000
0100
1000
0100
0100
0000
0000
,
0011
0000
0100
0010
1000
1000
0000
0000
1010
0000
0100
0010
0001
0001
0000
0000
,
0110
0000
1000
0100
0001
0001
0000
0000
0110
0000
0001
0100
1000
1000
0000
0000
,
1001
0000
1000
0100
0010
0010
0000
0000
1001
0000
0100
0010
0001
0001
0000
0000
,
1100
0000
0001
0100
0010
0000
1000
0001
,
0100
1000
0020
0030
,
0002
0000
1003
0000
2000
0000
3000
0001
,
0100
0000
1010
0000
1001
0000
0100
0001
,
0100
0000
0010
1000
0010
0000
0001
0100
,
1000
0000
1000
0100
0002
0000
0000
0000
,
1003
0000
0010
0001
0100
0000
0010
1000
,
0100
0000
0001
1000
0120
0000
0030
0000
,
0101
0000
0101
0010
0101
0000
1010
0000
,
2002
0000
0000
3003
0220
0000
0000
0330
2002
0000
0000
3003
1000
0000
0001
0000
,
0110
1001
1100
0011
,
2200
0000
0000
0000
0000
0000
0000
3300
0202
0000
0000
0000
0000
0000
0000
0303
,
2020
0000
0000
3030
0001
0000
1000
0000
0001
0000
0000
0000
0001
0000
1000
0000
,
0001
0010
0020
0030
,
1001
0000
0100
0000
1001
0000
0001
0100
,
0001
0000
0010
0000
0020
0000
1030
0100
,
1000
0000
1000
0000
0001
0000
0001
0010
,
1000
0000
0000
0000
0100
0000
0001
0000
2200
0000
0000
0000
0000
0000
0000
3300
,
0010
0000
0100
0000
0010
0000
0100
0001
,
0001
0100
2002
3003
,
0010
0000
0100
0010
0001
0000
1000
0001
,
0001
0000
0001
0000
1100
0000
0001
0100
,
0010
0000
0010
0001
1000
0000
1000
0010
,
0100
0000
0100
0010
0002
0000
0000
0000
,
1003
0101
1010
1100
,
0011
1100
1001
1100
,
0110
0011
0101
1010
,
1001
0000
0011
0000
0000
1001
0000
1100
,
0000
1001
0101
0110
,
1010
1001
0110
1010
,
0002
1000
1000
1003
,
0001
0100
1000
0100
0001
0100
1000
0000
,
1000
0100
0000
0010
0100
0000
0001
0100
,
0000
1000
0010
0000
0010
0000
0010
0000
,
1000
0100
0000
0010
1000
0000
0100
0001
,
0000
1000
0010
0000
0100
0000
0100
0000
,
1000
1000
0001
0100
0010
0000
2001
0000
,
3001
0001
1000
0100
0010
0000
1002
0000
,
1003
1000
0100
0010
0010
0000
0210
0000
,
0301
0001
0010
0100
0100
0000
1001
0000
,
0001
1000
0010
1000
0001
0000
2200
3300
,
0100
1000
0001
1000
0100
0000
0022
0033
,
0010
0001
0100
0001
0010
0000
2200
3300
,
0001
1000
0100
1000
0001
0000
0202
0303
,
0100
0100
0101
0000
0100
0100
1100
0000
,
0010
0100
1100
0000
0010
0100
0101
0000
,
0100
0100
1001
0000
0010
0010
1001
0000
,
1000
0001
0100
0010
2002
3003
1001
0000
,
0220
0330
1000
0100
0010
0000
0001
0100
,
0010
0000
1000
0001
0200
0000
0000
0000
,
0302
0003
1000
0001
0100
0000
0010
1000
,
0100
0001
1000
0100
0020
0000
0031
0000
,
1000
0010
1000
0100
0010
0001
1000
0010
,
0001
0000
0101
0101
2020
0000
3030
0000
,
0100
0000
0110
1001
0110
0000
1000
0000
,
0002
0003
1000
0100
0010
0001
1000
0000
,
2002
0000
0000
0000
,
0000
0000
0000
0000
,
3003
0000
0000
0000
;

//---------------dance-single - BASIC----------------
#NOTES:
     dance-single:
     BASIC:
     Easy:
     6:
     0.328,0.428,0.565,0.176,0.000:
0000
0000
0000
0000
,
0000
0000
0000
0000
,
1001
0100
0100
0100
,
1001
0010
0010
0010
,
1010
0100
0100
0100
,
0011
0010
0010
0010
,
0110
0001
0001
0001
,
1001
1000
1000
1000
,
1100
0000
0001
0000
,
0100
1000
0020
0030
,
0001
0000
1000
0000
,
0100
1000
0002
0003
,
0100
0000
0010
0000
,
0100
1000
0020
0030
,
1000
0000
0100
0000
,
0001
1000
0200
0300
,
0100
0000
0001
0000
,
1100
0101
1100
0000
,
0010
0000
0100
0000
,
2002
3003
0220
0330
,
1001
0000
1000
0000
,
0100
0010
0200
0300
,
0001
0000
1000
0000
,
0010
1000
0020
0030
,
0100
0000
0001
0000
,
1000
0000
2200
3300
,
0010
0000
0100
0000
,
0001
0100
2002
3003
,
0010
0000
0100
0000
,
0011
1010
0011
0000
,
0010
0000
1000
0000
,
0100
0000
0002
0003
,
1001
0000
1010
0000
,
0011
0000
1001
0000
,
0110
0000
0101
0000
,
1001
0000
0000
0000
0000
0001
0000
0100
,
0000
1001
0000
1010
,
0000
0110
0000
1001
,
0000
1100
0000
1001
,
0000
0110
0000
0000
,
0001
0001
0010
0010
,
1000
1000
0100
0100
,
1000
0000
0010
0000
,
0100
0000
0100
0100
,
1000
0000
0001
0100
0010
0000
0000
0000
,
0001
0000
1000
0100
0010
0000
0000
0000
,
1000
0000
0100
0010
0100
0000
0000
0000
,
0001
0000
0010
0100
0010
0000
0000
0000
,
1001
0000
1100
0000
,
0101
0000
0100
1001
,
0011
0000
1001
0000
,
1100
0000
1001
0101
,
1001
0000
0110
0000
,
1010
0000
0110
0101
,
0110
0000
0010
0000
,
0100
0000
1001
0110
,
1001
0000
0010
0000
,
0001
0100
2000
3000
,
1001
0000
0010
0000
,
1000
0100
0002
0003
,
1100
1010
1100
0000
,
0101
0110
0101
0000
,
0110
1001
0110
0000
,
0001
0000
1000
0000
,
2002
0000
0000
0000
,
0000
0000
0000
0000
,
3003
0000
0000
0000
;

//---------------dance-single - Standard----------------
#NOTES:
     dance-single:
     Standard:
     Medium:
     8:
     0.485,0.489,0.417,0.324,0.000:
0000
0000
0000
0000
,
0000
0000
0000
0000
,
1001
0100
0100
0100
,
1001
0010
0010
0010
,
1010
0000
0010
0001
0010
1000
0100
0000
,
0011
0000
0010
1000
0010
0001
0100
0000
,
0110
0000
0001
1000
0100
0010
1000
0000
,
1001
0000
1000
0001
0100
0010
1000
0000
,
1100
0000
0001
1000
0001
0000
0001
1000
,
0001
0100
0020
0030
,
0001
0000
0100
1000
0100
0000
0100
1000
,
0100
0010
0002
0003
,
0100
0000
0010
0001
0010
0000
0100
1000
,
0100
1000
0020
0030
,
1000
0000
0010
1000
0100
0000
0010
1000
,
0100
0001
0200
0300
,
0100
0000
0010
0001
0100
0000
0010
0001
,
0100
0000
0010
0000
1100
0000
1000
0100
,
0001
0000
0001
0100
1000
0000
1000
0100
,
0022
0033
2200
3300
,
1001
0000
1000
0001
1000
0000
1000
0001
,
1000
0010
0200
0300
,
0001
0000
0001
0010
1000
0000
1000
0010
,
0001
0000
1000
0000
0020
0000
1030
0100
,
1000
0000
0010
0001
1000
0000
0010
0001
,
1000
0000
0100
0001
2200
0000
3300
0000
,
0010
0000
0010
1000
0001
0000
0010
1000
,
0001
0100
2002
3003
,
0010
0000
0010
0100
0010
0000
0010
0100
,
0010
0000
1010
0000
0101
0000
0010
0100
,
0010
0000
0100
0010
0100
0000
1000
0100
,
0001
0000
0001
0100
2000
0000
3000
0000
,
1001
0100
1010
0100
,
0011
0010
1001
0010
,
0110
1000
0101
1000
,
1001
0000
0001
0000
0000
1010
0000
0101
,
0000
1001
0001
1010
,
1000
0110
0010
0011
,
0001
1100
0100
1001
,
1000
0110
0010
1001
,
0002
1003
0020
0031
,
2000
3010
0200
0301
,
2000
3010
0020
0130
,
0200
0301
0020
1030
,
1000
0000
0001
0100
0010
0000
0010
0000
,
0001
0000
1000
0100
0010
0000
0010
0000
,
1000
0000
0100
0010
0100
0000
0100
0000
,
0001
0000
0010
0100
0010
0000
0010
0000
,
1001
0000
0001
1000
0010
0000
1010
0000
,
0100
0000
0001
0100
0010
0000
1010
0000
,
0001
0000
0100
0010
1000
0000
1100
0000
,
0001
0000
1000
0100
0010
0000
0101
0000
,
1000
0000
0001
0010
0100
0000
1100
0000
,
0010
0000
1000
0010
0010
0000
0010
0000
,
1001
0000
0001
0100
0100
0000
0100
0000
,
1001
0000
1000
0001
1000
0000
0100
0000
,
1001
0000
1000
0100
0020
0000
0030
0000
,
0001
0000
0100
0001
2000
0000
3000
0000
,
0002
1003
0010
1000
,
0200
0300
0002
0003
,
1000
0010
0100
0001
1000
0010
0100
0001
,
2000
3000
0100
0010
0002
0000
0003
0000
,
0110
1001
0220
0330
,
2000
3000
0001
0010
,
2002
0000
0000
0000
,
0000
0000
0000
0000
,
3003
0000
0000
0000
;

//---------------dance-single - Copied from MANIAC----------------
#NOTES:
     dance-single:
     Copied from MANIAC:
     Challenge:
     9:
     0.606,0.794,0.731,0.444,0.074: // measure 1
0000
0000
0000
0000
,  // measure 2
0000
0000
0000
0000
,  // measure 3
1001
0100
0100
0100
,  // measure 4
0010
0010
0010
0010
,  // measure 5
1010
0000
0100
0001
0100
0100
0000
0000
0101
0000
0100
1000
0100
0100
0000
0000
,  // measure 6
0011
0000
0100
0010
1000
1000
0000
0000
1010
0000
0100
0010
0001
0001
0000
0000
,  // measure 7
0110
0000
1000
0100
0001
0001
0000
0000
0110
0000
0001
0100
1000
1000
0000
0000
,  // measure 8
1001
0000
1000
0100
0010
0010
0000
0000
1001
0000
0100
0010
0001
0001
0000
0000
,  // measure 9
1100
0000
0001
0100
0010
0000
1000
0001
,  // measure 10
0100
1000
0020
0030
,  // measure 11
0002
0000
1003
0000
2000
0000
3000
0001
,  // measure 12
0100
0000
1010
0000
1001
0000
0100
0001
,  // measure 13
0100
0000
0010
1000
0010
0000
0001
0100
,  // measure 14
1000
0000
1000
0100
0002
0000
0000
0000
,  // measure 15
1003
0000
0010
0001
0100
0000
0010
1000
,  // measure 16
0100
0000
0001
1000
0120
0000
0030
0000
,  // measure 17
0101
0000
0101
0010
0101
0000
1010
0000
,  // measure 18
2002
0000
0000
3003
0220
0000
0000
0330
2002
0000
0000
3003
1000
0000
0001
0000
,  // measure 19
0110
1001
1100
0011
,  // measure 20
2200
0000
0000
0000
0000
0000
0000
3300
0202
0000
0000
0000
0000
0000
0000
0303
,  // measure 21
2020
0000
0000
3030
0001
0000
1000
0000
0001
0000
0000
0000
0001
0000
1000
0000
,  // measure 22
0001
0010
0020
0030
,  // measure 23
1001
0000
0100
0000
1001
0000
0001
0100
,  // measure 24
0001
0000
0010
0000
0020
0000
1030
0100
,  // measure 25
1000
0000
1000
0000
0001
0000
0001
0010
,  // measure 26
1000
0000
0000
0000
0100
0000
0001
0000
2200
0000
0000
0000
0000
0000
0000
3300
,  // measure 27
0010
0000
0100
0000
0010
0000
0100
0001
,  // measure 28
0001
0100
2002
3003
,  // measure 29
0010
0000
0100
0010
0001
0000
1000
0001
,  // measure 30
0001
0000
0001
0000
1100
0000
0001
0100
,  // measure 31
0010
0000
0010
0001
1000
0000
1000
0010
,  // measure 32
0100
0000
0100
0010
0002
0000
0000
0000
,  // measure 33
10M3
M101
101M
11M0
,  // measure 34
0M11
110M
1M01
110M
,  // measure 35
M110
0M11
01M1
1M10
,  // measure 36
10M1
0000
0M11
0000
0000
1M01
0000
11MM
,  // measure 37
0000
1MM1
M1M1
M11M
,  // measure 38
1M1M
1MM1
M11M
1M1M
,  // measure 39
1M02
M100
1M00
M103
,  // measure 40
0001
0100
1000
0100
0001
0100
1000
0000
,  // measure 41
1000
0100
0000
0010
0100
0000
0001
0100
,  // measure 42
0000
1000
0010
0000
0010
0000
0010
0000
,  // measure 43
1000
0100
0000
0010
1000
0000
0100
0001
,  // measure 44
0000
1000
0010
0000
0100
0000
0100
0000
,  // measure 45
1000
1000
0001
0100
0010
0000
2001
0000
,  // measure 46
3001
0001
1000
0100
0010
0000
1002
0000
,  // measure 47
1003
1000
0100
0010
0010
0000
0210
0000
,  // measure 48
0301
0001
0010
0100
0100
0000
1001
0000
,  // measure 49
0001
1000
0010
1000
0001
0000
2200
3300
,  // measure 50
0100
1000
0001
1000
0100
0000
0022
0033
,  // measure 51
0010
0001
0100
0001
0010
0000
2200
3300
,  // measure 52
0001
1000
0100
1000
0001
0000
0202
0303
,  // measure 53
0100
0100
0101
0000
0100
0100
1100
0000
,  // measure 54
0010
0100
1100
0000
0010
0100
0101
0000
,  // measure 55
0100
0100
1001
0000
0010
0010
1001
0000
,  // measure 56
1000
0001
0100
0010
2002
3003
1001
0000
,  // measure 57
0220
0330
1000
0100
0010
0000
0001
0100
,  // measure 58
0010
0000
1000
0001
0200
0000
0000
0000
,  // measure 59
0302
0003
1000
0001
0100
0000
0010
1000
,  // measure 60
0100
0001
1000
0100
0020
0000
0031
0000
,  // measure 61
1000
0010
1000
0100
0010
0001
1000
0010
,  // measure 62
0001
0000
0101
0101
2020
0000
3030
0000
,  // measure 63
0100
0000
0110
1001
0110
0000
1000
0000
,  // measure 64
0002
0003
1000
0100
0010
0001
1000
0000
,  // measure 65
2002
0000
0000
0000
,  // measure 66
0000
0000
0000
0000
,  // measure 67
3003
0000
0000
0000
:
a=note=20.000000,
;
