#VERSION:0.83;
#TITLE:Loco Cantando Chilenos en el Metro;
#SUBTITLE:;
#ARTIST:Rafael BudĂș;
#TITLETRANSLIT:;
#SUBTITLETRANSLIT:;
#ARTISTTRANSLIT:;
#GENRE:;
#ORIGIN:;
#CREDIT:Magna Trick;
#BANNER:LCCEEMBN.png;
#BACKGROUND:LCCEEMBG.png;
#PREVIEWVID:;
#JACKET:;
#CDIMAGE:;
#DISCIMAGE:;
#LYRICSPATH:;
#CDTITLE:Magna Trick title!.png;
#MUSIC:Loco Cantando Chilenos en el Metro.mp3;
#OFFSET:-0.054754;
#SAMPLESTART:19.100000;
#SAMPLELENGTH:14.000000;
#SELECTABLE:YES;
#BPMS:0.000=171.400,
30.000=171.000,
54.000=176.000,
73.000=178.000,
77.500=182.000,
79.000=185.000,
80.000=190.000,
80.500=196.000,
87.500=217.000,
88.500=222.000,
90.500=225.000,
93.500=228.000,
96.500=230.000,
101.000=235.000,
105.000=240.000,
106.500=300.000,
108.500=350.000,
161.000=340.000;
#STOPS:;
#DELAYS:;
#WARPS:;
#TIMESIGNATURES:0.000=4=4;
#TICKCOUNTS:0.000=4;
#COMBOS:0.000=1;
#SPEEDS:0.000=1.000=0.000=0;
#SCROLLS:0.000=1.000;
#FAKES:;
#LABELS:0.000=Song Start;
#BGCHANGES:0.063=Loco Cantando Chilenos en el Metro.mp4=1.000=0=0=1=====,
99999=-nosongbg-=1.000=0=0=0 // don't automatically add -songbackground-
;
#KEYSOUNDS:;
#ATTACKS:
;

//---------------dance-single - ----------------
#NOTEDATA:;
#CHARTNAME:;
#STEPSTYPE:dance-single;
#DESCRIPTION:;
#CHARTSTYLE:;
#DIFFICULTY:Hard;
#METER:14;
#RADARVALUES:0.539790,0.539347,0.152668,0.000000,0.025445,297.000000,285.000000,12.000000,0.000000,0.000000,0.000000,0.000000,0.000000,0.000000,0.539790,0.539347,0.152668,0.000000,0.025445,297.000000,285.000000,12.000000,0.000000,0.000000,0.000000,0.000000,0.000000,0.000000;
#CREDIT:Magna Trick;
#NOTES:
0000
0000
0000
0000
,
0000
0000
0000
0000
,
0000
0000
0000
0000
,
0000
0000
0000
0000
,
0000
0000
0000
0000
,
0000
0000
0000
0001
0000
1000
0000
0001
,
0000
1000
0000
0001
0000
1000
0000
0001
,
0000
1000
0000
0000
0000
0010
0000
0100
,
0000
0001
0000
1000
0000
0010
0000
1000
,
0001
1000
0000
0010
0000
0100
0001
0100
,
0001
0100
0010
0100
0010
0100
0010
1000
,
0010
1000
0000
0001
1000
0010
0000
0100
,
0001
1000
0000
0100
0000
0010
0000
0011
,
0000
0100
0000
0010
0000
1001
0000
1001
,
0000
1001
0000
1001
0000
0110
0000
0110
,
0000
0110
0000
0110
0000
0010
1000
0001
,
1000
0010
0000
1000
0000
0001
0100
0001
,
0100
0010
0100
0010
0100
0001
0000
1000
,
0100
0010
0000
0001
1000
0010
0000
1000
,
0001
0100
0000
0000
0010
1000
0100
0000
,
0010
0001
0000
0100
0000
0110
0000
1000
,
0000
0001
0000
1000
0000
0010
1000
0010
,
1000
0010
0000
1000
0000
0001
0100
0001
,
0100
0001
0000
1000
0000
0001
1000
0000
,
0010
1000
0000
0001
0000
0100
0000
0010
,
0000
1000
0001
1000
0001
0010
0001
1000
,
0001
0100
0010
0000
1000
0010
1000
0001
,
0000
0000
0000
1000
0000
0000
0000
0000
0000
0000
0000
0000
0001
0000
0000
0000
0000
0000
0000
0000
0000
0000
0000
0000
1001
0000
0000
0000
0000
0000
0000
0000
0000
0000
0000
0000
0000
0000
0000
0000
0000
0000
0000
0000
1001
0000
0000
0000
,
0000
0000
0001
1000
0001
1000
0001
1000
,
0001
1000
0001
1000
0001
1000
0001
1000
,
0001
1000
0001
1000
0001
1000
0001
1000
,
0001
1000
0001
1000
0001
1000
0001
1000
,
0001
1000
0001
1000
0001
1000
0001
1000
,
0001
1000
0001
1000
0001
1000
0001
1000
,
0001
1000
0001
1000
0001
1000
0001
1000
,
0001
1000
0001
1000
0001
1000
0001
1000
,
0001
1000
0001
1000
0001
1000
0001
1000
,
0001
1000
0001
1000
0001
1000
0001
1000
,
0001
1000
0001
1000
0001
1000
0001
1000
,
0001
1000
0001
1000
0001
1000
0001
1000
,
0001
1000
0001
1000
0001
1000
0001
1000
,
0001
1000
0001
1000
0001
1000
0001
1000
,
0001
1000
0001
1000
0001
1000
0001
1000
,
0001
1000
0001
1000
0001
1000
0001
1000
,
0001
1000
0001
1000
0001
1000
0001
1000
,
0001
1000
0001
1000
0001
1000
0001
1000
,
0001
1000
0001
1000
0001
1000
0001
1000
,
0001
1000
0000
0000
0000
0000
0000
0001
,
0000
0000
0000
0000
0000
1000
0001
1000
,
0001
0000
0000
1000
0000
0000
0001
0000
0000
1000
0000
0000
0001
0000
0000
1000
0000
0001
0000
1000
0000
0001
0000
0000
;

//---------------dance-single - ----------------
#NOTEDATA:;
#CHARTNAME:;
#STEPSTYPE:dance-single;
#DESCRIPTION:;
#CHARTSTYLE:;
#DIFFICULTY:Challenge;
#METER:18;
#RADARVALUES:0.857848,1.078694,0.241724,0.025445,0.737895,472.000000,453.000000,19.000000,2.000000,0.000000,0.000000,0.000000,0.000000,0.000000,0.857848,1.078694,0.241724,0.025445,0.737895,472.000000,453.000000,19.000000,2.000000,0.000000,0.000000,0.000000,0.000000,0.000000;
#CREDIT:Magna Trick;
#NOTES:
// measure 0
0000
0000
0000
0000
,  // measure 1
0000
0000
0000
0000
,  // measure 2
0000
0000
0000
0000
,  // measure 3
0000
0000
0000
0000
,  // measure 4
0000
0000
0000
0000
0000
0000
0000
0000
0000
0000
1001
0000
0001
1000
0001
1000
,  // measure 5
0001
1000
0001
0000
0000
0000
1001
0000
0000
0000
0001
0000
1000
0100
1000
0100
,  // measure 6
1000
0100
0010
0000
0001
0010
0001
0000
0100
0001
0100
0000
0010
1000
0010
1000
,  // measure 7
0010
1000
0100
0000
0010
0100
0010
0000
0001
1000
0001
0000
1000
0010
1000
0000
,  // measure 8
0001
0100
0001
0000
1000
0100
1000
0000
0001
0010
0001
0000
1000
0001
1000
0010
,  // measure 9
0100
0001
1000
0001
0010
0100
1000
0000
0001
1000
0001
0000
0100
0010
0100
0000
,  // measure 10
0001
0010
0001
0000
1000
0100
1000
0000
0001
0100
0001
0000
1000
0010
1000
0000
,  // measure 11
0100
0010
0100
0000
1000
0001
1000
0010
0100
0010
1000
0000
0100
0010
0001
0000
,  // measure 12
1000
0100
0010
0000
0001
0010
0100
0000
0010
0100
1000
0000
0100
1000
0001
1000
,  // measure 13
0010
0000
0000
1000
0100
0000
0010
0000
0000
0000
0000
0000
0000
0000
0000
0000
0000
0000
0010
0000
0000
0000
0000
0000
0000
0000
0000
0000
0000
0000
1001
0000
0000
0000
0000
0000
0010
0000
0000
0100
0000
0000
1001
0000
0000
0000
0000
0000
,  // measure 14
0100
0010
1001
0000
0010
0100
1001
0000
1000
0001
0110
0000
0001
1000
0110
0000
,  // measure 15
1000
0001
0110
0000
0001
1000
0110
0000
1000
0001
0110
0000
0001
1000
0001
0000
,  // measure 16
1000
0001
1000
0000
0010
0100
0010
0000
0100
0010
0100
0000
0001
1000
0001
0100
,  // measure 17
0010
1000
0001
1000
0010
0100
0002
0000
2003
0000
3100
0000
0010
0001
1000
0000
,  // measure 18
0010
1000
0001
0000
0100
0001
1000
0000
0100
1000
0001
0000
1000
0010
0100
0001
,  // measure 19
1000
0100
0010
0000
0001
0010
0001
0000
0100
0001
0100
0000
1000
0100
1000
0000
,  // measure 20
0010
1000
0010
0000
0001
1000
0001
1000
0001
1000
0110
0000
0000
0000
1010
0000
,  // measure 21
0101
0000
1001
0000
0000
0000
1001
0000
0000
0000
0100
0001
0100
0001
0100
0001
,  // measure 22
0100
0001
0100
0001
0100
0001
0100
0001
1000
0010
1000
0010
1000
0010
1000
0010
,  // measure 23
1000
0010
1000
0010
1000
0010
0100
0001
1000
0001
1000
0010
0100
0001
0010
0100
,  // measure 24
1000
0100
1000
0010
0100
0010
0100
0001
0010
0001
0010
0100
1000
0001
0100
0010
,  // measure 25
1000
0100
1000
0100
0010
0001
0010
0001
1000
0010
0100
0010
1000
0100
0010
0001
,  // measure 26
1000
0010
1000
0100
0010
0001
1000
0010
0100
1000
0100
0001
0010
0000
0100
0000
,  // measure 27
0000
0000
0000
1000
0000
0000
0000
0000
0000
0000
0000
0000
0001
0000
0000
0000
0000
0000
0000
0000
0000
0000
0000
0000
1001
0000
0000
0000
0000
0000
0000
0000
0000
0000
0000
0000
0000
0000
0000
0000
0000
0000
0000
0000
1001
0000
0000
0000
,  // measure 28
0000
0000
1000
0001
1000
0001
1000
0001
,  // measure 29
1000
0001
1000
0001
1000
0001
1000
0001
,  // measure 30
1000
0001
1000
0001
1000
0001
1000
0001
,  // measure 31
1000
0001
1000
0001
1000
0001
1000
0001
,  // measure 32
1000
0001
1000
0001
1000
0001
1000
0001
,  // measure 33
1000
0001
1000
0001
1000
0001
1000
0001
,  // measure 34
1000
0001
1000
0001
1000
0001
1000
0001
,  // measure 35
1000
0001
1000
0001
1000
0001
1000
0001
,  // measure 36
1000
0001
1000
0001
1000
0001
1000
0001
,  // measure 37
1000
0001
1000
0001
1000
0001
1000
0001
,  // measure 38
1000
0001
1000
0001
1000
0001
1000
0001
,  // measure 39
1000
0001
1000
0001
1000
0001
1000
0001
,  // measure 40
1000
0001
1000
0001
1000
0001
1000
0001
,  // measure 41
1000
0001
1000
0001
1000
0001
1000
0001
,  // measure 42
1000
0001
1000
0001
1000
0001
1000
0001
,  // measure 43
1000
0001
1000
0001
1000
0001
1000
0001
,  // measure 44
1000
0001
1000
0001
1000
0001
1000
0001
,  // measure 45
1000
0001
1000
0001
1000
0001
1000
0001
,  // measure 46
1000
0001
1000
0001
1000
0001
1000
0001
,  // measure 47
1000
0001
0000
0000
0000
0000
0000
1001
,  // measure 48
0000
0000
0000
0000
0000
0001
1000
0001
,  // measure 49
1000
0000
0000
0001
0000
0000
1000
0000
0000
0001
0000
0000
1000
0000
0000
0001
0000
1000
0000
0001
0000
1000
0000
0000
;

//---------------dance-single - ----------------
#NOTEDATA:;
#CHARTNAME:;
#STEPSTYPE:dance-single;
#DESCRIPTION:;
#CHARTSTYLE:;
#DIFFICULTY:Medium;
#METER:8;
#RADARVALUES:0.238089,0.571073,0.165390,0.025445,0.019083,131.000000,118.000000,13.000000,2.000000,0.000000,0.000000,0.000000,0.000000,0.000000,0.238089,0.571073,0.165390,0.025445,0.019083,131.000000,118.000000,13.000000,2.000000,0.000000,0.000000,0.000000,0.000000,0.000000;
#CREDIT:Magna Trick;
#NOTES:
0000
0000
0000
0000
,
0000
0000
0000
0000
,
0000
0000
0000
0000
,
0000
0000
0000
0000
,
0000
0000
0000
0000
,
0000
0000
0000
1000
0000
0001
0000
1000
,
0000
0001
0000
1000
0000
0001
0000
1000
,
0000
0001
0000
0000
0000
0100
0000
0010
,
0000
1000
0000
0001
0000
0100
0000
0001
,
1000
0001
0000
0100
0000
0010
1000
0010
,
1000
0010
0000
1000
0001
1000
0000
0001
,
1000
0001
0000
1000
0001
0100
0000
0010
,
1000
0001
0000
0010
0000
0100
0000
0110
,
0000
0010
0000
0100
0000
1001
0000
1001
,
0000
1001
0000
1001
0000
0110
0000
0110
,
0000
0110
0000
0110
0000
0110
0000
0010
,
0000
1000
0000
0001
0000
1000
0010
1000
,
0010
0100
0010
0100
0010
1000
0000
0001
,
0000
0010
0000
0100
0000
1000
0000
0001
,
0000
0010
0000
0000
0100
1000
0100
0000
,
0010
0001
0000
1000
0000
1001
0000
0001
,
0000
1000
0000
0001
0000
0100
0001
0100
,
0001
0100
0000
0001
0000
1000
0010
1000
,
0010
1000
0000
0001
0000
1000
0001
0000
,
0001
1000
0000
0001
0000
0010
0000
0100
,
0000
1000
0001
1000
0001
1000
0001
1000
,
0010
0100
0010
0000
0100
0010
0100
0000
,
0001
0000
0000
0000
0000
0000
1000
0000
0000
0000
0000
1001
,
0000
0002
0000
0000
,
0000
0000
0000
0000
,
0000
0000
0000
0000
,
0000
0000
0000
0000
,
0000
0000
0000
0000
,
0000
0000
0000
0000
,
0000
0000
0000
0000
,
0000
0000
0000
0000
,
0000
0000
0000
0000
,
0000
0000
0000
0000
,
0000
0000
0000
0000
,
0000
0000
0000
0000
,
0000
0000
0000
0000
,
0000
0000
0000
0000
,
0000
0000
0000
0000
,
0000
0000
0000
0000
,
0000
0000
0000
0000
,
0000
0000
0000
0000
,
0000
0000
0000
0000
,
0000
0003
0000
0000
0000
0000
0000
1001
,
0000
0000
0000
0000
0000
0002
0000
0000
,
0000
0000
0000
0000
0000
0000
0000
0000
0000
0000
0000
0000
0003
0000
0000
1000
0000
0001
0000
1000
0000
0001
0000
0000
;

//---------------dance-single - ----------------
#NOTEDATA:;
#CHARTNAME:;
#STEPSTYPE:dance-single;
#DESCRIPTION:;
#CHARTSTYLE:;
#DIFFICULTY:Easy;
#METER:6;
#RADARVALUES:0.223549,0.571073,0.254446,0.025445,0.019083,123.000000,103.000000,20.000000,2.000000,0.000000,0.000000,0.000000,0.000000,0.000000,0.223549,0.571073,0.254446,0.025445,0.019083,123.000000,103.000000,20.000000,2.000000,0.000000,0.000000,0.000000,0.000000,0.000000;
#CREDIT:Magna Trick;
#NOTES:
0000
0000
0000
0000
,
0000
0000
0000
0000
,
0000
0000
0000
0000
,
0000
0000
0000
0000
,
0000
0000
0000
0000
,
0000
0000
0000
1000
0000
1000
0000
1000
,
0000
1000
0000
1000
0000
1000
0000
1000
,
0000
1000
0000
0000
0000
0100
0000
0001
,
0000
0100
0000
0001
0000
0100
0000
0001
,
0000
0100
0000
0001
0000
1000
0000
0010
,
0000
1000
0000
0001
0000
1000
0000
0001
,
0000
1000
0000
0001
0000
0100
0000
0010
,
0000
1000
0000
0001
0000
0100
0000
0110
,
0000
0010
0000
0100
0000
1001
0000
1001
,
0000
1001
0000
1001
0000
0110
0000
0110
,
0000
0110
0000
0110
0000
0110
0000
0110
,
0000
1000
0000
0001
0000
1000
0000
0001
,
0000
1000
0000
0100
0000
0010
0000
0100
,
0000
0010
0000
0100
0000
0001
0000
1000
,
0000
0100
0000
0000
1000
0001
1000
0000
,
0001
1000
0000
0001
0000
1001
0000
0001
,
0000
1000
0000
0001
0000
0101
0000
0101
,
0000
0101
0000
0010
0000
1100
0000
1100
,
0000
1100
0000
0001
0000
1000
0001
0000
,
0001
1000
0000
0001
0000
0010
0000
0100
,
0000
1000
0001
1000
0001
1000
0001
1000
,
0010
0100
0010
0000
0100
0010
0100
0000
,
0001
0000
0000
0000
0000
0000
1000
0000
0000
0000
0000
1001
,
0000
0002
0000
0000
,
0000
0000
0000
0000
,
0000
0000
0000
0000
,
0000
0000
0000
0000
,
0000
0000
0000
0000
,
0000
0000
0000
0000
,
0000
0000
0000
0000
,
0000
0000
0000
0000
,
0000
0000
0000
0000
,
0000
0000
0000
0000
,
0000
0000
0000
0000
,
0000
0000
0000
0000
,
0000
0000
0000
0000
,
0000
0000
0000
0000
,
0000
0000
0000
0000
,
0000
0000
0000
0000
,
0000
0000
0000
0000
,
0000
0000
0000
0000
,
0000
0000
0000
0000
,
0000
0000
0003
0000
0000
0000
0000
1001
,
0000
0000
0000
0000
0000
0002
0000
0000
,
0000
0000
0000
0000
0000
0000
0000
0000
0000
0000
0000
0000
0003
0000
0000
1000
0000
0001
0000
1000
0000
0001
0000
0000
;

//---------------dance-single - ----------------
#NOTEDATA:;
#CHARTNAME:;
#STEPSTYPE:dance-single;
#DESCRIPTION:;
#CHARTSTYLE:;
#DIFFICULTY:Beginner;
#METER:5;
#RADARVALUES:0.159938,0.571073,0.203557,0.076334,0.025445,88.000000,72.000000,16.000000,6.000000,0.000000,0.000000,0.000000,0.000000,0.000000,0.159938,0.571073,0.203557,0.076334,0.025445,88.000000,72.000000,16.000000,6.000000,0.000000,0.000000,0.000000,0.000000,0.000000;
#CREDIT:;
#NOTES:
0000
0000
0000
0000
,
0000
0000
0000
0000
,
0000
0000
0000
0000
,
0000
0000
0000
0000
,
0000
0000
0000
0000
,
0000
0000
0000
0001
0000
0001
0000
0001
,
0000
0001
0000
0001
0000
0001
0000
0001
,
0000
0001
0000
0000
0000
1000
0000
1000
,
0000
1000
0000
1000
0000
2000
0000
0000
,
0000
0000
0000
3000
0000
0001
0000
1000
,
0000
0001
0000
1000
0000
0001
0000
1000
,
0000
0002
0000
0003
0000
1000
0000
1000
,
0000
0001
0000
0001
0000
1000
0000
0000
,
0000
0100
0000
0010
0000
1001
0000
1001
,
0000
1001
0000
1001
0000
1001
0000
1001
,
0000
1001
0000
1001
0000
1001
0000
1001
,
0000
0001
0000
1000
0000
0200
0000
0300
,
0000
0000
0000
0000
0000
0010
0000
0000
,
0000
0100
0000
0000
0000
1000
0000
0001
,
0000
0010
0000
0000
0000
1000
0000
0000
,
0000
0001
0000
1000
0000
0100
0000
0010
,
0000
0100
0000
1000
0000
1010
0000
0000
,
0000
1010
0000
0000
0000
0011
0000
0000
,
0000
0011
0000
0000
0000
0001
0000
0000
,
0000
0001
0000
1000
0000
2000
0000
3000
,
0000
0000
1000
0000
0000
0001
0000
0000
,
0100
0000
0000
0000
0100
0000
0000
0000
0000
0010
0000
0000
,
0000
0000
0000
0000
0000
0000
0000
0000
0000
1000
0000
0000
0000
0000
0000
0000
0000
0000
0000
0000
0000
0001
0000
0000
0000
0000
0000
0000
0000
0000
0000
0000
0000
0000
0000
0000
0000
0000
0000
0000
0000
0000
0000
0000
1001
0000
0000
0000
,
0000
2000
0000
0000
,
0000
0000
0000
0000
,
0000
0000
0000
0000
,
0000
0000
0000
0000
,
0000
0000
0000
0000
,
0000
0000
0000
0000
,
0000
0000
0000
0000
,
0000
0000
0000
0000
,
0000
0000
0000
0000
,
0000
0000
0000
0000
,
0000
0000
0000
0000
,
0000
0000
0000
0000
,
0000
0000
0000
0000
,
0000
0000
0000
0000
,
0000
0000
0000
0000
,
0000
0000
0000
0000
,
0000
0000
0000
0000
,
0000
0000
0000
0000
,
0000
0000
0000
0000
,
3000
0000
0000
0000
0000
0000
0000
1001
,
0000
0000
0000
0000
0000
2000
0000
0000
,
0000
0000
0000
0000
3000
0000
0000
0001
;
