#VERSION:0.83;
#TITLE:Koko Soko;
#SUBTITLE:Panik Mix;
#ARTIST:SMiLE.dk;
#TITLETRANSLIT:;
#SUBTITLETRANSLIT:;
#ARTISTTRANSLIT:;
#GENRE:;
#ORIGIN:;
#CREDIT:;
#BANNER:SMiLE.dk - Koko Soko (Panik Mix).png;
#BACKGROUND:SMiLE.dk - Koko Soko (Panik Mix) bg.png;
#PREVIEWVID:;
#JACKET:;
#CDIMAGE:;
#DISCIMAGE:;
#LYRICSPATH:;
#CDTITLE:Magna Trick title!.png;
#MUSIC:SMiLE.dk - Koko Soko (Panik Mix).ogg;
#OFFSET:0.627840;
#SAMPLESTART:33.893002;
#SAMPLELENGTH:11.293000;
#SELECTABLE:YES;
#BPMS:0.000=170.020,
80.000=85.010,
81.000=170.020,
161.000=85.010,
177.000=170.020;
#STOPS:;
#DELAYS:;
#WARPS:;
#TIMESIGNATURES:0.000=4=4;
#TICKCOUNTS:0.000=4;
#COMBOS:0.000=1;
#SPEEDS:0.000=1.000=0.000=0;
#SCROLLS:0.000=1.000;
#FAKES:;
#LABELS:0.000=Song Start;
#BGCHANGES:;
#KEYSOUNDS:;
#ATTACKS:
;

//---------------dance-single - Magna Trick----------------
#NOTEDATA:;
#CHARTNAME:Magna Trick;
#STEPSTYPE:dance-single;
#DESCRIPTION:Magna Trick;
#CHARTSTYLE:;
#DIFFICULTY:Beginner;
#METER:5;
#RADARVALUES:0.229219,0.359840,0.017161,0.008580,0.000000,187.000000,185.000000,2.000000,1.000000,0.000000,0.000000,0.000000,0.000000,0.000000,0.229219,0.359840,0.017161,0.008580,0.000000,187.000000,185.000000,2.000000,1.000000,0.000000,0.000000,0.000000,0.000000,0.000000;
#CREDIT:Magna Trick;
#NOTES:
0000
0000
1000
0000
,
0000
0000
0001
0000
,
0000
0000
1000
0000
,
0000
0000
0010
0100
,
0010
0000
0001
0000
,
0000
0000
1000
0000
,
0000
0000
0100
0000
,
0010
0000
0100
0010
,
0100
0110
1000
0000
,
0001
0000
1000
0000
,
1000
0000
0001
0000
,
1000
0000
0001
0001
,
0001
0000
0100
0000
,
0010
0000
0100
0100
,
0100
0000
0001
0000
,
0010
0000
0100
1000
,
0100
0000
0001
0000
,
1000
0000
0010
0000
,
0010
0000
1000
0000
,
0001
0000
0100
0000
,
0200
1300
0000
0001
,
0000
1000
0000
1000
,
0000
0010
0000
0100
,
0000
0001
0001
0001
,
0000
1000
0001
1000
,
0000
0001
1000
0001
,
0000
0010
0000
0010
,
0000
0100
0100
0100
,
0000
1000
0000
0001
,
0000
1000
0001
1000
,
0000
0001
0000
1000
,
0000
0001
1000
0001
,
0000
0100
0000
0100
,
0000
0010
0000
0010
,
0000
0100
0000
0100
,
0000
0010
0010
0010
,
0000
0100
0000
0100
,
0000
0001
0000
0001
,
0000
1000
0000
1000
,
0000
0001
0001
0001
,
1000
0000
0100
0000
0010
0000
0100
0100
,
1000
0000
0001
0000
1000
0000
0010
0010
,
0100
0000
0001
0000
1000
0000
0001
0001
,
1000
0000
0100
0000
0100
0000
1000
0001
,
1000
0010
0000
1000
,
0000
0001
0001
1000
,
0000
0100
0000
0010
,
0000
0001
1000
0001
,
0000
0100
0000
1000
,
0000
0010
0001
1000
,
0000
0010
0000
0010
,
0000
1000
0100
0001
,
0000
1000
0000
1000
,
0000
0001
0000
0001
,
0000
1000
0000
1000
,
0000
0001
0001
0001
,
0000
0100
0000
0100
,
0000
0010
0000
0010
,
0000
0100
0000
0100
,
0000
0010
0010
0010
,
0000
1000
0000
1000
,
0000
0001
0000
0001
,
0000
1000
0000
1000
,
0000
0001
0010
0100
,
0000
1000
0000
0001
,
0000
1000
0010
0100
,
0000
0001
0000
1000
,
0000
0100
0010
0100
,
0000
0001
0000
1000
,
0000
0001
0000
1000
,
0000
0010
0000
0010
,
0000
0100
0000
0100
,
0000
0001
0000
0001
,
0000
1000
0000
1000
,
0000
0100
0000
0100
,
0000
0000
0010
0000
0000
0001
0000
0000
,
1000
0110
0000
0000
;

//---------------dance-single - Magna Trick----------------
#NOTEDATA:;
#CHARTNAME:Magna Trick;
#STEPSTYPE:dance-single;
#DESCRIPTION:Magna Trick;
#CHARTSTYLE:;
#DIFFICULTY:Easy;
#METER:7;
#RADARVALUES:0.324829,0.365739,0.085804,0.051482,0.000000,265.000000,255.000000,10.000000,6.000000,0.000000,0.000000,0.000000,0.000000,0.000000,0.324829,0.365739,0.085804,0.051482,0.000000,265.000000,255.000000,10.000000,6.000000,0.000000,0.000000,0.000000,0.000000,0.000000;
#CREDIT:Magna Trick;
#NOTES:
0000
0000
0101
0000
,
0001
0001
1000
0000
,
0100
0000
1000
1000
,
0010
0000
0100
0010
,
0100
0000
1100
0000
,
1000
0000
0001
0001
,
1000
0000
0010
1000
,
0100
0010
0010
0100
,
0010
0110
0001
0001
,
1000
1000
0001
0001
,
0100
0000
1000
1000
,
0001
0001
1000
1000
,
0010
0000
0010
1000
,
0100
0000
0010
0001
,
0100
0000
1000
0001
,
0100
0000
0001
1000
,
0100
0000
1000
0000
,
0001
0000
0100
0100
,
0100
0000
0001
0000
,
1000
0000
0010
0010
,
0020
0031
0001
0100
,
0100
0010
0010
2000
,
3000
0100
0100
0010
,
0010
0001
0001
0100
,
1001
0001
1000
0001
,
0200
0301
0001
2000
,
3001
0010
0010
0100
,
0100
0000
0010
0000
0001
0000
1000
0001
,
1000
0001
0001
0010
,
0010
0100
0100
1000
,
1100
0010
0010
0100
,
0100
0000
1000
0000
1000
0000
0001
0100
,
0100
0010
1000
0010
,
1000
0100
1000
0100
,
0000
0010
0001
0010
,
0001
0100
0001
0100
,
0000
0010
1000
0010
,
1000
0100
1000
0100
,
0000
0010
0001
0010
,
0001
0100
0001
0100
,
0000
0000
0010
0000
0100
0000
0010
0010
,
0001
0000
1000
0000
0001
0000
0100
0100
,
0010
0000
1000
0000
0001
0000
1000
1000
,
0001
0000
0010
0000
0010
0000
0001
1000
,
0001
0100
0100
0001
,
0001
1000
1000
0001
,
0000
0010
0010
0100
,
0100
1000
1000
0001
,
0000
1000
1000
0010
,
0010
0100
0100
0001
,
0000
0100
0100
0010
,
0010
1000
1000
0100
,
0000
0010
0001
0010
,
0001
0100
0001
0100
,
0000
0010
1000
0010
,
1000
0100
1000
0100
,
0000
0010
0001
0010
,
0001
0100
0001
0100
,
0000
0010
1000
0010
,
1000
0100
1000
0100
,
0000
0001
0000
0001
,
0000
1000
1000
1000
,
0000
0001
0000
0001
,
0000
1000
0100
0010
,
0000
0001
1000
1000
,
0010
0100
0010
1000
,
0000
1000
0100
1000
,
0010
1000
0100
0010
,
0000
1000
0000
0001
,
0000
1100
0000
0001
,
0000
0100
0000
0100
,
0000
0011
0000
0010
,
0000
1000
0000
1000
,
0000
0101
0000
0001
,
0000
0011
0000
0010
,
0000
0000
0100
0000
0000
1000
0000
0000
,
0001
0220
0000
0000
,
0000
0000
0330
0000
;

//---------------dance-single - Magna Trick----------------
#NOTEDATA:;
#CHARTNAME:Magna Trick;
#STEPSTYPE:dance-single;
#DESCRIPTION:Magna Trick;
#CHARTSTYLE:;
#DIFFICULTY:Medium;
#METER:11;
#RADARVALUES:0.463340,0.498734,0.180188,0.042902,0.008580,378.000000,357.000000,21.000000,5.000000,0.000000,0.000000,0.000000,0.000000,0.000000,0.463340,0.498734,0.180188,0.042902,0.008580,378.000000,357.000000,21.000000,5.000000,0.000000,0.000000,0.000000,0.000000,0.000000;
#CREDIT:Magna Trick;
#NOTES:
0000
0000
1010
1000
,
0100
1000
0100
0000
0010
0000
0001
0000
,
0100
0000
0001
0001
,
0100
0010
0100
0000
0010
0000
1000
0000
,
0100
0000
0011
0001
,
1000
0010
1000
0000
0001
0000
0010
0000
,
0100
0000
1100
1000
,
0001
1000
0001
0000
0100
0000
0010
1000
,
0100
0110
1000
1000
,
0001
0100
0001
0000
1000
0010
1000
0000
,
0010
0000
0001
0001
,
1000
0100
1000
0000
0001
0010
0001
0000
,
0100
0000
0010
1000
0100
0000
0010
0000
,
0001
1000
0001
0000
0100
0000
0010
0000
,
1000
0000
0010
1000
0001
0000
1000
0000
,
0100
1000
0100
0000
1000
0001
1000
0001
,
0010
0000
0001
0001
,
1000
0000
1000
0000
0010
0000
0010
1000
,
0010
0000
1000
0100
,
0010
0000
0001
0000
0100
0000
0100
0010
,
0200
1300
1000
0100
,
0100
0000
0001
0000
0001
0010
0200
0000
,
0300
0010
0010
0100
,
0100
0000
1000
0000
1000
0100
0010
0000
,
1001
0000
1000
0100
1000
0000
0001
0100
,
0002
0000
1003
0100
1000
0100
0010
0000
,
0001
0000
0100
0001
0100
0000
0001
0100
,
0001
0000
0100
0010
0100
0010
0100
0001
,
0001
0000
1000
0010
1000
0000
0001
0010
,
0001
0000
0010
0100
0010
0100
1000
0000
,
1100
0000
0010
0100
0010
0000
0001
1000
,
0001
0000
1000
0001
1000
0001
1000
0010
,
0010
0000
0000
0100
0000
0100
0000
0001
,
0000
0001
0000
1000
0000
1000
0000
0100
,
0000
0100
0000
0010
0000
0010
0000
0001
,
0000
0001
0000
0100
0000
0100
0000
0010
,
0010
0010
0000
1000
0000
0100
0000
0010
,
0000
0001
0000
0100
0000
0010
0000
1000
,
0000
0100
0000
0010
0000
0001
0000
0100
,
0000
0010
0000
1000
0000
0001
0000
0010
,
0100
0000
0000
0000
0001
0000
0000
1000
0010
0000
0000
0000
0100
0000
0100
0000
,
0001
0000
0001
0010
0100
1000
0010
0010
,
0100
0000
0000
0000
0001
0000
0000
1000
0001
0000
0000
0000
0100
0000
0010
0000
,
1000
0001
0100
0100
0001
0001
1000
0001
,
1000
0000
0010
1000
0010
0000
1000
0010
,
1000
0000
0001
0100
0001
0100
0010
0000
,
0000
0000
0100
0001
0100
0000
0001
0100
,
0001
0000
1000
0010
1000
0010
0100
0000
,
0000
0000
0001
1000
0001
0000
1000
0001
,
1000
0000
0010
0100
0010
0100
0001
0000
,
0000
0000
0010
0100
0010
0000
0100
0010
,
0100
0000
1000
0001
1000
0001
0100
0000
,
0000
0000
0000
0010
0000
0010
0000
1000
,
0000
1000
0000
0001
0000
0001
0000
0010
,
0000
0010
0000
0100
0000
0100
0000
1000
,
0000
1000
0000
0010
0000
0010
0000
0100
,
0100
0100
0000
0001
0000
0010
0000
0100
,
0000
1000
0000
0010
0000
0100
0000
0001
,
0000
0010
0000
0100
0000
1000
0000
0010
,
0000
0100
0000
0001
0000
1000
0000
0100
,
0010
0000
0001
0000
1000
0000
0100
1000
,
0100
0000
1000
0010
1000
0010
0100
0000
,
0000
0000
1000
0000
0010
0000
0100
0001
,
0100
0000
0001
0010
0001
0010
0100
0000
,
1000
0100
0010
0000
0001
0000
0100
0010
,
0100
0000
0010
1000
0010
1000
0001
0000
,
0010
0001
1000
0000
0010
0000
1000
0010
,
1000
0000
0001
0100
0001
0100
0010
0000
,
0000
1100
0000
1000
,
0000
0011
0000
1010
,
0000
0110
0000
0010
,
0000
0000
1100
0000
0000
0110
0000
0000
,
0011
1001
0000
0001
,
0000
1010
0000
1100
,
0000
1001
0000
0100
,
0000
0000
0011
0000
0000
0011
0000
0000
,
1100
0220
0000
0000
,
0000
0000
0330
0000
;

//---------------dance-single - Magna Trick----------------
#NOTEDATA:;
#CHARTNAME:Magna Trick;
#STEPSTYPE:dance-single;
#DESCRIPTION:Magna Trick;
#CHARTSTYLE:;
#DIFFICULTY:Hard;
#METER:13;
#RADARVALUES:0.658237,0.831224,0.283152,0.068643,0.090094,537.000000,504.000000,33.000000,8.000000,0.000000,0.000000,0.000000,0.000000,0.000000,0.658237,0.831224,0.283152,0.068643,0.090094,537.000000,504.000000,33.000000,8.000000,0.000000,0.000000,0.000000,0.000000,0.000000;
#CREDIT:Magna Trick;
#NOTES:
0000
0000
0000
0000
0101
0100
0001
0000
,
0010
0001
0010
0000
0100
1000
0100
1000
,
0010
0000
0000
0000
1000
0100
1000
0000
,
0010
0100
0010
0000
0100
0010
1000
0001
,
0010
0000
0000
0000
1100
0100
1000
0000
,
0001
0100
0001
0000
1000
0010
0100
0001
,
0010
0000
0000
0000
0011
0010
0001
0000
,
1010
0010
1000
0000
0110
0100
0001
0010
,
0100
0010
0110
0000
0001
0000
0001
0000
,
1000
0010
1000
0001
0000
0100
0001
0010
,
0100
0000
0010
0100
1000
0000
1000
0000
,
0001
0010
0001
1000
0000
0100
1000
0010
,
0100
0000
0001
0010
0100
0000
1000
0000
,
0010
1000
0100
0010
0000
0001
0100
0010
,
1000
0000
0100
1000
1001
0000
0001
0000
,
0010
0001
0010
0100
0000
1000
0001
1000
,
0100
0000
0010
0000
1001
0001
1000
0001
,
0100
0000
0001
0010
0100
1000
0100
0001
,
0100
0000
1000
0000
0001
0010
1000
0010
,
0001
0100
0010
1000
0100
0001
1000
0010
,
0002
0000
1003
0010
1000
0010
0100
0001
,
0100
0010
1000
0100
1000
0001
0020
0000
,
0030
0100
0100
1000
0100
0010
0001
0001
,
0100
0010
1000
1000
0001
0001
0100
0010
,
1001
0000
0001
0010
0001
0100
1000
0010
,
2000
0000
3100
0001
0100
0001
0010
0000
,
1010
0000
1000
0010
0001
0100
0010
0100
,
0001
0001
0010
1000
0010
0001
0100
1100
,
1100
0000
0001
0100
0001
0100
1000
0100
,
1000
0001
0010
1000
0100
0010
0001
0000
,
0011
0000
0100
0010
0100
0001
1000
0100
,
0001
1000
0010
0001
0100
1000
0001
1001
,
1001
0000
0100
0010
0100
0010
1000
0100
,
1000
0100
0010
0001
0100
0001
0010
0100
,
0000
0010
0001
0010
0001
0100
0010
0100
,
0010
1000
0100
1000
0010
1000
0100
0010
,
0010
0010
0001
1000
0001
1000
0100
0001
,
0100
0001
1000
0010
0001
1000
0100
0001
,
0000
0001
0100
0001
0100
1000
0010
1000
,
0010
0100
0001
1000
0100
0010
0001
0100
,
0110
0000
0000
0000
1000
0000
0000
0001
0100
0001
0000
0100
0010
0100
0010
1000
,
0000
0100
0100
0010
0001
0000
0100
0000
0010
1000
0010
1000
0100
0010
0100
0001
,
0100
0000
2000
0000
3010
0000
0000
0100
0010
0100
0000
0010
0010
0100
0001
1000
,
0000
0100
1000
0100
0010
0000
0001
0000
1000
0010
0100
1000
0000
0100
0001
0000
,
1001
0000
1000
0100
1000
0010
0001
0100
,
0002
0000
0013
1000
0010
1000
0100
0000
,
0010
0000
0001
0100
1000
0010
0100
0010
,
1000
1000
0100
0001
0100
1000
0010
0000
,
0001
0000
1000
0010
1000
0010
0001
0010
,
0001
1000
0100
0001
0010
0100
1000
0000
,
0100
0000
0010
0100
0010
1000
0001
0010
,
1000
0001
0100
1000
0010
0001
1000
0000
,
2000
0000
3010
0100
0010
0100
0001
0010
,
0001
0010
0100
1000
0010
1000
0100
0010
,
0000
0100
1000
0100
1000
0010
0100
0010
,
0100
0001
0010
0001
0100
0001
0010
0100
,
0100
0100
1000
0001
1000
0001
0010
1000
,
0010
1000
0001
0100
1000
0001
0010
1000
,
0000
1000
0010
1000
0010
0001
0100
0001
,
0100
0010
1000
0001
0010
0100
1000
0010
,
0110
0000
1000
0000
0001
0000
0010
0001
,
0010
0100
0000
1000
0001
0100
0010
0000
,
1000
0100
0001
0000
0100
0000
1000
0010
,
0100
1000
0000
0100
1000
0100
0001
0000
,
0001
0010
0100
0000
1000
0000
0010
0100
,
0001
0010
0000
1000
0010
0001
0010
0000
,
0100
1000
0001
0000
0100
0000
0001
0100
,
1000
0100
0000
0001
0010
0100
1000
0000
,
0000
0011
1000
0001
,
0010
1100
0010
0101
,
1000
0110
0001
0100
,
0010
0000
0011
0000
0000
0110
0000
0000
,
1100
1001
0010
1000
,
0100
0101
1000
0011
,
0100
1001
0100
0010
,
0001
0000
1100
0000
0000
1100
0000
0000
,
0011
0220
0000
0000
,
0000
0000
0330
0000
;

//---------------dance-single - Magna Trick----------------
#NOTEDATA:;
#CHARTNAME:Magna Trick;
#STEPSTYPE:dance-single;
#DESCRIPTION:Magna Trick;
#CHARTSTYLE:;
#DIFFICULTY:Challenge;
#METER:15;
#RADARVALUES:0.707268,0.831224,0.291733,0.068643,0.214509,577.000000,543.000000,34.000000,8.000000,0.000000,0.000000,0.000000,0.000000,0.000000,0.707268,0.831224,0.291733,0.068643,0.214509,577.000000,543.000000,34.000000,8.000000,0.000000,0.000000,0.000000,0.000000,0.000000;
#CREDIT:Magna Trick;
#NOTES:
0000
0000
0000
0000
1010
0010
1000
0001
,
0100
0010
1000
0000
0100
0010
0100
1000
,
0010
0000
0000
0000
0100
0010
0100
1000
,
0001
0010
1000
0100
0010
1000
0001
0100
,
1000
0000
0000
0000
0011
0010
0001
0100
,
1000
0010
1000
0100
0101
0001
0010
1000
,
0010
0000
0000
0000
1100
0100
1000
0010
,
0101
0000
0100
0000
0001
0000
1000
0000
0100
0010
0100
0010
0001
1000
0001
1000
,
0010
0000
0000
0100
0000
0000
0001
0000
1000
0000
0001
0000
1000
0000
0000
0000
0000
0000
0000
0000
0000
0000
0000
0000
1000
0000
0000
0000
0000
0000
0000
0000
0000
0000
0000
0000
1000
0000
0000
0000
0000
0000
0000
0000
0000
0000
0000
0000
,
0001
0100
0001
1000
0000
0010
1000
0100
,
0010
0000
0000
0000
0100
0000
0010
0001
1000
0000
0000
0000
0001
0000
0000
0000
,
1000
0100
1000
0001
0000
0010
0001
0100
,
0010
0000
0000
0000
1000
0100
0010
0001
0100
0000
0000
0000
0001
0000
0000
0000
,
0100
0001
0010
0100
0000
1000
0010
0100
,
0001
0000
0000
0000
0010
0000
0001
0100
1001
0000
0000
0000
1000
0000
0000
0000
,
0100
1000
0100
0010
0000
0001
1000
0001
,
0010
0000
0100
0010
0100
0000
0010
0100
0010
0000
0001
0000
0001
0000
1000
0000
,
0010
0000
1000
0100
0010
0001
0010
1000
,
0010
0000
0001
0000
1000
0100
0001
0100
,
1000
0010
0100
0001
0010
1000
0001
0100
,
2000
0000
3001
0100
0001
0100
0010
1000
,
0010
0100
0001
0010
0001
1000
0200
0000
,
0300
0010
0010
0001
0010
0100
1000
1000
,
0010
0000
0100
0000
0001
1000
0001
1000
0010
0100
0010
0100
0001
0010
0100
1000
,
0010
0000
1000
0100
1000
0010
0001
0100
,
0002
0000
0013
1000
0010
1000
0100
0000
,
0101
0000
0001
0100
1000
0010
0100
0010
,
1000
1000
0100
0001
0100
1000
0010
0011
,
0011
0000
1000
0010
1000
0010
0001
0010
,
0001
1000
0100
0001
0010
0100
1000
0000
,
1100
0000
0010
0100
0010
1000
0001
0010
,
1000
0000
0001
0000
0100
1000
0010
0100
0001
1000
0100
0010
0001
0100
1001
0000
,
1001
0000
0010
0100
0010
0100
0001
0010
,
0001
0010
0100
1000
0010
1000
0100
0010
,
0000
0100
1000
0100
1000
0010
0100
0010
,
0100
0001
0010
0001
0100
0001
0010
0100
,
0100
0100
1000
0001
1000
0001
0010
1000
,
0010
1000
0001
0100
1000
0001
0010
1000
,
0000
1000
0010
1000
0010
0001
0100
0001
,
0100
0010
1000
0001
0010
0100
1000
0010
,
0110
0000
0000
0000
0001
0000
0000
1000
0010
1000
0000
0010
0100
0010
0100
0001
,
0000
0010
0010
0100
1000
0000
0010
0000
0100
0001
0100
0001
0010
0100
0010
1000
,
0010
0000
0002
0000
0103
0000
0000
0010
0100
0010
0000
0100
0100
0010
1000
0001
,
0000
0010
0001
0010
0100
0000
1000
0000
0001
0100
0010
0001
0000
0010
1000
0000
,
1001
0000
0001
0010
0001
0100
1000
0010
,
2000
0000
3100
0001
0100
0001
0010
0000
,
0100
0000
1000
0010
0001
0100
0010
0100
,
0001
0001
0010
1000
0010
0001
0100
0000
,
1000
0000
0001
0100
0001
0100
1000
0100
,
1000
0001
0010
1000
0100
0010
0001
0000
,
0010
0000
0100
0010
0100
0001
1000
0100
,
0001
0000
1000
0000
0010
0000
0001
0000
0100
0000
1000
0000
0001
0000
0100
0010
,
2000
0000
3100
0010
0100
0010
1000
0100
,
1000
0100
0010
0001
0100
0001
0010
0100
,
0000
0010
0001
0010
0001
0100
0010
0100
,
0010
1000
0100
1000
0010
1000
0100
0010
,
0010
0010
0001
1000
0001
1000
0100
0001
,
0100
0001
1000
0010
0001
1000
0100
0001
,
0000
0001
0100
0001
0100
1000
0010
1000
,
0010
0100
0001
1000
0100
0010
0001
0100
,
0110
0000
0101
0000
1100
0000
0100
1000
,
0100
0010
0000
0001
1000
0010
0100
0000
,
0001
0000
0010
0100
1000
0000
0000
0000
0010
0000
0000
0000
0001
0000
0100
0000
,
0010
0001
0000
0010
0001
0010
1000
0000
,
1000
0010
0100
0001
0010
0000
0000
0000
0001
0000
0000
0000
0100
0000
0010
0000
,
1000
0100
0000
0001
0100
1000
0100
0000
,
0010
0000
0001
0100
1000
0000
0000
0000
0010
0000
0000
0000
1000
0000
0010
0000
,
0001
0010
0000
1000
0100
0010
0001
0000
,
0000
1100
0001
1000
,
0100
0011
0100
1010
,
0001
0110
1000
1010
,
0100
0000
1100
0000
0000
0110
0000
0000
,
0011
1001
0100
0001
,
0010
1010
0001
1100
,
0010
1001
0010
0101
,
1000
0000
0011
0000
0000
0011
0000
0000
,
1100
0220
0000
0000
,
0000
0000
0330
0000
;
