#TITLE:Kick Back Salsa;
#SUBTITLE:Chainsawman Opening Salsa ver;
#ARTIST:Tricker & TVoys;
#TITLETRANSLIT:;
#SUBTITLETRANSLIT:;
#ARTISTTRANSLIT:;
#GENRE:;
#CREDIT:;
#BANNER:Kick Back Salsa.png;
#BACKGROUND:Kick Back Salsa bg.png;
#LYRICSPATH:;
#CDTITLE:Magna Trick title!.png;
#MUSIC:Kick Back Salsa.mp3;
#OFFSET:-0.173917;
#SAMPLESTART:29.522854;
#SAMPLELENGTH:12.000000;
#SELECTABLE:YES;
#BPMS:0.000000=204.041000
,202.000000=408.080994
,206.000000=102.019997
,208.000000=204.041000
,279.000000=102.019997
,283.000000=204.041000
;
#STOPS:202.000000=0.221000,
203.500000=0.147000,
204.500000=0.147000,
205.500000=0.074000
;
#BGCHANGES:;
#KEYSOUNDS:;
#ATTACKS:;

//---------------dance-single - Magna Trick----------------
#NOTES:
     dance-single:
     Magna Trick:
     Beginner:
     4:
     0.322367,0.555911,0.058109,0.145273,0.000000,233.000000,227.000000,6.000000,15.000000,0.000000,0.000000,0.322367,0.555911,0.058109,0.145273,0.000000,233.000000,227.000000,6.000000,15.000000,0.000000,0.000000:
0000
0000
1001
0000
,
0001
0000
0000
0000
1000
0000
0000
1000
,
0000
0000
0000
0001
,
0001
0000
0000
0000
0100
0000
0000
0010
,
0000
0000
0100
0000
,
1000
0000
0000
0000
0001
0000
0000
0001
,
0000
0001
0000
1000
,
1000
0000
0000
0000
0010
0000
0000
0010
,
0000
1000
0000
0000
1001
0000
0000
0000
,
0001
0000
0000
0001
0000
0000
0000
1000
,
0000
0001
0000
0000
1000
0000
0000
0000
,
0010
0000
0000
0100
0000
0001
0000
1000
,
0000
0001
0000
0000
1000
0000
0000
0000
,
0001
0000
0000
0010
0000
0001
0000
0010
,
0000
0010
0000
0000
0100
0000
0000
0000
,
0100
0000
0000
0010
0000
0010
0000
0010
,
0000
0010
0000
0000
0001
0000
0000
0000
,
1000
0000
0001
0001
,
1000
0000
0010
0000
,
0100
0000
0010
0010
,
0100
0000
0010
0000
,
1000
0000
0100
0100
,
1000
0000
0010
0000
,
0001
0000
0010
0010
,
0100
0000
0000
0001
,
0100
0000
0000
0001
0000
0000
0000
1000
,
0000
0001
0000
1000
,
1000
0000
0000
0000
0001
0000
0000
0010
,
0000
0100
0000
0000
1000
0000
0000
0000
,
0100
0000
0000
0000
0010
0000
0000
0010
,
0000
0001
1000
1000
,
0010
0000
0000
0001
0000
1000
0000
0001
,
0000
1000
0000
0000
0001
0000
0000
0000
,
1000
0000
0010
0100
,
0010
0000
0100
0000
,
0001
0000
0000
1000
0000
1000
0000
0001
,
0000
0000
1001
0000
,
0010
0100
0010
0000
,
0200
0000
0000
0302
,
0000
0000
0000
0000
1003
0000
0000
1000
,
0000
0010
0100
0000
,
0001
0200
0000
0300
,
0001
0010
0100
1000
,
1000
0200
0300
0000
,
0010
0001
0100
0010
,
0100
0200
0000
0300
,
0000
0010
1000
0001
,
1000
0001
0002
0000
,
0023
0000
0230
0000
,
2300
0000
3002
0000
,
2003
0000
0000
0000
0001
0000
0000
0001
,
0000
0001
0000
0001
3002
0000
0000
0103
,
0010
0000
1000
0000
,
0001
0000
0000
0001
0000
0000
1000
0000
,
0001
0010
0010
0000
,
0100
0000
0000
1000
0000
0000
1000
0000
,
0010
0100
0000
0100
,
0010
0000
0001
0020
,
0000
0000
0130
0000
0100
0000
0000
1000
,
0000
0001
0000
1000
0000
0001
0000
0000
,
0010
0100
0100
0000
,
0010
0000
0000
0001
0000
0000
1000
0000
,
1000
0010
0100
0000
,
0100
0000
0100
0000
0000
0100
0000
0000
,
0000
0001
0001
1000
,
1000
0010
0100
0001
,
0000
0001
0001
1000
,
1000
0001
1000
0100
,
0000
0001
0001
1000
,
1000
0001
1000
0110
,
0100
0001
0100
0001
0001
1000
0100
0000
,
0110
0000
0001
0000
,
0100
0010
1000
0000
,
0100
0000
1000
0000
,
0001
0010
0100
0001
,
1000
0000
0001
0000
,
1000
0100
0010
0000
,
0001
0000
0000
0000
0100
0000
0000
0010
,
0000
1000
0000
0001
0000
1000
0000
0000
,
0001
0001
1000
1000
,
0001
0000
0000
1000
0000
0000
0001
0000
,
2002
0000
0000
0000
,
3003
0000
0000
0000
;

//---------------dance-single - Magna Trick----------------
#NOTES:
     dance-single:
     Magna Trick:
     Easy:
     5:
     0.347271,0.595619,0.116218,0.145273,0.000000,251.000000,239.000000,12.000000,15.000000,0.000000,0.000000,0.347271,0.595619,0.116218,0.145273,0.000000,251.000000,239.000000,12.000000,15.000000,0.000000,0.000000:
0000
0000
1001
1000
,
1000
0000
0000
0000
0001
0000
0000
0001
,
0000
0001
0000
1000
,
1000
0000
0000
0000
0010
0000
0000
0100
,
0000
0010
0010
0100
,
0001
0000
0000
0000
1000
0000
0000
1000
,
0000
1000
0000
0001
,
0001
0000
0000
0000
0100
0000
0000
0100
,
0000
0001
0000
0000
1001
0000
0001
0000
,
1000
0000
0000
1000
0000
0001
0000
0100
,
0000
1000
0000
0010
0100
0000
0010
0000
,
0100
0000
0000
0010
0000
1000
0000
0001
,
0000
1000
0000
0000
0001
0000
0000
0000
,
1000
0000
0000
0100
0000
1000
0000
0100
,
0000
0100
0000
0000
0010
0000
0000
0000
,
0010
0000
0000
0100
0000
0000
0000
0010
,
0000
0001
0000
0000
1100
0000
0000
0000
,
0001
0000
1000
1000
,
0001
0000
0100
0000
,
0010
0000
0100
0100
,
0010
0000
0100
0000
,
0001
0000
0010
0010
,
0001
0000
0100
0000
,
1000
0000
0100
0100
,
0010
0000
0000
1000
,
0010
0000
0000
1000
0000
0000
0000
0001
,
0000
1000
0000
0001
,
0001
0000
0000
1000
0000
0000
0000
0100
,
0000
0010
0000
0010
0001
0000
0000
0000
,
0010
0000
0000
0000
0100
0000
0000
0100
,
0000
1000
0001
0001
,
0100
0000
0000
1000
0000
0001
0000
1000
,
0000
0001
0000
0000
1000
0000
0000
0000
,
0001
0000
0100
0010
,
0100
0000
0010
0000
,
1000
0000
0000
0001
0000
0001
0000
1000
,
0000
0000
1001
0000
,
0100
0010
0110
0000
,
0020
0000
0000
2030
,
0000
0000
0000
0000
3001
0000
0000
0001
,
0000
0100
0110
0000
,
1000
0020
0000
0030
,
1000
0100
0010
0001
,
0001
0020
0030
0000
,
0100
1000
0010
0100
,
0010
0020
0000
0030
,
0000
0100
0001
1000
,
0001
1000
2000
0000
,
3200
0000
0320
0000
,
0032
0000
2003
0000
,
3002
0000
0000
0000
1000
0000
0000
1000
,
0000
1000
0000
1000
2003
0000
0000
3010
,
0100
0000
0001
0000
,
1000
0000
0000
1000
0000
0000
0001
0000
,
1000
0100
0100
0000
,
0010
0000
0000
0001
0000
0000
0001
0000
,
0100
0010
1000
0010
,
0100
0001
1000
0200
,
0000
0000
0310
0000
0010
0000
0000
0001
,
0000
1000
0000
0001
0000
1000
0000
0000
,
0100
0010
0010
0000
,
0100
0000
0000
1000
0000
0000
0001
0000
,
0001
0100
0010
1000
,
0010
0000
0010
0000
0100
0010
0000
0000
,
0000
1000
1000
0001
,
0001
0100
0010
1010
,
0000
1000
1000
0001
,
0001
1000
0001
1001
,
0000
1000
1000
0001
,
0001
1000
0001
0110
,
0010
1000
0010
1000
1000
0001
1001
0000
,
0110
0000
1000
0000
,
0010
0100
0001
0000
,
0010
0000
0001
0000
,
1000
0100
0010
1000
,
0001
0000
1000
0000
,
0001
0010
0100
0000
,
1000
0000
0000
0000
0010
0000
0000
0100
,
0000
0001
0000
1000
0000
0001
0000
0000
,
1000
1000
0001
0001
,
1000
0000
0000
0001
0000
0000
1000
0000
,
2002
0000
0000
0000
,
3003
0000
0000
0000
;

//---------------dance-single - Magna Trick----------------
#NOTES:
     dance-single:
     Magna Trick:
     Medium:
     9:
     0.475941,0.635327,0.251806,0.164643,0.000000,344.000000,318.000000,26.000000,17.000000,0.000000,0.000000,0.475941,0.635327,0.251806,0.164643,0.000000,344.000000,318.000000,26.000000,17.000000,0.000000,0.000000:
0000
0000
1001
0001
,
0001
0000
0000
0000
1000
0000
0000
1000
,
0000
0000
1000
0001
0000
0000
0001
0000
,
0001
0000
0000
0000
0100
0000
0000
0010
,
0100
0010
0100
0000
0010
0000
0100
0000
,
0100
0000
0000
0000
0001
0000
0000
0001
,
0000
0001
0000
1000
,
1000
0000
0000
0000
0010
1000
0001
0010
,
0000
0100
0000
0000
1001
0000
1000
0000
,
0001
0000
0000
0001
0000
1000
0000
0010
,
0000
0001
0000
0100
0010
0000
0100
0000
,
0010
0000
0000
0100
0000
0001
0100
0001
,
0000
0100
0000
0010
1000
0000
0001
0000
,
0001
0000
0000
0010
0000
0001
0000
0010
,
0000
0010
0000
0100
0010
0000
0100
0000
,
0100
0000
0000
1000
0000
0001
0000
0100
,
0000
0010
0000
1000
1001
0000
0001
1000
,
0001
0000
1000
0000
0001
0000
0001
0100
,
1000
0100
0000
0010
0100
0000
0001
0000
,
0100
0000
0010
0000
1000
0010
1000
0010
,
0000
1000
0000
0100
0010
0000
0001
0010
,
0001
0000
0010
0000
0100
0010
0100
0000
,
1000
0000
0000
0100
0010
0000
0000
0001
,
0010
0000
0000
0100
0010
0100
0010
0001
,
0000
1000
0000
0000
1001
0000
0001
0000
,
0100
0010
0000
1000
0000
0100
0010
0100
,
0000
0010
0001
0010
0000
0100
0000
1000
,
0000
0001
0000
0001
0000
0100
0000
0101
,
0000
1100
0000
0110
0010
0000
0100
0000
,
0100
0000
0000
0000
0010
0000
0000
0010
,
0000
0001
1000
1000
,
0010
0000
0000
0011
0000
1010
0000
0101
,
0000
1100
0000
0000
1001
0001
0000
0000
,
1000
1000
0000
0000
0010
0000
0100
0000
,
0010
0000
0100
0010
,
1000
0000
0000
1000
0000
0001
1000
0001
,
0000
0001
1001
0000
,
0010
0100
0110
0010
,
0200
1000
0000
0302
,
0000
0000
0000
0000
1003
0000
0000
1000
,
0000
0010
0110
0100
,
0001
0200
0000
0300
,
0001
0010
0100
1000
,
1000
0200
0300
0000
,
0010
0001
0100
0010
,
0100
0010
0200
0000
0000
0000
0300
0000
,
0000
0010
1000
0001
,
1000
0001
0002
0000
,
0023
0000
0230
0000
,
2300
0000
3002
0000
,
2003
0000
0000
0000
0001
0000
0000
0001
,
0000
0001
0000
0001
3002
0000
0000
0103
,
0010
1000
1000
0000
,
0001
0000
0000
0001
0000
0000
1000
0000
,
0001
0000
0010
0000
0010
0001
0000
0100
,
0000
0010
0000
1000
0001
1000
0001
0000
,
0010
0100
0001
0100
,
0010
1000
0001
0020
,
0000
0000
0130
1000
0100
1000
0000
1100
,
0000
0101
0000
1100
0000
0101
0001
0000
,
1001
0000
0100
0000
0100
0010
0000
0010
,
0000
2000
0000
3000
0001
0000
1000
0000
,
1000
0000
0010
0000
0100
0001
0000
0100
,
0000
0001
0100
0000
0010
0200
0000
0300
,
0000
0001
0001
1000
,
1000
0000
0010
0000
0100
0001
0101
0000
,
0000
0001
0001
1000
,
1000
0000
0001
0000
1000
0001
1001
0000
,
0000
0001
0001
1000
,
1000
0000
0001
0000
1000
0001
0110
0000
,
0100
0001
0100
0001
0001
1000
1001
0000
,
0110
0000
0000
0010
0001
0000
0000
0100
,
0010
0100
0010
0000
1000
0000
0000
0100
,
1000
0000
0000
0100
0010
0000
0000
0001
,
0010
0001
0010
0100
0000
1000
0000
0100
,
1000
0000
0000
0001
1000
0000
0000
0100
,
0010
0100
0010
0000
0001
0000
0000
0001
,
0100
0000
0000
0010
0100
0000
0000
0010
,
1000
0001
1000
0001
0000
1000
0000
0000
,
0001
0001
1000
1000
,
0001
0000
0000
1000
0000
0000
0001
0000
,
2002
0000
0000
0000
,
3003
0000
0000
0000
;

//---------------dance-single - Magna Trick----------------
#NOTES:
     dance-single:
     Magna Trick:
     Hard:
     11:
     0.596310,0.675034,0.280861,0.222752,0.000000,431.000000,402.000000,29.000000,23.000000,0.000000,0.000000,0.596310,0.675034,0.280861,0.222752,0.000000,431.000000,402.000000,29.000000,23.000000,0.000000,0.000000:
0000
0000
1001
1000
,
1000
0000
0000
0000
0001
0000
0000
0001
,
0000
0000
0001
1000
0000
0000
1000
0000
,
1000
0000
0000
0000
0010
0000
0000
0100
,
0010
0100
0010
0000
0100
0000
0010
0000
,
0010
0000
0000
0000
1000
0000
0000
1000
,
0100
0001
0100
1000
0000
0000
0001
0000
,
0001
0000
0000
0000
0100
0001
1000
0200
,
0000
0320
0000
0030
1001
0000
0001
0000
,
1000
0100
1000
0001
0000
0001
0000
0100
,
0000
1000
0100
0001
0010
0000
0010
0000
,
0100
0010
0001
0010
0000
1000
0010
0001
,
0000
0010
0000
0100
1000
0000
1000
0000
,
0100
0010
0100
0010
0000
0001
0000
0110
,
0000
1000
0100
0001
0010
0000
1000
0000
,
0010
0100
0010
0001
0000
1010
0000
0110
,
0000
0101
0000
0001
1001
0000
1000
0100
,
0010
0000
0001
0100
0010
1000
0100
0010
,
0001
0010
0000
0100
0010
0000
1000
0010
,
0001
0000
0100
0000
0001
0100
0001
0100
,
0000
0001
0000
0010
0100
0000
1000
0100
,
1000
0000
0100
0000
0010
0100
0010
0000
,
0001
0000
0001
0010
0100
0000
1000
0100
,
0010
0000
0001
0010
0100
0010
0100
1000
,
0000
0200
0000
0300
1001
0000
1000
0000
,
0010
0100
0001
0100
0000
0010
0100
0010
,
0000
0100
1000
0100
0000
0010
1000
0001
,
0000
1000
0000
1000
0000
0010
0000
1010
,
0000
0011
0000
0110
0100
0000
0010
0000
,
1000
0010
0100
0001
0000
0001
1000
0100
,
0000
0100
1000
0001
0000
0001
0010
0100
,
0000
1000
0000
1100
0000
0101
0000
1010
,
0000
0011
0000
0001
1001
1000
0000
1000
,
1001
0001
0000
0001
1000
0100
1000
0001
,
0100
0010
0000
0100
0010
1000
0100
0010
,
0001
1000
0000
0001
0000
1000
0010
0100
,
0001
0001
1000
0001
0100
0000
0010
0000
,
0100
0001
0010
0001
0100
0000
0100
0000
,
0020
0000
0001
0000
0000
0000
1030
0100
,
0010
0001
0100
0010
0000
0010
1000
0001
,
0000
0000
0100
0010
0110
0000
1000
0010
,
1000
0010
0200
0001
0000
0301
0000
1000
,
0100
1000
0100
0000
0010
0000
0001
0000
,
0001
0000
0020
0000
0030
0100
0000
1000
,
0010
1000
0010
0010
1000
0000
0100
0000
,
0010
0100
0020
0000
0000
0001
0030
0001
,
1000
0001
0100
0100
0020
0000
0032
0000
,
2003
3200
2300
0000
,
3200
0000
0320
0000
,
0032
0000
2003
0000
,
3002
0000
0000
0000
1000
0000
0000
1000
,
0000
1000
0000
1000
2003
0000
0000
3010
,
0100
0000
0001
0000
0001
1000
0000
0100
,
0000
0010
0000
0001
1000
0000
0001
0000
,
1000
0000
0100
0000
0100
1000
0000
0010
,
0000
0100
0000
0001
1000
0001
1000
0010
,
0100
0001
1000
0000
1000
0010
0100
0001
,
0100
0000
0010
1000
0001
0000
0200
0000
,
0000
0000
0310
1000
0010
1000
0000
0011
,
0000
1010
0000
0011
0000
1010
1000
0000
,
1001
0000
0010
0000
0010
0100
0000
0100
,
0000
0002
0000
1003
0100
0000
0010
0000
,
0001
0000
0100
0000
0010
1000
0000
0010
,
0000
1000
0010
0000
0100
0020
0000
0030
,
0000
1000
1000
0001
,
0001
0000
0100
0000
0010
1000
1010
0000
,
0000
1000
1000
0001
,
0001
0000
1000
0000
0001
1000
1001
0000
,
0000
1000
1000
0001
,
0001
0000
1000
0000
0001
1000
0110
0000
,
0010
1000
0010
1000
1000
0001
1001
0000
,
0110
0000
0000
0100
1000
0000
0000
0010
,
0100
0010
0100
0001
0001
0001
0000
0010
,
0001
0000
0000
0010
0100
0000
0000
1000
,
0100
1000
0100
0010
0000
0001
0000
0010
,
0001
0000
0000
1000
0001
0000
0000
0010
,
0100
0010
0100
0000
1000
0000
0000
1000
,
0010
0000
0000
0100
0010
0000
0000
0100
,
0001
1000
0001
1000
0000
0001
0000
0000
,
1000
0100
1000
0001
0100
0001
1000
0100
,
1000
0001
0100
0001
0000
1000
0100
0000
,
2002
0000
0000
0000
,
3003
0000
0000
0000
;

//---------------dance-single - Magna Trick----------------
#NOTES:
     dance-single:
     Magna Trick:
     Challenge:
     13:
     0.737433,0.794158,0.532667,0.154958,0.029055,533.000000,478.000000,55.000000,16.000000,0.000000,0.000000,0.737433,0.794158,0.532667,0.154958,0.029055,533.000000,478.000000,55.000000,16.000000,0.000000,0.000000:
0000
0000
0000
0000
1001
0000
0001
0010
,
0001
0100
0010
0100
0001
1000
0100
1000
,
0001
0010
0100
1000
0000
0100
1000
0100
,
1000
0001
0100
0001
0010
0100
1000
0010
,
0100
0010
0100
0000
0020
0000
0130
0001
,
0100
0010
1000
0100
1000
0010
0100
0001
,
0010
1000
0010
0001
1001
0000
1000
0010
,
1000
0010
0100
0001
0100
0101
0101
0102
,
0000
0203
0000
0300
1001
0000
1000
0000
,
0001
0010
0001
1000
0000
1000
0000
0110
,
0000
0011
0010
1000
0100
0000
0100
0000
,
0010
0100
1000
0100
0000
0001
0100
1000
,
0000
1100
0000
0110
0001
0000
0001
0000
,
0010
0100
0010
0100
0000
1000
0000
0110
,
0000
0011
0010
1000
0100
0000
0001
0000
,
0100
0010
0100
1100
0000
0101
0000
0110
,
0000
1010
0000
1000
1001
0000
0001
0010
,
0100
0000
1000
0010
0100
0001
0010
0100
,
1000
0100
0000
1010
0101
0000
0001
0100
,
1000
0000
0010
0100
1000
0010
1000
0010
,
0000
1000
0000
0110
0011
0000
0001
0010
,
0001
0000
0010
0001
0100
0010
0100
0000
,
1000
0000
1000
0100
0010
0000
0001
0010
,
0100
0000
1000
0100
0010
0100
0010
0001
,
0000
0020
0000
0030
1001
0000
0001
0000
,
0100
0010
1000
0010
0000
0100
0010
0100
,
0000
0010
0001
0010
0000
0100
0001
1000
,
0000
0001
0000
0001
0000
0100
0000
0101
,
0000
1100
0000
0110
0010
0000
0100
0000
,
0001
0100
0010
1000
0000
1000
0001
0010
,
0000
0010
0001
1000
0000
1000
0100
0010
,
0000
0001
0000
0011
0000
1010
0000
0101
,
0000
1100
0000
1000
1001
0001
0000
0001
,
1001
1000
0000
1000
0001
0010
0001
1000
,
0010
0100
0000
0010
0100
0001
0010
0100
,
1000
0001
0000
1001
0000
0101
0100
0010
,
1000
1000
0001
1000
0020
0000
0130
0000
,
0010
1000
0100
1000
0010
0000
0010
0000
,
0200
0000
1000
0000
0000
0000
0301
0010
,
0100
0000
1000
0000
0010
0000
0100
0000
0000
0000
0100
0000
0001
0000
1000
0001
,
1000
0001
0010
0100
0110
0000
0001
0100
,
0001
0100
0020
1000
0000
1030
0000
0001
,
0010
0001
0010
0100
1000
0000
1000
0000
,
0010
1000
0200
0010
0300
0010
0000
0001
,
0100
0001
0100
0100
0001
0000
0010
0000
,
0100
0010
0200
0000
0000
1000
0300
1000
,
0001
1000
0010
0010
0100
0001
0100
0001
,
1000
0100
1000
0100
0010
0001
0010
0001
,
1000
0010
1000
0010
0100
0001
1000
0100
,
1000
0001
0100
0001
1000
0100
0010
0001
,
2000
0001
0001
0001
0001
0000
0000
0001
,
0000
0000
0000
0000
0001
0000
0000
0000
0000
0000
0000
0000
0001
0000
0000
0000
3001
0000
0100
0000
1000
0001
1000
0000
0001
0000
0010
0000
0100
0000
0000
0000
,
0110
0000
1000
0000
1000
0001
0000
0010
,
0000
0100
0000
0110
0011
0000
1000
0000
,
0001
0000
0010
0000
0010
0001
0000
0100
,
0000
0010
0000
1000
0001
1000
0001
0100
,
0010
1000
0001
0000
0001
0100
0010
1000
,
0010
0000
0100
0001
2000
0000
3020
0000
,
0000
0000
0130
0001
0100
0001
0000
1100
,
0000
0101
0000
1100
0000
0101
0011
0000
,
1001
0000
0101
0000
0100
0010
0000
0010
,
0000
2000
0000
3001
0010
0000
1100
0000
,
1000
0000
0010
0000
0100
0001
0000
1000
,
0000
0001
0100
0000
0010
0200
0001
0301
,
0001
0000
0001
0010
0100
0000
1000
0010
,
0100
0000
0010
1000
0100
0001
0101
0000
,
1000
0000
0001
0100
0010
0000
1000
0010
,
0100
0000
0001
0010
0100
1000
1001
0000
,
0100
0000
0010
0100
0001
0000
0010
0100
,
1000
0000
0001
0000
1000
0001
0110
0000
,
0100
0000
0001
0000
0100
0000
0001
0000
0001
0000
1000
0010
1001
0000
0000
0000
,
0110
0000
0000
0010
0001
0000
0000
0100
,
0010
0100
0010
1000
1000
1000
0000
1100
,
0011
0000
0000
0100
0010
0000
0000
0001
,
0010
0001
0010
0100
0000
1000
0000
0110
,
1001
0000
0000
0001
1000
0000
0000
0100
,
0010
0100
0010
0000
0001
0000
0000
0001
,
0100
0000
0000
0010
0100
0000
0000
0010
,
1000
0001
1000
0001
0000
1000
0000
0000
,
0001
0010
0001
1000
0010
1000
0001
0010
,
0001
1000
0010
1000
0000
0001
0010
0000
,
2002
0000
0000
0000
,
3003
0000
0000
0000
;
