#TITLE:Isis;
#SUBTITLE:;
#ARTIST:Destripando la Historia;
#TITLETRANSLIT:;
#SUBTITLETRANSLIT:;
#ARTISTTRANSLIT:;
#GENRE:;
#CREDIT:Magna Trick;
#BANNER:ISIS.png;
#BACKGROUND:ISIS bg.png;
#LYRICSPATH:;
#CDTITLE:Magna Trick title!.png;
#MUSIC:ISIS.mp3;
#OFFSET:-0.198000;
#SAMPLESTART:87.000000;
#SAMPLELENGTH:24.504000;
#SELECTABLE:YES;
#BPMS:0.000000=131.000000
,87.000000=65.500000
,88.000000=131.000000
,181.500000=262.000000
,182.500000=131.000000
;
#STOPS:26.500000=0.458000,
86.500000=0.916000,
179.500000=0.916000
;
#BGCHANGES:10.000=ISIS.mp4=1.000=0=0=1=====,
99999=-nosongbg-=1.000=0=0=0 // don't automatically add -songbackground-
;
#KEYSOUNDS:;
#ATTACKS:;

//---------------dance-single - Magna Trick----------------
#NOTES:
     dance-single:
     :
     Beginner:
     3:
     0.183239,0.261598,0.027004,0.094513,0.000000,190.000000,186.000000,4.000000,14.000000,0.000000,0.000000,0.183239,0.261598,0.027004,0.094513,0.000000,190.000000,186.000000,4.000000,14.000000,0.000000,0.000000:
0000
0000
0000
0000
,
0000
0000
0000
0000
,
0000
0000
0000
0010
,
0000
1000
0000
1000
,
0000
0001
0000
0001
,
0000
1000
0000
0001
,
0000
0000
1000
0000
0001
0001
1000
0000
,
0000
0001
0000
0100
,
0000
0001
0000
0100
,
0000
0010
0000
0010
,
0000
1000
0000
1000
,
0000
0100
0000
1000
,
0000
0100
0000
0010
,
0010
0001
0000
1000
,
1000
0010
0000
0200
,
0000
2300
0000
3100
,
0000
0100
0000
0100
,
0000
0010
0000
0010
,
0001
1000
0100
0020
,
0000
0032
0000
0003
,
0001
0000
1000
0000
,
0010
0000
0000
0000
1000
1000
0001
1000
,
1001
0010
0000
0010
,
0000
1000
0000
1000
,
0001
0000
1000
0000
,
0001
1000
1000
1000
,
0002
0000
0103
0000
,
0010
0000
0100
0000
,
0001
0000
1000
1000
,
1000
0000
0100
0000
,
0010
0000
0010
0000
,
0100
0000
1000
0000
,
0001
0001
1000
0000
,
0010
0000
0010
0000
,
1000
0000
0001
0001
,
1000
0000
0001
0000
,
1000
1000
0100
0000
,
0010
0010
0001
0000
,
1000
0001
1000
0000
,
0000
0001
0100
0001
,
0100
0000
0010
0000
,
0010
0000
0000
0000
,
2000
0000
3020
0000
,
0030
1000
0000
0001
0000
1000
0000
0001
,
0000
0100
0000
0010
0000
0100
0000
0010
,
1000
0010
0001
0000
0000
0000
0100
0000
,
0000
0000
0000
0010
0000
0000
0000
0001
,
0000
0000
0000
1000
0000
0000
0000
0010
,
0000
0000
0000
1000
0000
0000
0000
0001
,
0000
0001
0000
0001
0000
2000
0000
0000
,
0000
3100
0000
0000
0000
0010
0000
0000
,
0000
0100
0000
0000
0000
1000
0000
1000
,
0000
0001
0000
0100
0000
0010
0000
0000
,
0000
0100
0000
0000
0000
0002
0000
0000
,
0000
0000
0000
0000
0000
1003
0000
0000
,
0000
1000
0000
0000
0000
2000
0000
3000
,
0000
0100
0000
0000
0000
0010
0000
0000
,
0000
0001
0000
0001
0000
0200
0000
0000
,
0000
0000
0000
0000
0000
0310
0000
0000
,
0000
1000
0000
0000
0000
0020
0000
0000
,
0000
1030
0000
0000
0000
0001
0000
0001
,
0000
0001
0000
0001
0000
1001
0000
0000
,
0000
0010
0000
0000
0000
0010
0000
0000
,
0000
1000
0000
0000
0000
0001
0000
0000
,
0000
0001
0000
0000
0000
1000
0000
0100
,
0000
0100
0000
0100
0000
0010
0000
0000
,
0000
0001
0000
0000
0000
0010
0000
0000
,
0000
0001
0000
0000
0000
0010
0000
0000
,
0000
0100
0000
0000
0000
0100
0000
0000
,
0000
1000
0000
0001
0000
1001
0000
0000
,
0000
0010
0000
0000
0000
0010
0000
0000
,
0000
0100
0000
0000
0000
0010
0000
0000
,
0000
0100
0000
0100
0000
0001
0000
1000
,
0000
1000
0000
1000
0000
2000
0000
0000
,
0000
3010
0000
0000
0000
1000
0000
0000
,
0000
0100
0000
0000
0000
0010
0000
0000
,
0000
0010
0000
0001
0000
0020
0000
0000
,
0100
0030
0100
0000
1001
0000
0000
0000
;

//---------------dance-single - Magna Trick----------------
#NOTES:
     dance-single:
     :
     Easy:
     6:
     0.239175,0.366237,0.067509,0.168773,0.000000,248.000000,238.000000,10.000000,25.000000,0.000000,0.000000,0.239175,0.366237,0.067509,0.168773,0.000000,248.000000,238.000000,10.000000,25.000000,0.000000,0.000000:
0000
0000
0000
0000
,
0000
0000
0000
0000
,
0000
0000
0000
0100
,
0001
1000
0000
0001
,
0000
1000
0000
1000
,
0000
0002
0000
0000
2003
0000
0000
3020
,
0000
0000
1030
0000
0001
0001
1000
0000
,
0100
1000
0000
0010
,
0001
1000
0000
0010
,
0010
0100
0010
0100
,
0000
0001
0000
0001
,
0010
0001
0010
0001
,
0000
0010
0000
0100
,
0100
1000
0000
0001
,
0001
0100
0000
0020
,
0001
0032
0000
0013
,
0100
0010
0001
0010
,
0000
0000
0100
0000
0010
0000
0100
1000
,
0000
1000
0000
2000
0000
3000
0200
0000
,
0000
2300
0001
3000
,
1000
0100
0001
0010
,
0100
0000
1000
0000
0001
0001
1000
0001
,
1001
0100
0001
0100
,
0010
2000
3002
0003
,
1000
0000
0001
0000
,
1000
0001
0001
0001
,
2000
0000
3010
0000
,
0100
0000
0010
0010
,
1010
0000
0001
0001
,
0101
0000
0010
0000
,
0100
0000
0100
0000
,
0010
0000
0001
0000
,
1000
1000
0001
0010
,
0100
0000
0100
0000
,
0001
0010
1000
1000
,
0001
0100
1000
0010
,
0001
0001
0010
0000
,
0100
0000
0100
0000
1000
0200
0000
0300
,
0020
0000
0000
0000
0032
0000
0000
0003
,
0000
0001
0000
1000
0000
0010
0000
1000
,
0000
0010
0000
0100
0000
0001
0000
0100
,
0000
0010
0000
0010
0000
0010
0000
1000
,
2000
0000
3200
0000
,
0300
0010
0000
0001
0000
1000
0000
1000
,
0000
0010
0000
0100
0000
0010
0000
0100
,
0001
0100
1000
0000
0000
0010
0010
0000
,
0000
0010
0000
0100
0000
1000
0000
0200
,
0000
0320
0000
0031
0000
0000
0000
0100
,
0000
0010
0000
0001
0000
0010
0000
0100
,
0000
0100
0000
0100
0000
2000
0000
0000
,
0000
3010
0000
0000
0000
0100
0000
0000
,
0000
0010
0000
0000
0000
0001
0000
0001
,
0000
1000
0000
0010
0000
0100
0000
0000
,
0000
0010
0000
0000
0000
2000
0000
0001
,
0000
0000
0000
0001
0000
3100
0000
0000
,
0000
0001
0000
0000
0000
0002
0000
0003
,
0000
0010
0000
0001
0000
0100
0000
0010
,
0000
1000
0000
1000
0000
0020
0000
0000
,
0000
0000
0000
0000
0000
0130
0000
0000
,
0000
0001
0000
0000
0000
0200
0000
0000
,
0000
0301
0000
0010
0000
1000
0000
1000
,
0000
1000
0000
1000
0000
1001
0000
0000
,
0000
0100
0000
0010
0000
0100
0100
0000
,
0000
1000
0000
0000
0000
1000
0000
0001
,
0000
1000
0000
0010
0000
0001
0000
0010
,
0000
0010
0000
0010
0000
0200
0000
0000
,
0000
1300
0000
0000
0000
0100
0000
0000
,
0000
1000
0000
0000
0000
0100
0100
0000
,
0000
0010
0000
0001
0000
0010
0000
0000
,
0000
0001
0000
1000
0000
1001
0000
0000
,
0000
0100
0000
0001
0000
0100
0000
0000
,
0000
0010
0000
0000
0000
0100
0000
0010
,
0000
0010
0000
0010
0000
1000
0000
0001
,
0000
0001
0000
0001
0000
0002
0000
0100
,
0000
0103
0000
0000
0001
0000
1000
0000
,
0000
0010
0000
0000
0000
0100
0100
0000
,
0000
0100
0010
0000
1010
0000
0101
0000
,
0110
0110
1001
0000
;

//---------------dance-single - Magna Trick----------------
#NOTES:
     dance-single:
     :
     Medium:
     9:
     0.393482,0.472395,0.405055,0.135018,0.040506,408.000000,348.000000,60.000000,20.000000,0.000000,0.000000,0.393482,0.472395,0.405055,0.135018,0.040506,408.000000,348.000000,60.000000,20.000000,0.000000,0.000000:
0000
0000
0000
0000
,
0000
0000
0000
0000
,
0000
0000
0000
0100
,
0001
0000
1000
1000
0000
0000
0010
0000
,
0000
0000
1000
1000
0000
0000
0100
0000
,
0000
0000
1000
1000
0000
0000
0010
0000
,
0000
0000
1000
0000
1001
1001
0010
0000
,
1000
0001
0001
1000
,
0100
0010
0100
1000
,
1000
0000
0001
1000
0001
1000
0000
0010
,
0000
0110
0100
0010
,
1000
0100
0010
0100
,
1000
0001
1000
0010
,
0010
0000
1000
0010
0000
1000
0001
1000
,
0001
0020
0000
0130
0000
0010
0002
0000
,
0000
0000
2003
0000
0010
0000
3000
0010
,
0000
0100
0000
0001
0000
0100
0000
0010
,
0000
0100
0000
0001
1000
0001
0000
1100
,
0000
1100
0000
1100
0000
1000
0200
0000
,
1000
0000
0320
0000
0001
0000
0030
0001
,
0000
1000
0000
0010
0000
1000
0000
0001
,
0000
0100
0000
0001
0100
0010
1010
0101
,
0001
2000
0000
3000
0100
0010
0000
0100
,
0000
0010
0011
0000
1100
0000
0010
0100
,
0001
0000
0010
0000
0100
0000
1000
0000
0001
0000
0000
1000
0000
0000
0010
0000
,
0000
0101
0101
0101
,
0102
0000
0000
0000
1000
0000
0000
0000
0013
0000
0000
1000
0000
0000
0010
0000
,
0000
1000
0000
0000
0000
0010
0010
1010
,
0000
0000
0000
0000
1001
0010
0000
0110
,
0000
0000
0000
0000
0001
1000
0000
0000
1000
0001
0000
0000
0100
0000
0010
0000
,
1000
0001
1000
0001
1000
0010
0000
0100
,
0000
0001
0010
0100
0000
2000
0000
0000
,
3001
0000
0001
0000
1000
0100
0010
0100
,
0000
0011
0000
0000
1100
0000
0010
0001
,
1000
0010
0100
0010
0100
0001
0000
0100
,
0000
0010
0100
1000
0000
0100
0000
0001
,
1000
0000
1000
0001
1000
0001
0000
0010
,
0100
0010
0100
0010
0000
0100
0000
1000
,
0002
0000
0203
0010
,
0300
0010
0000
1000
0000
0001
0000
0010
,
0000
0100
0000
0010
0000
0100
0010
0001
,
0000
0110
0000
0110
0000
0110
0000
0010
,
0200
1000
2300
0001
,
3000
0001
0000
1000
0000
0010
0000
0100
,
0000
1000
0000
0100
0000
0001
0100
1000
,
0001
1000
0001
0000
0000
0110
0110
0000
,
0000
1000
0001
0000
1000
0000
0001
1000
,
1000
0001
0001
0000
0000
1000
0000
0100
,
0000
0010
0100
0000
1000
0000
0000
1001
,
0000
1001
0000
1001
0000
0001
1000
0001
,
1000
0000
1000
0000
0000
0001
0000
0000
0100
0000
0000
0000
0010
0000
0000
0000
,
0000
0100
0000
0001
0000
1000
1001
0000
,
0000
0000
1010
0000
0000
0100
0000
0000
0001
0000
1000
0000
1000
0000
0000
0000
,
0001
0000
1000
0010
0000
0200
0000
0001
,
0000
0000
0000
0310
0000
1000
0000
0010
,
0000
0100
0000
0001
0000
1001
0000
0000
,
1000
1100
0000
0010
0011
0000
0001
0001
,
0000
0101
0000
0110
0000
2010
0000
0100
,
0000
0000
0000
0010
0000
3100
0000
0010
,
0000
0001
0000
0100
0000
2020
0000
3030
,
0100
0110
0000
0001
0100
0101
0000
1100
,
0000
1001
0000
0110
0000
1010
1010
0000
,
0000
0010
1000
0000
0001
0000
0200
0000
,
0300
0000
0000
1000
0001
0010
1000
0100
,
1000
0000
0100
0000
0000
0010
0000
0000
0001
0000
0000
0000
0000
0000
1100
0000
,
0000
1100
0000
1100
0000
1000
0100
0010
,
0001
0000
1000
0000
0000
0010
0000
0000
0100
0000
0000
0000
0010
0000
0000
0000
,
0000
0000
0000
0000
0000
1001
1001
0000
,
0000
0000
0010
0000
0000
1000
0000
0000
0001
0000
0000
0000
1000
0000
0100
0000
,
1000
0100
1000
0010
0100
0101
0101
0000
,
0000
0000
0001
0000
0000
0100
0000
0000
0010
0000
0000
0000
0100
0000
0001
0000
,
2000
0000
3100
0010
0010
0000
0001
0001
,
0010
0000
0100
0000
0000
0001
0000
0000
0100
0000
0000
0000
0000
0000
0101
0000
,
0000
0101
0000
0101
0000
0100
1000
0001
,
1000
0000
0100
0000
0000
0010
0000
0000
0001
0000
0000
0000
0100
0000
0001
0000
,
0001
1000
1000
0100
0010
0110
0110
0000
,
0000
0010
0001
0000
0011
0000
1010
0000
,
0110
0000
0101
0001
2002
0000
3003
0000
;

//---------------dance-single - Magna Trick----------------
#NOTES:
     dance-single:
     :
     Hard:
     13:
     0.523678,0.577372,0.627835,0.594081,0.182275,543.000000,450.000000,93.000000,88.000000,0.000000,0.000000,0.523678,0.577372,0.627835,0.594081,0.182275,543.000000,450.000000,93.000000,88.000000,0.000000,0.000000:
// measure 0
0000
0000
0000
0000
,  // measure 1
0000
0000
0000
0000
,  // measure 2
0000
0000
0000
0000
0000
0010
0110
0100
,  // measure 3
1000
0000
0001
0001
0000
0010
0000
0100
,  // measure 4
0000
0000
1000
1000
0010
0100
0000
0001
,  // measure 5
0100
0020
0000
0000
1030
2000
0000
3002
,  // measure 6
0000
0000
0013
0000
1001
1001
0100
0010
,  // measure 7
0100
0010
0001
2000
0000
3020
0000
0130
,  // measure 8
0010
2000
0000
3002
0000
1003
1100
0000
,  // measure 9
1001
0000
1000
0010
1000
0002
0000
0103
,  // measure 10
0000
0000
0010
0000
0100
0010
0000
0000
1000
0000
0010
0000
0100
0000
0001
0000
,  // measure 11
1001
1000
0100
0020
0000
0032
0000
0013
,  // measure 12
0010
0100
0000
1100
0000
0001
0100
0000
,  // measure 13
0101
0001
0100
2000
0000
3100
0001
1000
,  // measure 14
0001
0200
0000
0310
0000
0100
2000
0000
,  // measure 15
0010
0000
3002
0010
0013
1000
0000
1010
,  // measure 16
0000
1100
0000
0011
0000
0101
0000
0110
,  // measure 17
0000
1001
0000
0010
1000
0001
0000
0022
,  // measure 18
0033
0022
0033
0022
0033
0001
0020
0000
,  // measure 19
0001
0000
0230
1000
1300
0001
0000
0011
,  // measure 20
0000
0101
0000
1010
0000
1100
0000
0110
,  // measure 21
0010
0000
0001
1000
0001
0000
1000
0000
0010
0000
1001
0000
0001
0001
1000
1000
,  // measure 22
0100
0000
0002
0000
0000
0000
0003
0000
0100
0000
0000
1000
0000
0000
0010
0000
,  // measure 23
0000
0000
0100
0000
0001
0100
0001
0000
1000
0010
1000
0000
0100
0010
0001
1000
,  // measure 24
0000
0000
0100
0000
0010
0000
0001
0000
2000
0000
0000
3002
0000
0000
0203
0000
,  // measure 25
0000
0300
0000
0000
2020
0000
3030
0000
2020
0000
3030
0000
2020
0000
3030
0000
,  // measure 26
2010
0000
0001
0000
0001
0000
0010
0000
3001
0000
0000
0001
0000
0000
0100
0000
,  // measure 27
0000
0001
1000
0010
0000
0101
0000
2200
,  // measure 28
0000
3300
0010
0000
1001
0100
0000
0110
,  // measure 29
0000
0000
0010
0000
1000
0001
0000
0000
0001
1000
0000
0000
1010
0000
0101
0000
,  // measure 30
0001
1000
0100
1000
0001
0200
0000
0320
,  // measure 31
0000
1030
0100
0020
0000
0032
0000
1000
,  // measure 32
1003
0000
1100
0000
0001
0010
0100
0010
,  // measure 33
0000
1100
0000
0000
0011
0000
0110
1001
,  // measure 34
0001
0100
0010
0100
0010
2000
0000
3020
,  // measure 35
0000
0000
0130
0000
0010
1000
0010
1000
0001
0000
0010
0000
0100
0000
1000
0000
,  // measure 36
1001
0000
1001
1000
0001
0101
0000
0100
,  // measure 37
0010
0100
0010
2000
0000
3002
0000
0023
,  // measure 38
2030
0000
0100
0000
3002
0010
0000
0010
,  // measure 39
0003
0101
0000
1100
0000
1001
0000
1010
,  // measure 40
0000
2000
0000
3200
0000
0310
0100
1000
,  // measure 41
0000
0220
0330
0220
0330
0220
0330
0100
,  // measure 42
0020
0000
0100
0000
2030
0100
0000
0100
,  // measure 43
3000
0001
1000
0010
1000
0100
0010
0011
,  // measure 44
0000
0000
0110
0000
0000
0000
1100
0000
0000
0000
1001
0000
0001
0000
0101
1000
,  // measure 45
1000
0000
0001
0000
1000
1000
0100
0000
0010
0000
0001
0000
0110
0000
0000
0000
,  // measure 46
0000
0000
0001
0000
1000
0000
0000
0000
0001
0000
0000
0000
1000
0000
0001
0100
,  // measure 47
0001
0000
1000
0010
1000
0000
0010
0100
0010
0100
0001
0000
0010
0000
0100
0000
,  // measure 48
1000
0000
0100
0000
0000
0020
0000
0000
2030
0000
0000
3000
0100
0000
2002
0000
,  // measure 49
3003
2002
3003
2002
3003
0010
0001
1000
,  // measure 50
0100
0000
0002
0000
0000
2003
0000
0000
3020
0000
0000
0030
0100
0000
0001
0000
,  // measure 51
0200
0000
0000
0310
0000
1000
1001
0000
,  // measure 52
0000
0000
0101
0000
0001
0010
0001
0010
0001
0000
1000
0000
1000
0000
0000
0000
,  // measure 53
1100
0000
0101
1001
0000
0020
0000
1000
,  // measure 54
0000
0000
0000
0000
0000
0000
0130
0000
0000
0000
0001
0000
0000
0100
0000
0000
,  // measure 55
0010
0000
1000
0000
0000
0100
0000
0000
0010
0000
2002
0000
0000
0000
3003
0000
,  // measure 56
0001
0011
0000
0100
1100
0000
1000
1000
,  // measure 57
0010
1010
0000
0110
0000
0102
0000
0010
,  // measure 58
0000
0000
0000
0000
0000
0000
0100
0000
0000
0000
0013
0000
0000
0100
0000
0000
,  // measure 59
1000
0000
0010
0000
0000
0100
0000
0000
0001
0000
0202
0000
0000
0000
0303
0000
,  // measure 60
0010
0110
0000
1000
0010
1010
0000
0011
,  // measure 61
0000
0000
1001
0000
0000
0000
0110
0100
0000
0000
0101
0000
1100
0000
0000
0000
,  // measure 62
0000
0000
0100
0000
0000
0001
0000
0000
1000
0000
0000
0000
0010
0000
0000
0000
,  // measure 63
0100
0000
0000
0000
0001
1000
0100
0010
0001
0000
1000
0000
0100
0000
0010
0000
,  // measure 64
0001
0000
0010
0000
0000
0100
0000
0000
1000
0000
0000
0000
0001
0000
0022
0000
,  // measure 65
0033
0022
0033
0022
0033
0001
0010
0100
,  // measure 66
1000
0000
0001
0000
0000
0100
0000
0000
0010
0000
0000
0000
0100
0000
0001
0000
,  // measure 67
0001
1000
1000
0100
0100
1001
1001
0000
,  // measure 68
0000
0000
0100
0000
0000
0001
0000
0000
1000
0000
0000
0000
0001
0000
0010
0001
,  // measure 69
0010
0001
0100
0010
0100
0010
1000
0100
1000
0100
1001
0000
1001
0000
0000
0000
,  // measure 70
0000
0000
1000
0000
0000
0010
0000
0000
0100
0000
0000
0000
0010
0000
1000
0010
,  // measure 71
1000
0000
0001
0100
0001
0000
0100
0010
0100
0010
1000
0000
1000
0000
0100
0000
,  // measure 72
0100
0000
0010
0000
0000
0001
0000
0000
1000
0000
0000
0000
0010
0000
2020
0000
,  // measure 73
3030
2020
3030
2020
3030
0010
1000
0001
,  // measure 74
1000
0000
0010
0000
0000
0100
0000
0000
1000
0000
0000
0000
0100
0000
0001
1000
,  // measure 75
0001
0000
1000
0001
1000
0010
0100
0001
1000
0001
0110
0000
0110
0000
0000
0000
,  // measure 76
0000
0100
1000
0000
1100
0000
0101
0000
,  // measure 77
0110
0000
1010
1000
2002
0000
3003
0000
;
