#TITLE:I'm Coming Home;
#SUBTITLE:;
#ARTIST:DJ Mendez/Abraham Garcia;
#TITLETRANSLIT:;
#SUBTITLETRANSLIT:;
#ARTISTTRANSLIT:;
#GENRE:;
#CREDIT:;
#BANNER:I_m Coming Home-bn.png;
#BACKGROUND:I_m Coming Home-bg.png;
#LYRICSPATH:;
#CDTITLE:;
#MUSIC:I_m Coming Home.mp3;
#OFFSET:-0.251008;
#SAMPLESTART:28.855000;
#SAMPLELENGTH:14.000000;
#SELECTABLE:YES;
#DISPLAYBPM:128.000000;
#BPMS:0.000000=127.953003
,127.000000=127.932999
,188.000000=127.913002
;
#STOPS:
;
#BGCHANGES:;
#KEYSOUNDS:;
#ATTACKS:;

//---------------dance-single - ----------------
#NOTES:
     dance-single:
     :
     Hard:
     8:
     0.503466,0.594315,0.294287,0.423485,0.423485,491.000000,450.000000,41.000000,59.000000,0.000000,0.000000,0.503466,0.594315,0.294287,0.423485,0.423485,491.000000,450.000000,41.000000,59.000000,0.000000,0.000000:
0000
0000
0000
0000
,
0000
0000
0000
0000
,
0000
0000
0000
0000
,
0000
0000
0000
0000
,
0000
0000
0000
0000
,
0000
0000
0000
0000
,
0000
0000
0000
0000
,
0000
0000
0000
0000
,
2000
0000
3001
0100
0020
0000
1030
0100
,
0010
0001
0020
0000
0030
0001
0100
0000
,
0002
0000
1003
0010
0200
0000
0301
0100
,
1000
0100
0002
0000
0003
1000
0100
0000
,
0040
0000
0000
0000
0000
0030
0001
0000
4000
0000
0000
0000
0000
3000
0010
0000
,
0400
0000
0000
0000
0000
0300
0001
0000
1000
0000
0010
0000
0200
0000
0000
0000
,
0001
1000
0001
0010
,
1300
0000
0000
0000
,
1010
0000
0100
0000
0002
0010
0000
1003
0000
0000
0101
0000
2000
0000
3100
0000
,
0001
0000
0100
0000
1000
0010
0000
1001
0000
0100
0001
0000
0022
0000
0003
0000
,
0031
0000
0100
0000
2000
0010
0000
3001
0000
0000
0100
0000
1001
0000
0100
0000
,
0001
0000
1000
0000
0100
0010
0000
0101
0000
0100
1000
0000
1000
0010
0000
0010
,
0100
0000
0001
0000
0010
0100
0000
1020
0000
0000
0130
0000
1001
0000
0100
0000
,
0010
0000
0000
0100
0001
0010
0000
1001
0000
0100
0001
0000
0012
0000
0000
0000
,
0103
0000
0100
0000
0001
0020
0000
0001
0000
0130
1000
0000
0001
0000
0100
0000
,
0000
0000
0001
0000
1000
0100
0000
0010
0001
0000
0100
0000
0010
1000
0000
0010
,
0100
0000
0100
0000
1001
0000
0000
1100
0000
0010
0200
0000
0001
0000
0310
0000
,
0100
0000
1000
0000
0100
0001
0000
1001
0000
0001
0100
0000
0120
0000
0000
0000
,
0130
0000
0010
0000
2000
0010
0000
3100
0000
0000
0101
0000
0010
0000
0100
0000
,
1000
0000
0100
0000
0010
0100
0000
1000
0000
1000
0010
0000
0010
0100
0000
0100
,
0001
0000
1000
0000
0010
0001
0000
0110
0000
0000
1002
0000
0100
0000
1003
0000
,
0010
0000
0000
0010
0100
0001
0000
1001
0000
1000
0010
0000
0120
0000
0000
0000
,
0031
0000
1000
0000
0001
0010
0000
0110
0000
0100
2000
0000
0100
0000
3001
0000
,
0010
0000
0100
0000
0001
0010
0000
0010
0100
0000
0100
0000
1000
0002
0000
0000
,
0103
0000
0000
0000
0020
0000
0000
0000
2030
0000
0000
0001
3000
0001
1000
0000
,
0010
0000
0000
0000
0002
0000
0000
0000
0203
0000
0000
1000
0300
1000
0001
0000
,
1000
0000
0000
0000
0020
0000
0000
0000
0032
0000
0000
0100
0003
0100
0010
0000
,
0001
0000
0000
0000
0200
0000
0000
0000
2300
0000
0000
0010
3000
0010
0100
0000
,
0040
0000
0000
0000
0000
0030
0001
0000
0400
0000
0000
0000
0000
0300
1000
0000
,
0040
0000
0000
0000
0000
0030
0100
0000
0001
0000
0010
0000
2000
0000
0000
0000
,
0100
0100
0001
0001
,
0010
0000
0010
0000
0100
0100
3100
0000
,
0001
0000
0001
0000
0100
0000
0010
0000
2000
0000
0000
0010
3000
0100
0001
0000
,
1000
0000
1000
0000
0010
0000
0100
0000
0002
0000
0000
0010
0003
0100
1000
0000
,
0010
0000
0010
0000
0100
0000
0001
0000
2000
0000
0000
0100
3000
0010
0001
0000
,
0100
0000
0100
0000
0010
0000
1000
0000
0002
0000
0000
0100
0003
0010
1000
0000
,
0400
0000
0000
0000
0000
0300
0001
0000
0040
0000
0000
0000
0000
0030
0100
0000
,
4000
0000
0000
0000
0000
3000
0100
0000
1000
0000
0010
0000
0002
0000
0000
0000
,
0100
1000
0100
0010
,
0103
0000
0001
0000
1000
0001
0010
0100
,
2000
0000
3100
0002
0000
0103
1000
0100
,
0020
0000
0130
0002
0000
0103
1000
0001
,
0200
0000
0301
0200
0000
1300
0100
0001
,
0020
0000
0130
2000
0000
3100
0010
0100
,
0001
0001
1000
0100
0010
0010
0100
1000
,
0100
0100
0010
0100
0001
0100
1000
0001
,
0100
0010
0000
0000
1000
0001
0000
0000
0010
0100
0000
0000
1000
0010
0000
0000
,
1001
0000
0000
0000
,
0101
0000
0010
0000
2000
0100
0000
3001
0000
0000
1010
0000
0002
0000
0013
0000
,
1000
0000
0010
0000
0001
0100
0000
1001
0000
0010
1000
0000
2200
0000
3000
0000
,
1300
0000
0010
0000
0002
0100
0000
1003
0000
0000
0010
0000
1001
0000
0010
0000
,
1000
0000
0001
0000
0010
0100
0000
1010
0000
0010
0001
0000
0001
0100
0000
0100
,
0010
0000
1000
0000
0100
0010
0000
0201
0000
0000
0310
0000
1001
0000
0010
0000
,
0100
0000
0000
0010
1000
0100
0000
1001
0000
0010
1000
0000
2100
0000
0000
0000
,
3010
0000
0010
0000
1000
0200
0000
1000
0000
0310
0001
0000
1000
0000
0010
0000
,
0000
0000
1000
0000
0001
0010
0000
0100
1000
0000
0010
0000
0100
0001
0000
0100
,
0010
0000
0010
0000
1001
0000
0000
0011
0000
0100
0020
0000
1000
0000
0130
0000
,
0010
0000
0001
0000
0010
1000
0000
1001
0000
1000
0010
0000
0210
0000
0000
0000
,
0310
0000
0100
0000
0002
0100
0000
0013
0000
0000
1010
0000
0100
0000
0010
0000
,
0001
0000
0010
0000
0100
0010
0000
0001
0000
0001
0100
0000
0100
0010
0000
0010
,
1000
0000
0001
0000
0100
1000
0000
0110
0000
0000
2001
0000
0010
0000
3001
0000
,
0100
0000
0000
0100
0010
1000
0000
1001
0000
0001
0100
0000
0210
0000
0000
0000
,
1300
0000
0001
0000
1000
0100
0000
0110
0000
0010
0002
0000
0010
0000
1003
0000
,
0100
0000
0010
0000
1000
0100
0000
0100
0010
0000
0010
0000
0001
2000
0000
0000
,
3000
0000
0000
0000
;

//---------------dance-single - ----------------
#NOTES:
     dance-single:
     :
     Medium:
     5:
     0.344531,0.361757,0.236865,0.215332,0.000000,336.000000,303.000000,33.000000,30.000000,0.000000,0.000000,0.344531,0.361757,0.236865,0.215332,0.000000,336.000000,303.000000,33.000000,30.000000,0.000000,0.000000:
0000
0000
0000
0000
,
0000
0000
0000
0000
,
0000
0000
0000
0000
,
0000
0000
0000
0000
,
0000
0000
0000
0000
,
0000
0000
0000
0000
,
0000
0000
0000
0000
,
0000
0000
0000
0000
,
2000
0000
3000
0100
0020
0000
0030
0001
,
0100
0010
2000
0000
3000
0000
0100
0000
,
0002
0000
0003
0010
0200
0000
0300
0001
,
1000
0100
0002
0000
0003
0000
0100
0000
,
0020
0000
0000
0031
2000
0000
0000
3010
,
0200
0000
0000
0301
1000
0010
0200
0000
,
0000
0010
0001
0010
,
0301
0000
0000
0000
,
1000
0000
0110
0000
1000
0001
0100
0000
,
0010
0000
0101
0000
1000
0001
1000
0000
,
0010
0000
1100
0000
0010
1000
0001
0000
,
0010
0000
0001
0100
1000
0100
1000
0000
,
0100
0000
1001
0000
0010
0100
0001
0000
,
1000
0000
0011
0000
0010
0100
1000
0000
,
0010
0000
0110
0000
0001
0100
0010
0000
,
0100
0000
1000
0100
0001
0100
0020
0000
,
0030
0000
1001
0000
0010
0100
0001
0000
,
0010
0000
1100
0000
0010
0001
1000
0000
,
0010
0000
1001
0000
0100
0001
0010
0000
,
1000
0000
0010
0100
0001
0010
0001
0000
,
1000
0000
1001
0000
0010
0001
0010
0000
,
0100
0000
1010
0000
0010
1000
0100
0000
,
0010
0000
1001
0000
0100
1000
0010
0000
,
1000
0000
0001
0010
0100
0010
2000
0000
,
3001
0110
1000
1001
,
0010
0001
0200
0000
0000
0010
0310
0000
,
1000
0101
0001
1010
,
0100
0010
0002
0000
0000
1000
1003
0000
,
0020
0000
0000
0000
0000
0030
0001
0000
0200
0000
0000
0000
0000
0300
1000
0000
,
0020
0000
0000
0000
0000
0030
0100
0000
0001
0000
0000
0000
0200
0000
0000
0000
,
0010
0010
0001
0001
,
0010
0010
1000
1300
,
0001
0000
0001
1000
0200
0000
0310
0000
,
0001
0100
0002
0000
0000
1000
1003
0000
,
0010
0000
0010
1000
0002
0000
0103
0000
,
1000
0001
0200
0000
0000
0010
0310
0000
,
2000
0000
0000
0000
0000
3000
0001
0000
0020
0000
0000
0000
0000
0030
0100
0000
,
2000
0000
0000
0000
0000
3000
0010
0000
0100
0000
0001
0000
0020
0000
0000
0000
,
0100
1000
0100
1000
,
0130
0000
0001
0000
1000
0001
0000
0010
,
1000
1001
0001
0101
,
1000
0110
0001
1100
,
1000
0101
0001
1100
,
1000
0011
0001
1010
,
2000
0000
3001
0010
0002
0000
1003
0010
,
0200
0000
1300
0000
0001
1000
0010
0000
,
0001
0100
0010
1000
,
0001
0000
0000
0000
,
0001
0000
0110
0000
0010
1000
0100
0000
,
0010
0000
1001
0000
0001
0100
0001
0000
,
1000
0000
0110
0000
0010
1000
0100
0000
,
0001
0000
0010
0100
1000
0100
0010
0000
,
1000
0000
0011
0000
0100
0010
0100
0000
,
0010
0000
1010
0000
0100
0010
0001
0000
,
0100
0000
0011
0000
1000
0010
0100
0000
,
0001
0000
0100
0010
1000
0010
0100
0000
,
0001
1000
0100
0000
0100
1000
0001
0100
,
0000
0001
0010
0000
0100
0010
1000
0000
,
0001
0000
0110
0000
0010
0100
0010
0000
,
1000
0000
0100
0001
0010
0001
0100
0000
,
0010
0000
0101
0000
1000
1000
0100
0000
,
0010
0000
1001
0000
0100
0010
0010
0000
,
0100
0001
0100
0000
1000
0100
1000
0000
,
0100
0000
0001
0010
0100
0000
0020
1000
,
0030
0000
0000
0000
;

//---------------dance-single - ----------------
#NOTES:
     dance-single:
     :
     Easy:
     2:
     0.221484,0.257501,0.179443,0.480907,0.000000,216.000000,191.000000,25.000000,67.000000,0.000000,0.000000,0.221484,0.257501,0.179443,0.480907,0.000000,216.000000,191.000000,25.000000,67.000000,0.000000,0.000000:
0000
0000
0000
0000
,
0000
0000
0000
0000
,
0000
0000
0000
0000
,
0000
0000
0000
0000
,
0000
0000
0000
0000
,
0000
0000
0000
0000
,
0000
0000
0000
0000
,
0000
0000
0000
0000
,
1000
0001
0020
0030
,
0100
1000
0002
0003
,
2000
3000
0020
0030
,
1000
2002
3003
0100
,
0022
0033
2200
3300
,
0220
0330
1000
0010
,
2002
0000
0000
0000
,
3003
0000
0000
0000
,
1000
0100
2000
3000
,
0010
0100
2002
3003
,
0010
0100
0020
0030
,
1000
0001
2200
3300
,
0001
1000
0002
0003
,
1000
0010
0202
0303
,
0010
0100
0002
0003
,
0100
1000
0100
1000
,
0010
0100
2000
3000
,
0100
0010
2002
3003
,
0010
0001
0020
0030
,
1000
0001
0220
0330
,
1000
0001
0200
0300
,
0010
0001
2200
3300
,
0010
0001
2000
3000
,
0220
0330
2002
3003
,
0002
0003
0200
0300
,
0010
0001
1000
0000
,
2000
3000
0020
0030
,
0100
1000
0001
0000
,
0220
0330
2002
3003
,
0001
0100
0001
0010
,
0100
0000
0010
0000
,
1000
0100
0010
0000
,
0001
0100
0101
0000
,
0010
1000
1001
0000
,
1000
0010
0200
0300
,
0010
0001
2000
3000
,
0001
0002
0013
0020
,
0130
0200
1300
0001
,
1000
1000
0010
0010
,
0100
0100
0001
0001
,
1001
0000
0100
0000
,
0110
0000
0001
0000
,
1001
0000
1000
0000
,
0101
0000
0010
0000
,
1000
2000
3010
0020
,
0130
0200
0301
1000
,
0001
0001
0010
0010
,
1001
0000
0000
0000
,
0001
0100
0020
0030
,
1000
0010
0200
0300
,
0001
0100
0001
0100
,
0010
1000
0010
2000
,
3100
0010
0002
0003
,
0010
0001
0200
0300
,
1000
0001
1000
0001
,
1000
0100
0002
0103
,
0010
1000
2002
3003
,
0100
0010
0220
0330
,
1000
0100
1000
0100
,
0010
0001
0010
0002
,
0103
0010
2000
3000
,
0010
1000
0200
0300
,
0010
0010
1000
1000
,
0100
0001
0010
1100
;

//---------------dance-single - ----------------
#NOTES:
     dance-single:
     :
     Beginner:
     1:
     0.088183,0.154500,0.057422,0.086133,0.000000,86.000000,78.000000,8.000000,12.000000,0.000000,0.000000,0.088183,0.154500,0.057422,0.086133,0.000000,86.000000,78.000000,8.000000,12.000000,0.000000,0.000000:
// measure 0
0000
0000
0000
0000
,  // measure 1
0000
0000
0000
0000
,  // measure 2
0000
0000
0000
0000
,  // measure 3
0000
0000
0000
0000
,  // measure 4
0000
0000
0000
0000
,  // measure 5
0000
0000
0000
0000
,  // measure 6
0000
0000
0000
0000
,  // measure 7
0000
0000
0000
0000
,  // measure 8
1000
0000
0000
0000
,  // measure 9
0100
0000
0000
0000
,  // measure 10
0001
0000
0000
0000
,  // measure 11
0010
0000
0000
0000
,  // measure 12
0220
0000
0000
0000
,  // measure 13
0330
0000
0000
0000
,  // measure 14
2002
0000
0000
0000
,  // measure 15
3003
0000
0000
0000
,  // measure 16
0010
0000
0010
0000
,  // measure 17
0010
0000
0000
0000
,  // measure 18
0100
0000
0100
0000
,  // measure 19
0100
0000
0000
0000
,  // measure 20
0001
0000
0001
0000
,  // measure 21
0001
0000
0000
0000
,  // measure 22
1000
0000
1000
0000
,  // measure 23
1000
0000
0000
0000
,  // measure 24
0010
0000
0001
0000
,  // measure 25
0010
0000
0000
0000
,  // measure 26
0100
0000
1000
0000
,  // measure 27
0100
0000
0000
0000
,  // measure 28
0010
0000
0100
0000
,  // measure 29
0010
0000
0000
0000
,  // measure 30
0100
0000
0010
0000
,  // measure 31
0100
0000
0000
0000
,  // measure 32
0002
0000
0000
0000
,  // measure 33
0003
0000
0000
0000
,  // measure 34
2000
0000
0000
0000
,  // measure 35
3000
0000
0000
0000
,  // measure 36
0220
0000
0000
0000
,  // measure 37
0330
0000
0000
0000
,  // measure 38
2002
0000
0000
0000
,  // measure 39
3003
0000
0000
0000
,  // measure 40
0100
0000
0100
0000
,  // measure 41
0100
0000
0000
0000
,  // measure 42
0001
0000
0001
0000
,  // measure 43
0001
0000
0000
0000
,  // measure 44
1000
0000
1000
0000
,  // measure 45
1000
0000
0000
0000
,  // measure 46
0010
0000
0010
0000
,  // measure 47
0010
0000
0000
0000
,  // measure 48
1001
0000
0000
0000
,  // measure 49
0110
0000
0000
0000
,  // measure 50
1001
0000
0000
0000
,  // measure 51
0110
0000
0000
0000
,  // measure 52
0200
0000
0000
0000
,  // measure 53
0300
0000
0000
0000
,  // measure 54
0020
0000
0000
0000
,  // measure 55
0030
0000
0000
0000
,  // measure 56
0100
0000
0100
0000
,  // measure 57
0100
0000
0000
0000
,  // measure 58
0010
0000
0010
0000
,  // measure 59
0010
0000
0000
0000
,  // measure 60
1000
0000
1000
0000
,  // measure 61
1000
0000
0000
0000
,  // measure 62
0001
0000
0001
0000
,  // measure 63
0001
0000
0000
0000
,  // measure 64
0100
0000
1000
0000
,  // measure 65
0100
0000
0000
0000
,  // measure 66
0010
0000
0001
0000
,  // measure 67
0010
0000
0000
0000
,  // measure 68
0100
0000
0010
0000
,  // measure 69
0100
0000
0000
0000
,  // measure 70
0010
0000
0100
0000
,  // measure 71
0010
0000
0100
0100
;
