#TITLE:Hombre Lobo;
#SUBTITLE:(Latin Mix);
#ARTIST:Porto Seguro;
#TITLETRANSLIT:;
#SUBTITLETRANSLIT:;
#ARTISTTRANSLIT:;
#CREDIT:;
#BANNER:Hombre Lobo (Latin Mix)-bn.png;
#BACKGROUND:Hombre Lobo (Latin Mix)-bg.png;
#LYRICSPATH:;
#CDTITLE:cd.png;
#MUSIC:Hombre Lobo (Latin Mix).mp3;
#OFFSET:-7.312;
#SAMPLESTART:57.410;
#SAMPLELENGTH:12.000;
#SELECTABLE:YES;
#BPMS:0.000=134.000;
#STOPS:;
#BGCHANGES:;

//---------------dance-single - ----------------
#NOTES:
     dance-single:
     :
     Hard:
     8:
     0.504,0.487,0.444,0.265,0.060:
2000
0000
0001
0001
,
3001
0000
1001
1001
,
0020
0000
0100
0100
,
0130
0000
0110
1001
,
2000
0000
0010
0000
3001
0000
0100
0001
,
2000
3010
0101
1010
,
0002
0000
0100
0000
0013
0000
0100
1000
,
0002
1003
0110
1001
,
1000
0001
1000
0000
0010
0100
0010
0000
,
1000
0001
1000
0010
0200
0000
0301
0000
,
1000
0001
1000
0000
0001
0010
0100
0000
,
0010
0000
0000
0001
0000
0000
0010
0000
0000
0100
0000
0000
1000
0000
0010
0000
0100
0000
0001
0000
0000
0000
0000
0000
,
2002
0000
0000
0000
0000
0000
3003
0000
0000
0000
0110
0000
0000
0011
0000
0000
,
2200
0000
0000
3300
,
0220
0000
0000
0000
0000
0000
0330
0000
0000
0000
1010
0000
0000
0101
0000
0000
,
1001
0000
1000
0010
2000
0000
3001
0000
,
0100
0001
0100
0000
0010
1000
0001
0000
,
0010
0100
1000
0001
0100
0010
1000
0000
,
0001
0010
0002
0000
1003
0100
2000
0000
,
3001
0000
0000
1000
0001
1000
0002
0000
0000
1003
0000
0000
,
0010
0010
0100
0100
0010
0010
0100
0010
,
1000
0001
1000
0010
1000
0000
1001
0000
,
0001
0001
0010
0010
0100
0100
1000
0010
,
1000
0001
0100
0010
0100
0000
1001
0000
,
0010
1000
0010
0000
0100
0001
0100
0000
,
0010
1000
0001
0100
0010
0000
1001
0000
,
0001
0001
1000
1000
0001
0001
1000
1000
,
0001
1000
0010
1000
0002
0000
1003
0000
,
1001
0000
0100
1001
0000
0010
1001
0000
,
0001
0001
1000
1000
0001
1000
0001
1000
,
0100
0000
0010
0110
0000
0100
0110
0000
,
0001
0001
1000
0010
0100
0001
0010
0100
,
0010
0000
0010
0011
0000
0001
0011
0000
,
0100
1000
1000
0100
1000
0010
0100
0001
,
2000
0000
0000
0000
0000
0000
0000
0000
0000
0000
0000
0000
0000
0000
0000
0000
0000
0000
0000
0000
0000
0000
0000
0000
0000
0000
0000
0000
0000
0000
0000
0000
0000
0000
0000
0000
0000
0000
0000
0000
0000
0000
0000
0000
0000
0000
0000
0000
0010
0000
0000
0000
0000
0000
0000
0000
0000
0000
0000
0000
0000
0000
0000
0000
0000
0000
0000
0000
0000
0000
0000
0000
0000
0000
0000
0000
0000
0000
0000
0000
0000
0000
0000
0000
0000
0000
0000
0000
0000
0000
0000
0000
0000
0000
0000
0000
0001
3000
0000
0000
0000
0000
0000
0000
0000
0000
0000
0000
0000
0000
0000
0000
0000
0000
0000
0000
0000
0000
0000
0000
0000
0000
0000
0000
0000
0000
0000
0000
0000
0000
0000
0000
0000
0000
0000
0000
0000
0000
0000
0000
0000
0000
0000
0000
1001
0000
0000
0000
0000
0000
0000
0000
0000
0000
0000
0000
0000
0000
0000
0000
0000
0000
0000
0000
0000
0000
0000
0000
0000
0000
0000
0000
0000
0000
0000
0000
0000
0000
0000
0000
0000
0000
0000
0000
0000
0000
0000
0000
0000
0000
0000
0000
,
0002
0100
0013
1100
,
0011
0000
0001
1100
0000
1000
0101
0000
,
0010
0010
1000
0001
0100
0010
1000
0001
,
1010
0000
0010
1010
0000
1000
1010
0000
,
0010
0010
0100
0100
0001
1000
0100
0010
,
0011
0000
0001
1001
0000
1000
1001
0000
,
0001
0100
0010
1000
0001
0001
1000
0010
,
0200
0010
0301
1001
,
0020
0001
1030
1001
,
0220
0000
0000
0000
0330
0000
0000
0000
0000
0000
1000
0000
0000
0001
0000
0000
,
1001
0000
0000
0010
,
2002
0000
0000
0000
0000
0000
3003
0000
0000
0000
0001
0000
0000
1000
0000
0000
,
1001
0000
0000
0100
0000
0000
0010
0100
0001
2000
0000
0000
,
3001
0100
0010
1001
,
0100
0010
0001
1001
,
0010
1000
0010
0000
0100
0001
0100
0000
,
0010
1000
0001
0010
0100
1000
0001
1000
,
0010
1000
0010
1000
0010
0100
0001
0100
,
0020
0130
1001
1001
,
0001
0010
0100
0010
0001
0010
0100
1000
,
0002
0103
1001
0110
,
0010
1000
0001
0100
0010
1000
0001
0010
,
0200
1300
1001
0110
,
0001
0100
0010
1000
0001
0100
0010
1000
,
0002
0000
0000
0103
0000
0000
0010
0100
0001
1000
0010
0100
,
1001
0000
0000
0000
;

//---------------dance-single - ----------------
#NOTES:
     dance-single:
     :
     Medium:
     5:
     0.324,0.333,0.307,0.128,0.000: // measure 1
2000
0000
0001
0001
,  // measure 2
3001
0000
1001
1001
,  // measure 3
0002
0000
1000
1000
,  // measure 4
1003
0000
1001
1001
,  // measure 5
0200
0000
0010
0010
,  // measure 6
0310
0000
0110
1001
,  // measure 7
0020
0000
0100
0100
,  // measure 8
0100
0030
0000
0000
1001
0000
0110
0000
,  // measure 9
1000
0010
1000
0000
0002
0000
0003
0000
,  // measure 10
1000
0100
1000
0000
0020
0000
0030
0000
,  // measure 11
0100
0001
0100
0000
0020
0000
0030
0000
,  // measure 12
1000
0100
1000
0000
0002
0000
0003
0000
,  // measure 13
1001
0000
0000
0000
,  // measure 14
0110
0000
0000
0000
,  // measure 15
2000
0000
0000
3000
,  // measure 16
0002
0000
0000
0003
,  // measure 17
1000
0001
1000
0000
,  // measure 18
0010
0100
0010
0000
,  // measure 19
0100
0100
0100
0000
,  // measure 20
0001
1000
0001
0000
,  // measure 21
1000
0010
1000
0000
0001
0000
0100
0000
,  // measure 22
0010
0100
0010
0000
1001
0000
0000
0000
,  // measure 23
0001
1000
0001
0000
0010
0000
0100
0000
,  // measure 24
1000
0100
1000
0000
1001
0000
0000
0000
,  // measure 25
0001
1000
0001
0000
0100
0000
0010
0000
,  // measure 26
1000
0001
1000
0000
0010
0000
0100
0000
,  // measure 27
0001
1000
0010
0000
0100
0000
0001
0000
,  // measure 28
0010
0100
1000
0000
1001
0000
0000
0000
,  // measure 29
1001
0000
0000
1001
0000
0000
0000
0000
,  // measure 30
0001
0000
1000
0000
0010
1000
0010
0000
,  // measure 31
1010
0000
0000
0101
0000
0000
0000
0000
,  // measure 32
0010
0000
0100
0000
0010
0100
0010
0000
,  // measure 33
0101
0000
0000
1100
0000
0000
0000
0000
,  // measure 34
0001
0000
1000
0000
0001
1000
0001
0000
,  // measure 35
2000
0010
3001
1001
,  // measure 36
0002
0100
1003
1001
,  // measure 37
0020
0000
0000
0130
0000
0000
0000
0000
,  // measure 38
0010
0000
0100
0000
0010
0100
0010
0100
,  // measure 39
0002
0000
0000
1003
0000
0000
0000
0000
,  // measure 40
0001
0000
1000
0000
0001
1000
0001
1000
,  // measure 41
0002
0000
0000
0103
0000
0000
0000
0000
,  // measure 42
0010
0000
0100
0000
0010
0100
0010
0100
,  // measure 43
0010
0010
0010
0110
,  // measure 44
0100
0100
0100
1001
,  // measure 45
0001
0000
0000
0000
0000
1000
0000
0000
,  // measure 46
1001
0000
0000
0000
,  // measure 47
1010
0000
0000
0000
0000
1000
0000
0000
,  // measure 48
0101
0000
0000
0000
,  // measure 49
0010
0100
0010
1001
,  // measure 50
0100
1000
0001
1001
,  // measure 51
1000
0010
0100
0101
,  // measure 52
0010
1000
0001
1001
,  // measure 53
0001
1000
0001
0000
0100
0000
0010
0000
,  // measure 54
0100
0010
1001
0110
,  // measure 55
0010
0100
0010
0000
1000
0000
0001
0000
,  // measure 56
0010
0100
1100
0011
,  // measure 57
0001
1000
0001
0000
0100
0000
0010
0000
,  // measure 58
1000
0001
1001
0110
,  // measure 59
0010
1000
0010
0000
0100
0000
0001
0000
,  // measure 60
1000
0000
0010
0000
1000
0001
1000
0001
,  // measure 61
1000
0000
0000
0000
;

//---------------dance-single - ----------------
#NOTES:
     dance-single:
     :
     Easy:
     3:
     0.199,0.231,0.043,0.120,0.000: // measure 1
0020
0000
0000
0000
,  // measure 2
0030
0000
0000
0000
,  // measure 3
0200
0000
0000
0000
,  // measure 4
0300
0000
0000
0000
,  // measure 5
0002
0000
0000
0000
,  // measure 6
0003
0000
0000
0000
,  // measure 7
2000
0000
0000
0000
,  // measure 8
3001
0000
0000
0000
,  // measure 9
0100
0100
0100
0000
,  // measure 10
0010
0010
0010
0000
,  // measure 11
1000
0001
0100
0000
,  // measure 12
0010
1000
0001
0000
,  // measure 13
1001
0000
0000
0000
,  // measure 14
0100
0000
0000
0000
,  // measure 15
0110
0000
0000
0000
,  // measure 16
0001
0000
0000
0000
,  // measure 17
1000
1000
1000
0000
,  // measure 18
0001
0001
0001
0000
,  // measure 19
1000
0001
1000
0000
,  // measure 20
0010
0100
0010
0000
,  // measure 21
0100
0100
0100
0000
,  // measure 22
0001
0001
0001
0000
,  // measure 23
1000
0001
0100
0000
,  // measure 24
0010
1000
0001
0000
,  // measure 25
1000
1000
0001
0000
,  // measure 26
0100
0100
0010
0000
,  // measure 27
0100
0010
1000
0000
,  // measure 28
0001
0010
0100
0000
,  // measure 29
1000
0000
0001
0000
,  // measure 30
1000
0001
1000
0001
,  // measure 31
0100
0000
0010
0000
,  // measure 32
0100
0001
1000
0010
,  // measure 33
1000
0000
0001
0000
,  // measure 34
0010
0100
1000
0001
,  // measure 35
2000
0000
3000
0001
,  // measure 36
2000
0000
3010
0100
,  // measure 37
0010
0000
0100
0000
,  // measure 38
0010
0100
0001
0010
,  // measure 39
0200
0000
1300
0000
,  // measure 40
1000
0001
0100
0010
,  // measure 41
0200
0000
0301
0000
,  // measure 42
1000
0001
0100
0010
,  // measure 43
2000
0000
0001
3001
,  // measure 44
0200
0000
0010
0310
,  // measure 45
0010
0000
0000
0000
,  // measure 46
0001
0000
0000
0000
,  // measure 47
1010
0000
0000
0000
,  // measure 48
0101
0000
0000
0000
,  // measure 49
0100
0010
0100
0000
,  // measure 50
0001
1000
0001
0000
,  // measure 51
1000
1000
1000
0000
,  // measure 52
0001
0001
0001
0000
,  // measure 53
2000
0000
0001
0001
,  // measure 54
3001
0000
1000
0001
,  // measure 55
0200
0000
0010
0010
,  // measure 56
0310
0000
0100
0010
,  // measure 57
0200
0000
0001
0001
,  // measure 58
0301
0000
1000
0010
,  // measure 59
2000
0000
0001
0001
,  // measure 60
3001
0000
1000
0000
,  // measure 61
1001
0000
0000
0000
;
