#VERSION:0.83;
#TITLE:Gas Gas Gas!;
#SUBTITLE:Initial D;
#ARTIST:Manuel;
#TITLETRANSLIT:;
#SUBTITLETRANSLIT:;
#ARTISTTRANSLIT:;
#GENRE:;
#ORIGIN:;
#CREDIT:;
#BANNER:Gas Gas Gas.png;
#BACKGROUND:Gas Gas Gasbg.png;
#PREVIEWVID:;
#JACKET:;
#CDIMAGE:;
#DISCIMAGE:;
#LYRICSPATH:;
#CDTITLE:Magna Trick title!.png;
#MUSIC:Gas Gas Gas [Initial D].mp3;
#OFFSET:1.115000;
#SAMPLESTART:59.668999;
#SAMPLELENGTH:17.143000;
#SELECTABLE:YES;
#BPMS:0.000=154.000,
32.000=308.000,
36.000=154.000;
#STOPS:164.500=0.390;
#DELAYS:;
#WARPS:;
#TIMESIGNATURES:0.000=4=4;
#TICKCOUNTS:0.000=4;
#COMBOS:0.000=1;
#SPEEDS:0.000=1.000=0.000=0;
#SCROLLS:0.000=1.000;
#FAKES:;
#LABELS:0.000=Song Start,
20.000=start,
52.000=guitar1,
68.000=melody1,
92.000=adj1,
100.000=singing,
128.000=come along,
132.000=take my car,
156.000=i wanna race,
164.000=gas gas gas,
188.000=be a hero,
196.000=gas gas,
220.000=meters hit 0,
228.000=more melody,
252.000=ending melody,
264.000=end;
#BGCHANGES:4.000=Gas Gas Gas.mp4=1.000=0=0=1=====,
99999=-nosongbg-=1.000=0=0=0 // don't automatically add -songbackground-
;
#KEYSOUNDS:;
#ATTACKS:
;

//---------------dance-single - Magna Trick----------------
#NOTEDATA:;
#CHARTNAME:;
#STEPSTYPE:dance-single;
#DESCRIPTION:Magna Trick;
#CHARTSTYLE:;
#DIFFICULTY:Beginner;
#METER:3;
#RADARVALUES:0.197783,0.282100,0.019363,0.058090,0.000000,143.000000,141.000000,2.000000,6.000000,0.000000,0.000000,0.000000,0.000000,0.000000,0.197783,0.282100,0.019363,0.058090,0.000000,143.000000,141.000000,2.000000,6.000000,0.000000,0.000000,0.000000,0.000000,0.000000;
#CREDIT:;
#NOTES:
0000
0000
0000
0000
,
0000
0000
0000
0000
,
0000
0000
0000
0000
,
0000
0000
0000
1000
,
0000
0001
0000
1000
,
0000
0000
0000
0000
,
0000
0000
0000
0000
,
0000
0000
0000
0000
,
0020
0000
0000
0000
,
0030
0000
0000
1000
,
0000
0001
0000
1000
,
0000
0001
0000
1000
,
0000
0001
0000
1000
,
0000
0001
0100
0100
,
0100
0000
0000
0010
0000
0000
0020
0000
,
0000
0030
0000
0000
0100
0000
0000
0000
,
0001
0000
1000
1000
,
0001
1000
0010
0000
,
0010
0000
1000
0000
,
0001
0000
0100
0000
,
0100
0000
0010
0000
,
1000
0000
0001
0000
,
0001
0000
1000
0000
,
0100
0000
0010
0000
,
0010
0000
0100
0000
,
0110
0000
0010
0010
,
0000
0001
0000
1000
,
0000
0010
0000
0100
,
0000
0001
0002
0000
,
1003
0000
0010
0010
,
0000
1000
0000
0100
,
0000
0010
0000
0001
,
0000
0001
0001
0001
,
1000
1000
0000
0010
,
0000
0100
0000
0001
,
0001
0000
0000
1000
,
1000
0000
0010
0000
,
0100
0000
0001
0001
,
1000
1000
0000
0100
,
0010
0000
0100
0100
,
1000
0000
1000
0000
0000
0010
0000
0001
,
0000
0000
0200
0300
1001
0000
0000
0000
0000
0000
0000
0000
1000
0000
0000
0000
,
0000
0001
0001
1000
,
1000
0001
0000
1000
,
0000
0001
0000
1000
,
1000
0001
0000
1000
,
0000
0010
0000
0100
,
0000
0001
0000
1000
,
0001
1000
0000
0001
,
0000
0100
0000
0010
,
0000
0100
0000
0001
,
0001
1000
0000
0100
,
0000
0010
0000
0001
,
0001
1000
0000
0010
,
0000
0100
0000
0001
,
0001
1000
1000
0001
,
1000
0200
0000
0320
,
0000
0031
1000
0000
,
0001
0000
0100
0000
,
0010
1000
1000
0000
,
0001
0000
0100
0000
,
0010
1000
1000
0000
,
0001
0000
0100
0000
,
0010
1000
1000
0000
,
0001
0000
1000
0001
;

//---------------dance-single - Magna Trick----------------
#NOTEDATA:;
#CHARTNAME:;
#STEPSTYPE:dance-single;
#DESCRIPTION:Magna Trick;
#CHARTSTYLE:;
#DIFFICULTY:Easy;
#METER:5;
#RADARVALUES:0.300132,0.313444,0.096817,0.212997,0.000000,217.000000,207.000000,10.000000,22.000000,0.000000,0.000000,0.000000,0.000000,0.000000,0.300132,0.313444,0.096817,0.212997,0.000000,217.000000,207.000000,10.000000,22.000000,0.000000,0.000000,0.000000,0.000000,0.000000;
#CREDIT:;
#NOTES:
0000
0000
0000
0000
,
0000
0000
0000
0000
,
1000
0001
1000
0001
,
0100
0010
1000
0002
,
0003
2000
3000
0002
,
1003
0001
1000
0001
,
1000
0010
1000
0010
,
0100
0001
0100
0001
,
2000
0000
0000
0000
,
0000
0000
0000
0000
3000
0001
0000
1000
,
0000
0000
0000
0000
0000
0010
0000
0100
,
0000
0000
0000
0000
0000
0001
0000
0010
,
0000
0000
0000
0000
0000
1000
0000
0100
,
0000
0000
0001
0001
,
1000
0000
0000
0010
0000
0000
0010
0000
,
0000
0000
0010
1000
,
0001
0000
0000
0100
0000
0100
0000
0010
,
0000
0020
0000
0000
1030
0000
0100
0000
,
1000
0100
0010
0001
,
0010
0001
0100
0010
,
0100
0010
1000
0001
,
1000
0001
0100
0010
,
1000
0001
0100
0010
,
1000
0001
1000
1000
,
0001
0001
1000
0010
,
0100
0000
0001
0001
,
0100
0000
0010
1000
,
0100
0000
1000
1000
,
0100
0010
0002
0000
,
2003
0000
0000
3000
0010
0000
0100
0000
,
0001
1000
1000
0001
,
0100
0000
0010
0100
,
0001
1000
0100
0100
,
0010
0010
0000
0100
,
1000
0010
0100
0001
,
0001
0000
0000
0100
,
0010
1000
0100
0010
,
0010
0000
0100
1000
,
0001
0000
0100
0000
0000
0010
0000
0010
,
0000
0010
0000
0000
0100
0000
0001
0000
,
1000
0000
0001
1000
0000
0001
0000
0001
,
0000
0000
2002
3003
0020
0000
0000
0000
0000
0000
0230
0000
0000
0000
0000
0000
,
0000
0302
0000
0000
1003
0000
0100
0000
,
0000
0010
0000
0000
0010
0001
0000
0000
,
0001
1000
0000
0000
0010
0000
0100
0000
,
0000
0000
0101
0000
0000
0101
0000
0000
,
0000
1001
0000
0000
0100
0000
0010
0000
,
1000
0000
0000
0200
0000
0302
0000
2003
,
0000
3020
0000
0000
0000
0230
0000
0000
,
0000
0300
1010
0000
0000
1010
0000
0000
,
0000
1001
0000
0000
0100
0000
0010
0000
,
1000
0100
0000
0000
0010
0001
0000
0000
,
0001
0100
0000
0000
0010
0000
1000
0000
,
0000
0000
0110
0000
0000
0110
0000
0000
,
0000
1001
0000
0000
1000
0000
1000
0000
,
0000
0010
0000
0200
0000
0302
0000
2003
,
0000
3020
0000
0000
0000
2030
0000
0000
,
0000
3000
0001
0000
1000
0000
0010
0000
,
0100
0001
1000
0010
,
0010
1000
0100
0010
,
0001
1000
0100
0010
,
0010
0000
0100
1000
0010
0000
0100
0000
,
0001
1000
0010
0100
,
0001
1000
1000
0001
,
0100
0010
1000
0001
;

//---------------dance-single - Magna Trick----------------
#NOTEDATA:;
#CHARTNAME:;
#STEPSTYPE:dance-single;
#DESCRIPTION:Magna Trick;
#CHARTSTYLE:;
#DIFFICULTY:Medium;
#METER:10;
#RADARVALUES:0.369286,0.379037,0.009682,0.125862,0.000000,267.000000,266.000000,1.000000,13.000000,0.000000,0.000000,0.000000,0.000000,0.000000,0.369286,0.379037,0.009682,0.125862,0.000000,267.000000,266.000000,1.000000,13.000000,0.000000,0.000000,0.000000,0.000000,0.000000;
#CREDIT:;
#NOTES:
0000
0000
0000
0000
,
0000
0000
0000
0000
,
0100
0010
1000
0001
,
1000
0001
1000
0001
0000
0000
0200
0000
,
0300
0200
0300
0200
,
0310
1000
0010
1000
0000
0000
0010
0000
,
0100
0001
1000
0100
,
0010
0001
0010
0001
0000
0000
1000
0000
,
0002
0000
0000
0000
,
0000
0000
0000
0000
0003
1000
0010
0100
,
0000
0000
0000
0000
0000
0001
0000
0100
,
0000
0000
0000
0000
0000
0010
0000
1000
,
0000
0000
0000
0000
0000
0100
0000
0001
,
0000
0000
1000
0001
,
1000
0000
0001
1000
0000
1000
0001
0000
,
0000
0000
0000
0000
0100
0010
0100
0010
,
0000
1000
0001
0100
0000
0010
1000
0001
,
0000
0200
0000
0300
0010
0100
0010
0000
,
1000
0010
1000
0000
0001
0100
0001
0000
,
1000
0000
0010
0000
0100
0010
0100
0000
,
0010
1000
0010
0000
0100
0001
0100
0000
,
0010
0000
1000
0000
0001
1000
0001
0000
,
0100
0010
0100
0000
0010
0100
0001
0000
,
1000
0000
0100
0000
0010
1000
0010
0000
,
0100
0001
0100
0000
0001
0000
0100
0000
,
1100
0000
0100
0001
,
1000
0000
0001
0000
1000
0001
1000
0000
,
0010
0000
0100
0001
,
0100
0000
0010
0000
0010
1000
0010
0000
,
0100
0001
0100
0000
0001
0000
1000
0000
,
0100
0010
0001
0001
,
0100
0000
0010
0100
,
0001
0000
1000
0000
0001
1000
0001
0000
,
0100
0010
0100
0000
0000
0000
0010
1000
,
0010
0000
0100
0000
0001
0000
1000
0001
,
1000
0000
0100
0010
,
0001
0000
1000
0001
1000
0000
0001
0000
,
0100
0000
0000
0000
0010
0100
0010
0000
,
0100
0010
0100
0000
0010
0000
1000
0000
,
0001
0000
0001
1000
,
0100
0000
0010
0010
0000
0010
0000
0010
,
0000
0000
0020
0030
0002
0000
0000
0000
0000
0000
2003
0000
0000
0000
0000
0000
,
3000
0020
0000
0000
0130
0000
0001
0000
,
0100
0010
0000
0000
0010
0100
0000
0000
,
0100
0001
0000
0000
0001
0000
1000
0001
,
1000
0000
0010
0000
0100
0001
0000
0000
,
0001
1000
0000
0000
1000
0000
0100
0000
,
0010
0100
0000
0010
0000
0100
0000
0010
,
0000
0001
0020
0000
0000
0032
0000
0000
,
0000
0003
1000
0000
0010
0100
0000
0000
,
0001
0100
0000
0000
0010
0000
1000
0000
,
0001
1000
0000
0000
0100
0010
0000
0000
,
1000
0001
0000
0000
0001
0000
1000
0100
,
0010
0000
0001
0000
1000
0010
0000
0000
,
0100
0001
0000
0000
0001
0000
0100
0000
,
0010
1000
0000
0001
1000
0001
0000
1000
,
0000
0010
0200
0000
0000
0000
0301
0000
,
0000
0000
0001
0100
0010
0000
1000
0000
,
0001
0000
0100
0010
1000
0000
0001
0100
,
0010
1000
0001
1000
,
0010
0000
0100
0010
1000
0000
0001
0100
,
0010
1000
0001
1000
,
0010
0000
0100
0001
1000
0000
0010
0100
,
0001
1000
0010
0100
,
0001
0000
1000
0001
1000
0001
0020
0000
,
0000
0030
0000
0000
;

//---------------dance-single - Magna Trick----------------
#NOTEDATA:;
#CHARTNAME:;
#STEPSTYPE:dance-single;
#DESCRIPTION:Magna Trick;
#CHARTSTYLE:;
#DIFFICULTY:Hard;
#METER:11;
#RADARVALUES:0.538024,0.504415,0.145225,0.222678,0.000000,389.000000,374.000000,15.000000,23.000000,0.000000,0.000000,0.000000,0.000000,0.000000,0.538024,0.504415,0.145225,0.222678,0.000000,389.000000,374.000000,15.000000,23.000000,0.000000,0.000000,0.000000,0.000000,0.000000;
#CREDIT:;
#NOTES:
// measure 0
0000
0000
0000
0000
,  // measure 1
0001
1000
0001
2000
0000
3000
0000
0001
,  // measure 2
0100
0001
1000
0010
1000
0100
0010
0100
,  // measure 3
1000
1000
0001
0010
0000
0000
1001
0000
,  // measure 4
0000
0110
0000
1001
,  // measure 5
1000
0001
1000
0002
0000
0003
0000
1000
,  // measure 6
0100
1000
0001
0010
0001
0100
0010
0100
,  // measure 7
0001
0001
1000
0010
0000
0000
0100
0000
,  // measure 8
2001
0000
0000
0000
,  // measure 9
0001
0000
0000
3000
0000
0001
0010
0100
,  // measure 10
0000
0000
0000
0000
0000
1000
0010
0100
,  // measure 11
0000
0001
0000
1000
0000
0100
0010
0001
,  // measure 12
0000
1000
0000
0001
0000
0010
0100
1000
,  // measure 13
0000
1000
0000
0010
1010
0000
1000
0000
,  // measure 14
1100
0000
0100
0110
0000
0010
0022
0000
,  // measure 15
0000
0000
0033
0010
0001
0100
0010
0100
,  // measure 16
0000
0001
0100
0020
0000
1030
0100
0002
,  // measure 17
0000
0203
0000
0300
1000
0100
1000
0100
,  // measure 18
0010
0001
0010
0001
0100
0010
0100
0001
,  // measure 19
1000
0010
0100
0000
0010
0100
0010
0100
,  // measure 20
0001
1000
0001
1000
0100
0010
0001
1000
,  // measure 21
0010
0010
0100
0000
0001
0010
0001
0010
,  // measure 22
0100
1000
0100
1000
0001
0100
0001
1000
,  // measure 23
0010
0100
0001
0000
0001
1000
0001
1000
,  // measure 24
0100
0010
0100
0010
0001
0001
0010
0100
,  // measure 25
2000
0000
3000
0000
1000
0100
1000
0001
,  // measure 26
0100
0010
1000
0100
0010
0010
0001
2000
,  // measure 27
0000
0000
3000
0001
0000
0001
1000
0010
,  // measure 28
0000
0100
0000
0002
1000
0000
0003
2000
,  // measure 29
0000
0000
3000
0000
1000
0010
0100
0010
,  // measure 30
1000
0010
0100
0010
1000
0001
0100
0020
,  // measure 31
0000
0030
0000
1100
0000
0100
0010
0100
,  // measure 32
0001
0100
1000
0000
0001
0010
0001
0000
,  // measure 33
1000
0001
1000
0000
0001
0000
0100
0010
,  // measure 34
1000
0010
0100
0001
1000
0000
0010
1000
,  // measure 35
0010
1000
0001
0000
1000
0000
0001
0010
,  // measure 36
1000
0010
0001
0010
0000
0100
1000
0001
,  // measure 37
0000
1001
0000
0000
1000
0001
1000
0001
,  // measure 38
0100
0010
0100
0010
0000
0100
0010
1000
,  // measure 39
0000
0002
0000
0003
0100
0001
0100
0001
,  // measure 40
0000
1000
0100
0001
0000
0100
1000
0010
,  // measure 41
0000
0000
0200
0300
0001
0000
0000
0000
1000
0000
0001
0000
0000
0000
1000
0000
,  // measure 42
0100
1000
0000
0100
0010
0001
0010
0100
,  // measure 43
1000
0001
0000
0001
1000
0010
0000
0010
,  // measure 44
0100
0001
0000
0001
1000
0100
0010
0001
,  // measure 45
1000
0000
0010
0000
1000
0010
0000
0010
,  // measure 46
1000
0010
0000
0010
1000
0001
0100
0010
,  // measure 47
1000
0001
0000
0001
1000
0100
0000
0110
,  // measure 48
0000
0022
0000
0000
0033
2002
0000
0000
,  // measure 49
0000
3003
0010
0000
0100
0001
0000
1000
,  // measure 50
0100
0010
0000
0001
0010
0001
0100
0001
,  // measure 51
1000
0020
0000
0030
0100
0002
0000
0000
,  // measure 52
1003
0020
0000
0130
1000
0100
0001
0010
,  // measure 53
0100
0000
1000
0000
0100
0001
0000
0100
,  // measure 54
1000
0001
0000
0010
1000
0001
0100
0010
,  // measure 55
0100
1000
0000
0001
0100
1000
0000
1001
,  // measure 56
0000
0010
0100
0000
0001
0000
1001
0000
,  // measure 57
0010
0000
1000
0100
1000
0100
0010
0001
,  // measure 58
0010
0001
0100
0010
0100
0001
1000
0010
,  // measure 59
0100
0000
0010
0100
0010
0100
0001
1000
,  // measure 60
0001
1000
0100
0010
0001
1000
0010
0010
,  // measure 61
0100
0000
0001
0010
0001
0010
0100
1000
,  // measure 62
0100
1000
0001
0100
0001
1000
0010
0100
,  // measure 63
0001
0000
0001
1000
0001
1000
0100
0010
,  // measure 64
0100
0010
0001
0001
0010
0100
2000
0000
,  // measure 65
0000
3000
0000
0000
0000
0000
0000
0000
;

//---------------dance-single - Magna Trick----------------
#NOTEDATA:;
#CHARTNAME:;
#STEPSTYPE:dance-single;
#DESCRIPTION:Magna Trick;
#CHARTSTYLE:;
#DIFFICULTY:Challenge;
#METER:15;
#RADARVALUES:0.710911,1.024885,0.183952,0.203315,0.513128,514.000000,495.000000,19.000000,21.000000,0.000000,0.000000,0.000000,0.000000,0.000000,0.710911,1.024885,0.183952,0.203315,0.513128,514.000000,495.000000,19.000000,21.000000,0.000000,0.000000,0.000000,0.000000,0.000000;
#CREDIT:;
#NOTES:
0000
0000
0000
0000
,
1010
1000
1100
1002
0000
0003
0000
1000
,
0100
0001
0010
1000
0100
1000
0010
0001
,
0101
0100
0110
1100
0000
0000
1000
0000
,
0010
1000
0010
1000
0001
0100
0001
0010
0100
1000
0001
1000
0100
0010
0100
1000
,
0001
0010
0001
1000
0100
1000
0010
0100
,
0001
0001
1000
0100
0100
0010
0001
0100
,
1000
1000
0001
0010
0100
0000
1000
0001
,
1002
0000
0000
0000
,
1000
0000
0000
0003
0000
1000
0010
0100
,
0000
0001
0000
1000
0000
0001
0010
0100
,
0000
1000
0000
0001
0000
0100
0010
1000
,
0000
0001
0000
1000
0000
0010
0100
0001
,
0000
0000
0001
0000
0000
0000
0010
0001
1000
0000
1000
0001
0010
0000
0010
0001
,
0100
0000
0000
0000
0100
0010
1000
0000
0000
0000
0010
1000
0200
0000
0000
0000
,
0000
0000
0300
0000
0000
0000
0010
0001
1000
0000
0100
0000
0010
0000
0100
0000
,
0000
1000
0100
0021
0000
0031
0100
2000
,
0000
0000
3200
0000
0000
0000
0300
0000
0001
0000
0100
0001
0100
0000
0010
1000
,
0000
1000
0100
0000
0010
0000
0001
1000
0000
1000
0100
0000
0100
0010
0000
0010
,
0001
0000
1000
0010
0000
0100
0010
1000
0001
0000
0100
0010
0100
0000
0010
0100
,
0000
0100
0001
0000
1000
0010
1000
0001
0100
0010
1000
0001
1000
0010
0100
0001
,
1000
0100
0010
0001
1000
0000
0010
1000
0010
0100
0001
1000
0100
0000
0010
0001
,
0000
0001
0100
0000
0010
1000
0001
1000
0100
0010
0100
1000
0010
1000
0001
0010
,
0100
1000
0001
0100
0010
0000
1000
0100
1000
0100
0010
0001
0010
0001
1000
0010
,
0100
0001
1000
0100
1000
0001
0100
0001
1000
0000
1000
0010
0000
0010
0100
0000
,
0002
0000
0003
0000
0001
0100
0001
1000
,
0100
0010
0001
0100
0010
0010
1000
0002
,
1000
1000
1003
0001
0000
1000
0001
0010
,
0000
0100
0000
2000
0001
0000
3000
0002
,
0000
0000
1003
0000
0001
0010
0100
0010
,
0001
0010
0100
0010
0001
1000
0100
0020
,
0001
0031
0001
0101
0000
0100
0010
0100
,
1000
0100
0001
0000
1000
0100
1100
0000
,
0001
0100
0101
0000
1001
0000
0100
0010
,
0001
0010
0100
1000
0001
0000
0010
0001
,
0010
0001
1000
0000
0001
0000
1000
0010
,
0001
0010
1000
0010
0000
0100
0001
1000
,
0000
1001
0000
0000
0001
0100
1000
0010
,
1000
0100
0001
0010
0000
0100
0010
0001
,
0000
2000
0000
3000
0100
1000
0100
1000
,
0000
0000
0001
0000
0100
1000
0001
0000
0000
0000
0010
0000
1000
0000
0001
0000
,
0000
0000
0200
0300
1000
0000
0000
0000
0001
0000
1000
0000
0000
0000
0001
0000
,
0100
0001
0000
0100
0010
1000
0010
0100
,
0001
1000
0000
1000
0001
0010
0000
0010
,
0100
1000
0000
1000
0001
0100
0010
1000
,
0001
0000
0010
0000
0001
0010
0000
0010
,
0001
0010
0000
0010
0001
1000
0100
0010
,
0001
1000
0000
1000
0001
0100
0000
0110
,
0000
2020
0000
0000
3030
2002
0000
0000
,
0000
3003
0010
0000
0100
1000
0000
0001
,
0100
0010
0000
1000
0010
1000
0100
1000
,
0001
0020
0000
0030
0100
2000
0000
0000
,
3001
0020
0000
0130
0001
0100
1000
0010
,
0100
0000
0001
0000
0100
1000
0000
0100
,
0001
1000
0000
0010
0001
1000
0100
0010
,
0100
0001
0000
1000
0100
0001
0000
1001
,
0000
0010
0110
0000
1000
0000
1001
0000
,
0010
0000
0000
0000
0001
0000
0100
0001
0100
0000
0010
1000
0000
1000
0100
0000
,
0010
0000
0001
1000
0000
1000
0100
0000
0100
0010
0000
0010
0001
0000
1000
0010
,
0000
0100
0010
1000
0001
0000
0100
0010
0100
0000
0010
0100
0000
0100
0001
0000
,
1000
0010
1000
0001
0100
0010
1000
0001
1000
0010
0100
0001
1000
0100
0010
0001
,
1000
0000
0010
1000
0010
0100
0001
1000
0100
0000
0010
0001
0000
0001
0100
0000
,
0010
1000
0001
1000
0100
0010
0100
1000
0010
1000
0001
0010
0100
1000
0001
0100
,
0010
0000
1000
0100
1000
0100
0010
0001
0010
0001
1000
0010
0100
0001
1000
0100
,
1000
0001
0100
0001
1000
0000
1000
0010
0000
0010
0100
0000
0002
0000
0000
0000
,
0000
0003
0000
0000
0000
0000
0000
0000
,
0000
0000
0000
0000
0000
0000
0000
0000
0000
0000
0000
0000
0000
0000
0000
0000
0000
0000
0000
0000
0000
0000
0000
0000
1000
0000
0000
0000
0000
0000
0000
1000
0000
0000
0000
0000
0000
0000
0000
0000
0000
0000
0000
0000
0000
0000
0000
0000
0000
0000
0000
0000
0000
0000
0000
0000
0000
0000
0000
0000
0000
0000
0000
0000
0000
0000
0000
0000
0000
0000
0000
0000
0000
0000
0000
0000
0000
0000
0000
0000
0000
0000
0000
0000
0000
0000
0000
0000
0000
0000
0000
0000
0000
0000
0000
0000
0000
0000
0000
0000
0000
0000
0000
0000
0000
0000
0000
0000
0000
0000
0000
0000
0000
0000
0000
0000
0000
0000
0000
0000
0000
0000
0000
0000
0000
0000
0000
0000
0000
0000
0000
0000
0000
0000
0000
0000
0000
0000
0000
0000
0000
0000
0000
0000
0000
0000
0000
0000
0000
0000
0000
0000
0000
0000
0000
0000
0000
0000
0000
0000
0000
0000
0000
0000
0000
0000
0000
0000
0000
0000
0000
0000
0000
0000
0000
0000
0000
0000
0000
0000
0000
0000
0000
0000
0000
0000
0000
0000
0000
0000
0000
0000
;
