#VERSION:0.83;
#TITLE:Enamorado de tí;
#SUBTITLE:;
#ARTIST:Glup!;
#TITLETRANSLIT:;
#SUBTITLETRANSLIT:;
#ARTISTTRANSLIT:;
#GENRE:Rock;
#ORIGIN:;
#CREDIT:OpenITG3;
#BANNER:Enamorado de tí-bn.png;
#BACKGROUND:Enamorado de tí-bg.png;
#PREVIEWVID:;
#JACKET:jacket.png;
#CDIMAGE:;
#DISCIMAGE:;
#LYRICSPATH:;
#CDTITLE:;
#MUSIC:Enamorado de tí.ogg;
#OFFSET:-0.376949;
#SAMPLESTART:37.589001;
#SAMPLELENGTH:12.000000;
#SELECTABLE:YES;
#BPMS:0.000=93.924,
140.000=94.184,
164.000=94.004;
#STOPS:;
#DELAYS:;
#WARPS:;
#TIMESIGNATURES:0.000=4=4;
#TICKCOUNTS:0.000=4;
#COMBOS:0.000=1;
#SPEEDS:0.000=1.000=0.000=0;
#SCROLLS:0.000=1.000;
#FAKES:;
#LABELS:0.000=Song Start;
#BGCHANGES:;
#KEYSOUNDS:;
#ATTACKS:
;

//---------------dance-single - ----------------
#NOTEDATA:;
#CHARTNAME:;
#STEPSTYPE:dance-single;
#DESCRIPTION:;
#CHARTSTYLE:;
#DIFFICULTY:Beginner;
#METER:1;
#RADARVALUES:0.119524,0.190761,0.127174,0.127174,0.000000,125.000000,106.000000,19.000000,19.000000,0.000000,0.000000,0.000000,0.000000,0.000000,0.119524,0.190761,0.127174,0.127174,0.000000,125.000000,106.000000,19.000000,19.000000,0.000000,0.000000,0.000000,0.000000,0.000000;
#CREDIT:OpenITG3;
#NOTES:
0000
0000
0000
0000
,
0000
0000
0000
0000
,
0000
0000
0000
0000
,
2002
0000
3003
0000
,
0010
0000
1000
0000
,
0100
0000
0001
0001
,
2002
0000
3003
0000
,
0010
0000
0001
0000
,
0100
0000
1000
1000
,
2000
0000
3000
0000
,
0002
0000
0003
0000
,
0200
0000
0300
0010
,
0020
0000
0030
0000
,
1001
0000
0010
0000
,
0110
0000
0000
0000
,
0100
0100
0100
0000
,
0001
0001
0001
0000
,
1000
1000
1000
0000
,
0010
0010
0010
0000
,
0100
0000
1001
1001
,
2002
0000
3003
0000
,
1000
0000
0001
0000
,
0110
0000
0000
0000
,
0001
0000
1000
0000
,
0100
0000
0010
0000
,
1000
0000
0001
0001
,
1001
0000
0100
0000
,
0010
0000
0100
0000
,
0001
0000
1000
1000
,
2000
0000
3000
0000
,
0200
0000
0300
0000
,
0020
0000
0030
0001
,
0002
0000
0003
0000
,
1001
0000
0010
0000
,
0110
0000
0000
0000
,
2000
0000
3000
0000
,
0110
0000
0000
0010
,
0020
0000
0030
0000
,
1001
0000
0000
0001
,
0002
0000
0003
0000
,
1001
0000
0000
0000
,
0001
0000
1000
0000
,
0100
0100
0100
0000
,
0010
0000
1000
0000
,
0001
0001
0001
0000
,
0110
0000
0100
0000
,
2002
0000
3003
0000
,
0010
0000
1000
1000
,
1000
0000
0000
0000
,
0100
0000
0010
0000
,
0100
0100
0100
0000
,
0001
0000
1000
0000
,
0010
0010
0010
0000
,
1001
0000
1000
0000
,
1001
0000
1000
1000
,
1000
0000
0100
0000
,
0010
0000
0010
0000
,
0110
0000
0000
0000
;

//---------------dance-single - ----------------
#NOTEDATA:;
#CHARTNAME:;
#STEPSTYPE:dance-single;
#DESCRIPTION:;
#CHARTSTYLE:;
#DIFFICULTY:Easy;
#METER:2;
#RADARVALUES:0.225662,0.247989,0.327974,0.461841,0.000000,236.000000,187.000000,49.000000,69.000000,0.000000,0.000000,0.000000,0.000000,0.000000,0.225662,0.247989,0.327974,0.461841,0.000000,236.000000,187.000000,49.000000,69.000000,0.000000,0.000000,0.000000,0.000000,0.000000;
#CREDIT:;
#NOTES:
0000
0000
0000
0000
,
0000
0000
0000
0000
,
0000
0000
0000
0000
,
0001
0100
0010
1000
,
2002
3003
0220
0330
,
0001
1000
0010
0000
,
1000
0100
1000
0010
,
0202
0303
2002
3003
,
0100
1000
0010
0010
,
2100
0000
0010
3010
,
0102
0000
0100
0103
,
2020
3030
0100
0001
,
0202
0303
0001
0010
,
2002
3003
0110
1100
,
0010
0010
0100
0100
,
0001
1000
0001
0100
,
2100
0100
0010
3010
,
0100
1000
0010
0100
,
0202
0303
0010
0110
,
1001
0100
2000
3200
,
0320
0001
0031
0100
,
2001
3100
0011
0100
,
1000
1000
0001
0001
,
1000
0010
1000
0001
,
0220
0330
2002
3003
,
0100
0001
1000
0010
,
2002
3003
0100
0010
,
0202
0303
2020
3030
,
0001
1000
0010
0001
,
0102
0000
0010
0013
,
2100
0000
0100
3001
,
0220
0330
0001
1000
,
2200
3300
0010
0100
,
2002
3003
0010
0100
,
0020
0130
2000
3001
,
2002
3003
0010
0100
,
2020
3030
0100
0001
,
0022
0033
0100
0001
,
0220
0330
1000
0001
,
2200
3300
0010
0100
,
1001
0000
1000
0001
,
1000
0001
1000
0010
,
0012
0010
0100
0103
,
0010
0001
0100
0010
,
2020
3030
0100
0110
,
1001
0010
0002
0023
,
0230
1000
1300
0010
,
1002
0013
1100
0010
,
1000
1000
0001
0001
,
0200
0010
0001
0310
,
2002
3003
0110
0100
,
2010
0010
0100
3001
,
0202
0303
0010
0001
,
0102
0103
1010
1100
,
0002
0103
2000
3010
,
1100
0010
0101
0001
,
0110
0100
1000
0001
,
0010
0000
0000
0000
;

//---------------dance-single - ----------------
#NOTEDATA:;
#CHARTNAME:;
#STEPSTYPE:dance-single;
#DESCRIPTION:;
#CHARTSTYLE:;
#DIFFICULTY:Medium;
#METER:4;
#RADARVALUES:0.301201,0.305217,0.321281,0.287814,0.000000,315.000000,267.000000,48.000000,43.000000,0.000000,0.000000,0.000000,0.000000,0.000000,0.301201,0.305217,0.321281,0.287814,0.000000,315.000000,267.000000,48.000000,43.000000,0.000000,0.000000,0.000000,0.000000,0.000000;
#CREDIT:;
#NOTES:
0000
0000
0000
0000
,
0000
0000
0000
0000
,
0000
0000
0000
0000
,
0200
1000
0010
0301
,
2001
3010
0102
1003
,
0001
1000
0100
0000
0010
0000
0001
0100
,
1000
0000
0110
0000
1000
0100
0010
0000
,
2010
3010
1002
0103
,
0010
0001
1000
0000
0010
0100
0010
0000
,
2100
0000
0100
0000
3001
0000
0010
0100
,
0002
0000
0010
0000
0103
0000
0100
0010
,
2000
0000
0100
0000
3001
0000
0001
0010
,
0200
0000
0310
0000
1000
0100
0010
0000
,
0100
0001
0100
0000
0020
0000
2030
0000
,
3001
0000
1001
0000
0010
0100
0001
0000
,
1010
0000
1100
0000
0100
1000
0100
0000
,
0011
0000
0101
0000
0010
0100
0010
0000
,
1001
0000
0110
0000
0001
0010
0100
0000
,
2002
0000
3003
0000
1000
0100
0001
0000
,
0011
0000
0100
0010
2000
0000
3200
0000
,
2300
0000
3001
0000
0001
0010
0100
0000
,
1000
0001
0100
0000
0011
0000
0100
0000
,
1001
0000
0110
0000
0001
0100
0010
0000
,
0120
0001
1000
0130
,
2100
3010
0102
0013
,
1000
0100
0010
0000
1010
0000
0001
0010
,
0200
0000
0310
0000
1000
0100
1000
0000
,
0201
0310
2010
3100
,
0001
0100
0010
0000
0100
1000
0010
0000
,
2001
0000
0100
0000
3010
0000
0010
0100
,
0002
0000
0010
0000
0103
0000
1000
0010
,
0200
0000
0010
0000
0310
1000
0001
0000
,
2010
0000
3100
0000
0010
0001
0010
0000
,
1001
0000
0100
1000
0002
0000
0203
0000
,
0320
0100
1000
1030
,
0001
0100
0010
0000
0001
0000
0100
0000
,
0010
1000
0100
0000
1010
0000
0100
0000
,
0010
0100
0010
0000
0100
0000
0001
0000
,
0010
0100
1000
0000
0110
0000
0001
0000
,
1000
0010
0100
0000
0011
0000
0100
0000
,
1001
0000
0101
0000
0001
0100
0001
0000
,
0101
0000
0011
0000
0010
0001
0010
0000
,
1100
0000
1010
0000
0100
0010
0100
0000
,
1001
0000
0110
0000
1000
0100
0010
0000
,
2002
0000
3003
0000
0001
0010
1000
0000
,
1100
0000
0010
0100
0002
0000
0023
0000
,
0032
0000
1003
0000
1000
0100
0010
0000
,
0001
1000
0010
0000
1100
0000
0010
0000
,
1001
0000
0110
0000
1000
0010
0100
0000
,
2000
0000
3200
0000
0320
0000
0031
0100
,
0010
0000
1001
0000
0010
0100
1000
0000
,
0020
0000
0230
0000
0302
0000
1003
0100
,
0020
0000
0130
0000
0001
0100
0001
0000
,
1010
0000
0100
1000
0010
0000
1000
0100
,
0002
0103
2000
3010
,
1000
1000
0100
0000
0010
0001
0001
0000
,
1001
0000
1100
0000
0010
0100
0001
0000
,
0011
0000
0000
0000
;

//---------------dance-single - ----------------
#NOTEDATA:;
#CHARTNAME:;
#STEPSTYPE:dance-single;
#DESCRIPTION:;
#CHARTSTYLE:;
#DIFFICULTY:Hard;
#METER:6;
#RADARVALUES:0.395864,0.381521,0.341361,0.214187,0.100400,414.000000,363.000000,51.000000,32.000000,0.000000,0.000000,0.000000,0.000000,0.000000,0.395864,0.381521,0.341361,0.214187,0.100400,414.000000,363.000000,51.000000,32.000000,0.000000,0.000000,0.000000,0.000000,0.000000;
#CREDIT:;
#NOTES:
0000
0000
0000
0000
,
0000
0000
0000
0000
,
0000
0000
0000
0000
,
0101
0000
1000
0010
0100
0010
1000
0000
,
0102
0000
0013
0100
2100
0000
3100
0010
,
0001
0100
1000
0100
0001
0010
0001
0000
,
1001
0000
0010
0100
1000
0100
0010
0000
,
2001
0000
3010
0100
1002
0000
0103
0010
,
1000
0010
0100
0000
0001
0010
0100
1000
,
2100
0000
0010
0000
3001
0000
1000
0010
,
0102
0000
0010
0000
1003
0010
0100
0010
,
0201
0000
0001
0000
0310
1000
0010
0100
,
1020
0000
0100
0000
1030
0001
0010
0100
,
0020
0000
0031
0010
0200
0000
2300
0010
,
3001
0000
0000
0000
0000
0000
0101
0000
0000
0000
0000
0010
1000
0000
0000
0100
0000
0000
1000
0000
0000
0010
0000
0000
,
0101
0010
0100
1000
0100
0010
0100
1000
,
0200
0000
0302
0000
0013
0010
0010
0000
,
1010
0100
0001
0100
1000
0100
0001
0010
,
1001
0000
0000
0000
0000
0000
0100
0000
0000
0000
0000
0000
1000
0000
0000
0010
0000
0000
0100
0000
0100
0001
0000
0000
,
0010
0100
0010
1000
0120
0100
2030
0001
,
3100
0010
0100
0000
1000
0010
0100
0001
,
1001
0100
0010
0000
1001
0100
0010
0100
,
1001
0000
0000
0000
0000
0000
1100
0000
0000
0000
0000
0000
0001
0000
0000
0100
0000
0000
0010
0000
0000
1000
0000
1000
,
0010
0000
0101
0000
0010
1000
0100
0010
,
0102
0000
0013
0100
2010
0000
3010
0100
,
1000
0100
0010
0001
1000
1000
0010
0010
,
0101
0000
0001
1000
0100
0010
1000
0000
,
0120
0000
0130
0001
0120
0000
0130
1000
,
0001
0100
0010
1000
0001
0010
0100
1000
,
0012
0000
0100
0000
1003
0000
0001
0100
,
2010
0000
0100
0000
3001
0100
0010
0100
,
1020
0000
1000
0000
0130
0001
0100
0010
,
0201
0000
0010
0000
0301
1000
0100
0010
,
0200
0000
1300
0100
0020
0000
0032
0100
,
0013
0000
0000
0000
0000
0000
0110
0000
0000
0000
0000
0010
0100
0000
0000
1000
0000
0000
0100
0000
0000
0010
0000
0000
,
0101
0000
0000
0000
0000
0000
0000
0000
0000
0000
0000
0000
1000
0000
0000
0000
0000
0000
0000
0000
0000
0100
0000
0000
0000
0000
0000
0010
0000
0000
0000
0000
0000
0001
0000
0100
0000
0000
0000
0000
0000
0000
0000
0000
0000
0000
0000
0000
,
1010
0000
0000
0000
0000
0000
0000
0000
0000
0000
0000
0000
0001
0000
0000
0000
0000
0000
0000
0000
0000
0010
0000
0000
0000
0000
0000
0100
0000
0000
0000
0000
0000
1000
0000
0010
0000
0000
0000
0000
0000
0000
0000
0000
0000
0000
0000
0000
,
0011
0000
0000
0000
0000
0000
0000
0000
0000
0000
0000
0000
0100
0000
0000
0000
0000
0000
0000
0000
0000
0001
0000
0000
0000
0000
0000
1000
0000
0000
0000
0000
0000
0010
0000
0001
0000
0000
0000
0000
0000
0000
0000
0000
0000
0000
0000
0000
,
1100
0000
0000
0000
0000
0000
0000
0000
0000
0000
0000
0000
0010
0000
0000
0000
0000
0000
0000
0000
0000
1000
0000
0000
0000
0000
0000
0001
0000
0000
0000
0000
0000
0100
0000
1000
0000
0000
0000
0000
0000
0000
0000
0000
0000
0000
0000
0000
,
0110
0000
0000
0000
0000
0000
0000
0000
0000
0000
0000
0000
1000
0000
0000
0000
0000
0000
0000
0000
0000
0010
0000
0000
0000
0000
0000
0001
0000
0000
0000
0000
0000
0100
0000
0010
0000
0000
0000
0000
0000
0000
0000
0000
0000
0000
0000
0000
,
1010
0000
0000
0000
0000
0000
0101
0000
0000
0000
0000
0001
1000
0000
0000
0100
0000
0000
0001
0000
0000
0100
0000
0000
,
1010
0100
0010
0001
0010
0100
0010
0001
,
0020
0000
2030
0000
3100
0100
0100
0000
,
0101
0010
1000
0010
0001
0010
1000
0100
,
1001
0000
0000
0000
0000
0000
0010
0000
0000
0000
0000
0000
0001
0000
0000
0100
0000
0000
0010
0000
0010
1000
0000
0000
,
0100
0010
0100
0001
0210
0010
0302
1000
,
0013
0100
0010
0000
0001
0100
0010
1000
,
1001
0010
0100
0000
1001
0010
0100
0010
,
1001
0000
0011
0000
1000
0010
0100
0001
,
1001
0000
0000
0100
0000
0000
1000
0000
0000
0100
0000
0000
0010
0000
0000
0001
0000
0000
0100
0000
0000
0010
0000
0010
,
1000
0100
1000
0100
0010
0001
0010
0000
,
0100
0000
0000
1000
0000
0000
0100
0000
0000
1000
0000
0000
0001
0000
0000
0100
0000
0000
0001
0000
0000
1000
0000
0100
,
0010
0001
0100
0000
0011
0010
0100
1000
,
0110
0000
0000
0100
0000
0000
0001
0000
0000
1000
0000
1000
0020
0000
0000
0130
0000
0000
2000
0000
0000
3100
0000
0000
,
0001
0100
0001
0000
1000
0010
0100
0001
,
1000
1000
0100
0000
0010
0001
0100
0001
,
1001
0000
0000
0000
0000
0000
1100
0000
0000
0000
0000
0100
0010
0000
0000
0100
0000
0000
1000
0000
0000
0010
0000
0000
,
1001
0000
0000
0000
;

//---------------dance-single - ----------------
#NOTEDATA:;
#CHARTNAME:;
#STEPSTYPE:dance-single;
#DESCRIPTION:;
#CHARTSTYLE:;
#DIFFICULTY:Challenge;
#METER:9;
#RADARVALUES:0.583278,0.553205,0.227574,0.180720,0.783122,610.000000,576.000000,34.000000,27.000000,0.000000,0.000000,0.000000,0.000000,0.000000,0.583278,0.553205,0.227574,0.180720,0.783122,610.000000,576.000000,34.000000,27.000000,0.000000,0.000000,0.000000,0.000000,0.000000;
#CREDIT:OpenITG3;
#NOTES:
// measure 0
0000
0000
0000
0000
,  // measure 1
0000
0000
0000
0000
,  // measure 2
0000
0000
0000
0000
,  // measure 3
0100
0000
0000
0001
0000
0100
1000
0000
0000
0010
0000
0000
1000
0000
0000
0001
0000
0000
0100
0000
0001
0010
0000
0000
,  // measure 4
1000
0000
1000
0100
0000
0010
0000
0000
0001
0010
0000
0100
0000
0000
0100
0010
0000
1000
0000
0000
0100
1000
0000
0100
,  // measure 5
0020
0000
0000
0130
0000
0001
0000
0000
0100
0010
0000
0100
0020
0000
0000
1000
0000
0000
0130
0000
0100
0001
0000
0010
,  // measure 6
0100
0000
0000
1000
0000
0010
0001
0000
0000
0100
0000
0000
0001
0000
0000
1000
0000
0000
0010
0000
0010
0100
0000
0000
,  // measure 7
0001
0000
0001
0010
0000
0100
0000
0000
1000
0100
0000
0010
0000
0000
0010
0100
0000
0001
0000
0000
0010
0001
0000
0010
,  // measure 8
0200
0000
0000
0310
0000
1000
0000
0000
0010
0100
0000
0010
0100
0000
0000
0001
0000
0000
0010
0000
0010
1000
0000
0100
,  // measure 9
0010
0000
0000
0001
0000
0000
0101
0000
0000
0001
0000
0010
0000
0000
1000
0000
0000
0100
0010
0000
0000
0100
0000
0000
,  // measure 10
1001
0000
0000
0100
0000
0000
0010
0000
0000
1000
0000
0100
0000
0000
0010
0000
0000
0100
0001
0000
0000
0010
0000
0000
,  // measure 11
1100
0000
0000
1000
0000
0000
0001
0000
0000
0100
0000
0010
0000
0000
0001
0000
0000
1000
0100
0000
0000
0010
0000
0000
,  // measure 12
0001
0000
0000
0100
0000
0010
0001
0000
0000
0100
0000
1000
0000
0000
0100
0000
0000
0001
0010
0000
0001
0100
0000
0000
,  // measure 13
0010
0000
0000
0100
0000
0010
2000
0000
0000
3100
0000
0010
0002
0000
0000
0013
0000
0100
1000
0000
0000
0100
0000
0000
,  // measure 14
1001
0000
0000
0000
0000
0000
0101
0000
0000
0000
0000
0010
1000
0000
0000
0100
0000
0000
1000
0000
0100
0010
0000
0000
,  // measure 15
0101
0000
0000
0010
0000
0010
0100
0000
0100
2000
0000
0000
3200
0000
0000
0310
0000
0010
0001
0000
0001
2000
0000
0000
,  // measure 16
3020
0000
0000
0130
0000
0100
0001
0000
0001
0010
0000
0100
0000
0000
0010
0000
0000
1000
0100
0000
0010
0001
0000
0000
,  // measure 17
1001
0000
1000
0100
0000
0100
0001
0000
0001
0010
0000
0010
0100
0000
0100
1000
0000
1000
0010
0000
0000
0010
0000
0001
,  // measure 18
0000
0000
0100
0000
0000
0010
0100
0000
0000
1000
0000
0100
0000
0000
0010
0000
0000
0010
0001
0000
0000
0100
0000
0000
,  // measure 19
1001
0000
0000
0100
0000
0010
0000
0000
0010
1000
0000
0010
0001
0000
0000
0010
0000
1000
0100
0000
0000
0100
0000
0010
,  // measure 20
0001
0000
0000
0100
0000
0000
1000
0000
0000
0100
0000
0010
0000
0000
0001
0100
0000
0100
0010
0000
0010
1000
0000
1000
,  // measure 21
0100
0000
0000
0010
0000
0000
1001
0000
0000
0100
0000
0010
0001
0000
0000
0100
0000
0000
0110
0000
0000
0100
0000
0010
,  // measure 22
1000
0000
0000
0000
0000
0000
1100
0000
0000
0000
0000
0010
0001
0000
0000
0100
0000
0000
0010
0100
0010
0100
0000
0010
,  // measure 23
0001
0000
0000
1000
0000
0010
0001
0000
0000
0100
0000
0000
0001
0000
0000
1000
0000
0000
0010
0000
1000
0100
0000
0000
,  // measure 24
0001
0000
0001
0010
0000
0100
0000
0000
1000
0100
0000
0010
0000
0000
0010
0100
0000
0001
0000
0000
0010
0001
0000
0010
,  // measure 25
0200
0000
0000
0310
0000
1000
0000
0000
0010
0100
0000
0010
0200
0000
0000
0001
0000
0000
0310
0000
0010
1000
0000
0100
,  // measure 26
0010
0000
0000
0001
0000
0100
1000
0000
0000
0010
0000
0000
1000
0000
0000
0001
0000
0000
0100
0000
0100
0010
0000
0000
,  // measure 27
1000
0000
1000
0100
0000
0010
0000
0000
0001
0010
0000
0100
0000
0000
0100
0010
0000
1000
0000
0000
0100
1000
0000
0100
,  // measure 28
0020
0000
0000
0130
0000
0001
0000
0000
0100
0010
0000
0100
0010
0000
0000
1000
0000
0000
0100
0000
0100
0001
0000
0010
,  // measure 29
0100
0000
0000
1000
0000
0000
1010
0000
0000
1000
0000
0100
0000
0000
0001
0000
0000
0010
0100
0000
0000
0010
0000
0000
,  // measure 30
1001
0000
0000
0010
0000
0000
0100
0000
0000
0001
0000
0010
0000
0000
0100
0000
0000
0010
1000
0000
0000
0100
0000
0000
,  // measure 31
0011
0000
0000
0001
0000
0000
1000
0000
0000
0010
0000
0100
0000
0000
1000
0000
0000
0001
0010
0000
0000
0100
0000
0000
,  // measure 32
1000
0000
0000
0010
0000
0100
1000
0000
0000
0010
0000
0001
0000
0000
0010
0000
0000
1000
0100
0000
1000
0010
0000
0000
,  // measure 33
0100
0000
0000
0010
0000
0100
0002
0000
0000
0013
0000
0100
2000
0000
0000
3100
0000
0010
0001
0000
0000
0010
0000
0000
,  // measure 34
1001
0000
0000
0000
0000
0000
1010
0000
0000
0000
0000
0100
0001
0000
0000
0010
0000
0000
0001
0000
0010
0100
0000
0000
,  // measure 35
0102
0000
0000
0000
0000
0000
0000
0000
0000
0000
0000
0000
1003
0000
0000
0000
0000
0000
0000
0000
0000
0100
0000
0000
0000
0000
0000
0010
0000
0000
0000
0000
0000
0001
0000
0100
0000
0000
0000
0000
0000
0000
0001
0000
0000
0000
0000
0000
,  // measure 36
2010
0000
0000
0000
0000
0000
0000
0000
0000
0000
0000
0000
3001
0000
0000
0000
0000
0000
0000
0000
0000
0010
0000
0000
0000
0000
0000
0100
0000
0000
0000
0000
0000
1000
0000
0010
0000
0000
0000
0000
0000
0000
0100
0000
0000
0000
0000
0000
,  // measure 37
0021
0000
0000
0000
0000
0000
0000
0000
0000
0000
0000
0000
0130
0000
0000
0000
0000
0000
0000
0000
0000
0001
0000
0000
0000
0000
0000
1000
0000
0000
0000
0000
0000
0010
0000
0001
0000
0000
0000
0000
0000
0000
0010
0000
0000
0000
0000
0000
,  // measure 38
1200
0000
0000
0000
0000
0000
0000
0000
0000
0000
0000
0000
0310
0000
0000
0000
0000
0000
0000
0000
0000
1000
0000
0000
0000
0000
0000
0001
0000
0000
0000
0000
0000
0100
0000
1000
0000
0000
0000
0000
0000
0000
0001
0000
0000
0000
0000
0000
,  // measure 39
0120
0000
0000
0000
0000
0000
0000
0000
0000
0000
0000
0000
1030
0000
0000
0000
0000
0000
0000
0000
0000
0010
0000
0000
0000
0000
0000
0001
0000
0000
0000
0000
0000
0100
0000
0010
0000
0000
0000
0000
0000
0000
0100
0000
0000
0000
0000
0000
,  // measure 40
1001
0000
0000
0000
0000
0000
1010
0000
0000
0000
0000
0100
0001
0000
0000
0010
0000
0000
0001
0000
0010
0100
0000
0000
,  // measure 41
1010
0000
0000
0100
0000
0100
0010
0000
0010
0002
0000
0000
0023
0000
0000
0130
0000
0100
1000
0000
1000
0002
0000
0000
,  // measure 42
0203
0000
0000
0310
0000
0010
1000
0000
1000
0100
0000
0010
0000
0000
0100
0000
0000
0001
0010
0000
0100
1000
0000
0000
,  // measure 43
1001
0000
0001
0010
0000
0010
1000
0000
1000
0100
0000
0100
0010
0000
0010
0001
0000
0001
0100
0000
0000
0100
0000
1000
,  // measure 44
0000
0000
0010
0000
0000
0100
0010
0000
0000
0001
0000
0010
0000
0000
0100
0000
0000
0100
1000
0000
0000
0010
0000
0000
,  // measure 45
1001
0000
0000
0010
0000
0100
0000
0000
0100
0001
0000
0100
1000
0000
0000
0100
0000
0001
0010
0000
0000
0010
0000
0100
,  // measure 46
1000
0000
0000
0010
0000
0000
0001
0000
0000
0010
0000
0100
0000
0000
1000
0010
0000
0010
0100
0000
0100
0001
0000
0001
,  // measure 47
0010
0000
0000
0100
0000
0000
1001
0000
0000
0010
0000
0100
1000
0000
0000
0010
0000
0000
0110
0000
0000
0010
0000
0100
,  // measure 48
1000
0000
0000
0100
0000
0000
0010
0000
0000
0100
0000
0000
0001
0010
0001
0010
0000
0010
0100
0000
0100
1000
0000
0000
,  // measure 49
1001
0000
0000
0010
0000
0010
1000
0000
1000
0200
0000
0000
2300
0000
0000
3010
0000
0010
0001
0000
0001
0200
0000
0000
,  // measure 50
0320
0000
0000
1030
0000
1000
0001
0000
0001
0010
0000
1000
0000
0000
0010
0000
0000
0100
1000
0000
0010
0001
0000
0000
,  // measure 51
0101
0000
0100
1000
0000
1000
0001
0000
0001
0010
0000
0010
1000
0000
1000
0100
0000
0100
0010
0000
0000
0010
0000
0001
,  // measure 52
0000
0000
1000
0000
0000
0010
1000
0000
0000
0100
0000
1000
0000
0000
0010
0000
0000
0010
0001
0000
0000
1000
0000
0000
,  // measure 53
0101
0000
0000
1000
0000
0010
0000
0000
0010
0100
0000
0010
0001
0000
0000
0010
0000
0100
1000
0000
0000
1000
0000
0010
,  // measure 54
0001
0000
0000
1000
0000
0000
0100
0000
0000
1000
0000
0010
0000
0000
0001
1000
0000
1000
0010
0000
0010
0100
0000
0100
,  // measure 55
1000
0000
0000
0010
0000
0000
0101
0000
0000
1000
0000
0010
0001
0000
0000
1000
0000
0000
1010
0000
0000
1000
0000
0010
,  // measure 56
0001
0000
0000
0000
0000
0000
1100
0000
0000
0000
0000
0100
0010
0000
0000
0100
0000
0000
1000
0100
0010
0001
0000
0010
,  // measure 57
0100
0000
0000
0000
;
