#VERSION:0.83;
#TITLE:El vino;
#SUBTITLE:;
#ARTIST:Parkinson;
#TITLETRANSLIT:;
#SUBTITLETRANSLIT:;
#ARTISTTRANSLIT:;
#GENRE:;
#ORIGIN:;
#CREDIT:LexX Fv28;
#BANNER:el_vino.png;
#BACKGROUND:el_vino-bg.png;
#PREVIEWVID:;
#JACKET:;
#CDIMAGE:;
#DISCIMAGE:;
#LYRICSPATH:;
#CDTITLE:lxfv28-logo.png;
#MUSIC:el_vino.ogg;
#OFFSET:0.400000;
#SAMPLESTART:22.360004;
#SAMPLELENGTH:12.000000;
#SELECTABLE:YES;
#BPMS:0.000=133.200,
14.000=131.500,
22.000=138.500,
70.000=136.980,
85.000=136.039,
101.000=138.200,
111.000=139.000,
113.000=140.359,
115.000=129.299,
146.000=137.999,
158.000=128.599,
175.000=141.219,
191.000=135.339,
193.000=127.659,
194.000=122.219,
195.000=118.659,
196.000=115.299,
197.000=113.799,
198.000=103.199,
199.000=103.139,
200.000=101.119,
201.000=98.359,
202.000=96.299,
203.000=94.259,
204.000=92.179,
205.000=86.699,
206.000=78.579,
207.000=76.879;
#STOPS:;
#DELAYS:;
#WARPS:;
#TIMESIGNATURES:0.000=4=4;
#TICKCOUNTS:0.000=4;
#COMBOS:0.000=1;
#SPEEDS:0.000=1.000=0.000=0;
#SCROLLS:0.000=1.000;
#FAKES:;
#LABELS:0.000=Song Start;
#BGCHANGES:0.000=el_vino.avi=1.000=0=0=0=StretchNoLoop====,
99999=-nosongbg-=1.000=0=0=0 // don't automatically add -songbackground-
;
#KEYSOUNDS:;
#ATTACKS:
;

//---------------dance-single - Light----------------
#NOTEDATA:;
#CHARTNAME:Light;
#STEPSTYPE:dance-single;
#DESCRIPTION:Light;
#CHARTSTYLE:;
#DIFFICULTY:Easy;
#METER:5;
#RADARVALUES:0.300210,0.460550,0.282016,0.081875,0.000000,231.000000,200.000000,31.000000,9.000000,0.000000,0.000000,0.000000,0.000000,0.000000,0.300210,0.460550,0.282016,0.081875,0.000000,231.000000,200.000000,31.000000,9.000000,0.000000,0.000000,0.000000,0.000000,0.000000;
#CREDIT:LexXFV28;
#NOTES:
0000
0000
0001
0001
,
0001
0001
0100
0100
,
0100
0100
0010
0010
,
0010
0010
1000
1000
,
1000
1000
0001
0001
,
1000
0000
1000
0000
0100
0000
0100
0200
,
0000
0000
0000
0300
,
0010
0100
0001
1000
,
0010
0100
1000
0001
,
1000
0100
1000
0100
,
0010
0001
1000
0100
,
1001
0100
1001
0100
,
1001
0010
1001
0010
,
1001
0010
0100
0110
,
0100
0100
0100
1001
,
0100
0100
0100
1001
,
0100
0100
0100
0110
,
0100
0000
0100
2200
0000
0000
0000
0000
,
0000
0000
0000
3300
,
0001
0001
1000
0001
,
1000
0001
1000
1000
,
0001
0100
0001
0000
1000
0000
1000
0000
,
1000
1000
0100
0100
,
1000
0010
1000
0000
1000
0000
0001
0000
,
1000
0001
1000
0100
,
0010
1000
0010
0000
1000
0000
1000
0000
,
0001
0001
1000
1000
,
0001
0001
1000
0010
,
1000
0000
0010
0000
0001
0000
0001
2000
,
0000
0000
0000
0000
,
3000
0001
1000
0001
,
0010
0001
1000
0001
,
0100
0001
1000
0001
,
0100
0001
0010
0100
,
1000
0001
0001
1000
,
1000
0001
1000
0001
,
1000
0010
0100
1001
,
1001
0101
0101
0110
,
0110
1010
1010
0110
,
0110
0101
0101
0100
,
0100
0000
1000
0002
0000
0000
0000
0000
,
0003
0010
0010
0001
,
0001
1000
1000
0010
,
0010
0100
0100
0001
,
1001
1000
1001
0001
,
1100
0100
1100
0100
,
0011
0010
0011
0010
,
0100
0100
1000
1000
,
0100
0100
0010
0010
,
0001
0001
1000
1000
,
1000
0010
0010
0010
,
0100
0100
0100
0001
,
1000
0000
0010
2002
0000
0000
0000
0000
,
0000
0000
0000
0000
,
0000
0000
0000
0000
3003
0220
0000
0000
,
0000
0000
0000
0000
,
0000
0330
1001
0000
0000
0000
0000
0000
;

//---------------dance-single - Standard----------------
#NOTEDATA:;
#CHARTNAME:Standard;
#STEPSTYPE:dance-single;
#DESCRIPTION:Standard;
#CHARTSTYLE:;
#DIFFICULTY:Medium;
#METER:7;
#RADARVALUES:0.375588,0.460550,0.345697,0.172848,0.031840,289.000000,251.000000,38.000000,19.000000,0.000000,0.000000,0.000000,0.000000,0.000000,0.375588,0.460550,0.345697,0.172848,0.031840,289.000000,251.000000,38.000000,19.000000,0.000000,0.000000,0.000000,0.000000,0.000000;
#CREDIT:LexXFV28;
#NOTES:
0000
0000
0010
0010
,
0001
0001
0100
0100
,
1000
1000
0010
0100
,
0010
1000
0100
0010
,
1000
0001
0010
0001
,
0100
0000
1000
0000
0100
0000
0001
2200
,
0000
0000
0000
3300
,
0010
0001
0100
0000
0001
1000
1000
0000
,
0010
1000
0100
0000
1000
0001
0001
0000
,
1000
0100
1000
0000
0001
0100
0001
0000
,
0010
0100
0001
0000
1000
0100
0010
0000
,
1001
1000
1000
0000
1001
0001
0001
0000
,
1100
0100
0100
0000
1100
1000
1000
0000
,
0011
0010
0010
0000
0011
0001
0002
0000
,
0100
0100
0103
2001
,
0100
0100
3100
1002
,
0100
0100
0103
0210
,
0001
0000
0301
2020
0000
0000
0000
0000
,
0000
0000
0000
3030
,
0001
1000
0001
1000
,
0100
0001
0110
0110
,
0001
0100
0001
0000
1000
0000
1000
0000
,
0100
0100
0110
0110
,
1000
0010
1000
0000
0001
0000
1000
0000
,
0001
0010
1100
1100
,
0010
1000
0010
0000
1000
0000
0010
0000
,
0100
0001
1000
0010
,
0100
0001
1100
0010
,
1100
0000
0010
0000
0100
0000
0100
2200
,
0000
0000
0000
0000
,
3300
0201
0010
0001
,
0310
0102
1000
0100
,
1003
2010
0001
0010
,
3001
1020
0100
1000
,
0130
0101
0101
1100
,
1100
0001
1000
0100
,
0010
0000
0100
0000
0010
0000
1000
0010
,
1000
0000
0010
0000
0000
0000
0100
0000
0000
0001
0000
0000
0100
0000
0001
0000
0000
0000
0010
0000
0000
1000
0000
0000
,
0010
0000
1000
0000
0000
0000
0001
0000
0000
0100
0000
0000
0001
0000
0100
0000
0000
0000
1000
0000
0000
0001
0000
0000
,
0100
0000
0010
0000
0000
0000
0001
0000
0000
0100
0000
0000
0010
0000
1000
0000
0000
0000
0100
0000
0000
0010
0000
0000
,
0001
0000
1000
0000
0000
0000
0100
0000
0000
0002
0000
0000
0000
0000
0000
0000
0000
0000
0000
0000
0000
0000
0000
0000
,
0003
0100
1000
0100
0000
0100
0001
0100
,
0000
0001
0010
0001
0000
1000
0100
1000
,
0000
1000
0001
1000
0000
0010
0100
0010
,
0100
0000
1000
1000
1001
0000
0001
0100
,
1100
0000
0100
0100
1100
0000
0010
0010
,
0011
0000
0001
0001
0011
0000
0010
0010
,
0110
0000
0001
0001
1001
0000
1000
1000
,
0100
0000
0100
0100
0010
0000
0010
0010
,
0001
0000
0001
0001
1000
0000
1000
1000
,
1000
0000
0010
0010
0010
0000
0010
0100
,
0100
0000
0100
0100
0100
0000
0001
0001
,
1000
0000
0010
2002
0000
0000
0000
0000
,
0000
0000
0000
0000
,
0000
0000
0000
0000
3003
0220
0000
0000
,
0000
0000
0000
0000
,
0000
0330
1001
0000
0000
0000
0000
0000
;

//---------------dance-single - Heavy----------------
#NOTEDATA:;
#CHARTNAME:Heavy;
#STEPSTYPE:dance-single;
#DESCRIPTION:Heavy;
#CHARTSTYLE:;
#DIFFICULTY:Hard;
#METER:9;
#RADARVALUES:0.444467,0.511722,0.473058,0.518545,0.086424,342.000000,290.000000,52.000000,57.000000,0.000000,0.000000,0.000000,0.000000,0.000000,0.444467,0.511722,0.473058,0.518545,0.086424,342.000000,290.000000,52.000000,57.000000,0.000000,0.000000,0.000000,0.000000,0.000000;
#CREDIT:LexXFV28;
#NOTES:
// measure 0
0000
0000
0000
0000
0000
0000
0000
0000
0000
0010
0000
0000
0001
0000
0010
0000
0000
0000
0100
0000
0000
1000
0000
0000
,  // measure 1
0100
0000
1000
0000
0000
0000
0010
0000
0000
0100
0000
0000
0010
0000
0100
0000
0000
0000
1000
0000
0000
0001
0000
0000
,  // measure 2
1000
0000
0100
0000
0000
0000
0001
0000
0000
0010
0000
0000
0001
0000
1000
0000
0000
0000
0001
0000
0000
0100
0000
0000
,  // measure 3
0001
0000
0010
0000
0000
0000
0100
0000
0000
1000
0000
0000
0100
0000
0010
0000
0000
0000
0100
0000
0000
1000
0000
0000
,  // measure 4
0100
0000
0001
0000
0000
0000
1000
0000
0000
0010
0000
0000
1000
0000
0100
0000
0000
0000
0010
0000
0000
0100
0000
0000
,  // measure 5
0010
0000
0001
0000
0000
0000
1000
0000
0000
0100
0000
0000
1000
0000
0010
0000
0000
0000
0100
0000
0000
0202
0000
0000
,  // measure 6
0000
0000
0000
0303
,  // measure 7
0010
0002
0103
0000
0001
2000
3100
0000
,  // measure 8
0010
2000
3100
0000
1000
0002
0103
0000
,  // measure 9
1000
0200
0310
0000
0001
0200
0301
0000
,  // measure 10
0100
0020
1030
0000
1000
0200
0310
0000
,  // measure 11
1001
2000
3001
0000
1001
0002
1003
0000
,  // measure 12
1100
0200
1300
0000
1100
2000
3010
0000
,  // measure 13
0011
0020
0130
0000
1010
0001
0020
0000
,  // measure 14
0100
1000
0130
0002
,  // measure 15
0100
1000
0103
2000
,  // measure 16
0100
0001
3100
0201
,  // measure 17
1000
0000
0301
2020
0000
0000
0000
0000
,  // measure 18
0000
0000
0000
3030
,  // measure 19
2000
3000
0002
0003
0200
0300
0020
0030
,  // measure 20
2000
3000
0020
0030
0210
0300
0120
0030
,  // measure 21
1001
1100
1001
0000
1000
0100
1000
0010
,  // measure 22
0100
0001
0100
0010
0100
0001
0100
0010
,  // measure 23
1100
0110
1100
0000
0001
1000
0001
1000
,  // measure 24
0100
1000
0010
0100
0001
1000
0100
0000
,  // measure 25
0011
1001
0011
0000
2000
0000
3010
0000
,  // measure 26
0200
0301
0020
1030
,  // measure 27
0200
0301
1200
0310
,  // measure 28
0120
0000
0031
0000
1200
0000
0310
0202
,  // measure 29
0000
0000
0000
0000
,  // measure 30
0303
1200
0010
0001
,  // measure 31
1300
1002
0010
0100
,  // measure 32
1003
2100
0010
0100
,  // measure 33
3001
0120
1000
0001
,  // measure 34
0130
0101
1100
0110
,  // measure 35
1001
0002
1003
0200
,  // measure 36
0310
0000
0002
0000
0103
0000
1000
0010
,  // measure 37
1000
0000
0001
0000
0000
0000
0100
0000
0000
0001
0000
0000
0100
0000
0010
0000
0000
0000
0010
0000
0000
1000
0000
0000
,  // measure 38
0010
0000
0100
0000
0000
0000
0001
0000
0000
0100
0000
0000
0001
0000
1000
0000
0000
0000
1000
0000
0000
0001
0000
0000
,  // measure 39
0100
0000
0010
0000
0000
0000
0001
0000
0000
0100
0000
0000
0010
0000
1000
0000
0000
0000
0100
0000
0000
0010
0000
0000
,  // measure 40
0001
0000
1000
0000
0000
0000
0100
0000
0000
2002
0000
0000
0000
0000
0000
0000
0000
0000
0000
0000
0000
0000
0000
0000
,  // measure 41
3003
0000
1000
0100
1000
0100
1000
0100
,  // measure 42
0001
0100
0001
0100
0001
1000
0100
1000
,  // measure 43
0001
1000
0001
1000
0100
0010
0100
0010
,  // measure 44
0100
0010
1000
0001
1001
0000
0020
0130
,  // measure 45
0110
0000
0200
1300
1100
0000
0020
0031
,  // measure 46
0011
0000
0002
0013
0011
0000
0020
0130
,  // measure 47
0110
0000
0002
1003
1001
0000
1000
1001
,  // measure 48
0100
0000
0100
0110
0010
0000
0010
1010
,  // measure 49
0001
0000
0001
0011
1000
0000
1000
1010
,  // measure 50
0010
0000
0010
0110
0100
0000
0010
0101
,  // measure 51
0100
0000
0100
1010
0010
0000
0001
1001
,  // measure 52
1000
0000
1010
2002
0000
0000
0000
0000
,  // measure 53
0000
0000
0000
0000
,  // measure 54
0000
0000
0000
0000
3003
0202
0000
0000
,  // measure 55
0000
0000
0000
0000
,  // measure 56
0000
0000
0000
0000
0303
0000
0000
0010
1000
0000
0000
0000
0000
0000
0000
0000
0000
0000
0000
0000
0000
0000
0000
0000
0000
0000
0000
0000
0000
0000
0000
0000
;
