#VERSION:0.83;
#TITLE:El Tiempo;
#SUBTITLE:;
#ARTIST:Pokerus Project;
#TITLETRANSLIT:;
#SUBTITLETRANSLIT:;
#ARTISTTRANSLIT:;
#GENRE:;
#ORIGIN:;
#CREDIT:;
#BANNER:El Tiempo.png;
#BACKGROUND:El Tiempo bg.png;
#PREVIEWVID:;
#JACKET:;
#CDIMAGE:;
#DISCIMAGE:;
#LYRICSPATH:;
#CDTITLE:Magna Trick title!.png;
#MUSIC:El Tiempo (short).mp3;
#OFFSET:0.426000;
#SAMPLESTART:0.000000;
#SAMPLELENGTH:12.000000;
#SELECTABLE:YES;
#BPMS:0.000=179.976,
98.000=89.988,
162.000=359.951,
289.000=179.976;
#STOPS:355.000=0.750,
361.000=0.500,
367.500=0.500,
374.000=0.500;
#DELAYS:;
#WARPS:;
#TIMESIGNATURES:0.000=4=4;
#TICKCOUNTS:0.000=4;
#COMBOS:0.000=1;
#SPEEDS:0.000=1.000=0.000=0;
#SCROLLS:0.000=1.000;
#FAKES:;
#LABELS:0.000=Song Start;
#BGCHANGES:0.063=El Tiempo.mp4=1.000=0=0=1=====,
99999=-nosongbg-=1.000=0=0=0 // don't automatically add -songbackground-
;
#KEYSOUNDS:;
#ATTACKS:
;

//---------------dance-single - Magna Trick----------------
#NOTEDATA:;
#CHARTNAME:Magna Trick;
#STEPSTYPE:dance-single;
#DESCRIPTION:Magna Trick;
#CHARTSTYLE:;
#DIFFICULTY:Beginner;
#METER:3;
#RADARVALUES:0.189605,0.327973,0.000000,0.076719,0.000000,173.000000,173.000000,0.000000,10.000000,0.000000,0.000000,0.000000,0.000000,0.000000,0.189605,0.327973,0.000000,0.076719,0.000000,173.000000,173.000000,0.000000,10.000000,0.000000,0.000000,0.000000,0.000000,0.000000;
#CREDIT:Magna Trick;
#NOTES:
0000
0000
0000
0000
1000
0000
0000
1000
,
0000
0000
0001
0000
,
0001
0000
0000
0000
0001
0000
0000
0001
,
0000
0000
1000
0000
,
1000
0000
0000
0000
1000
0000
0000
1000
,
0000
0000
0001
0000
,
0001
0000
0000
0000
0001
0000
0000
0001
,
0000
0000
1000
0000
,
1000
0000
0000
0000
1000
0000
0000
1000
,
0000
0000
0010
0000
,
0010
0000
0000
0000
0010
0000
0000
0010
,
0000
0000
0100
0000
,
0100
0000
0000
0000
0100
0000
0000
0100
,
0000
0000
0001
0000
,
0001
0000
0000
0000
0001
0000
0000
0001
,
0000
0000
1000
0000
,
1000
0000
2000
0000
,
3000
0000
0002
0000
,
0003
0000
2000
0000
,
3000
0000
0002
0000
,
0003
0000
0020
0000
,
0030
0000
0200
0000
,
0300
0000
2000
0000
,
0000
0000
0000
0000
,
0000
0000
3001
0000
,
0010
0000
0100
0000
,
1000
0000
0100
0000
,
0010
0000
0001
0000
,
0100
0000
0010
0000
,
1000
0000
0001
0000
,
0100
0000
0010
0000
,
1000
0000
0100
0000
,
0010
0000
0001
0000
,
0100
0000
0010
0000
,
1000
0000
0001
0000
,
0010
0000
0100
0000
,
1000
0000
0001
0000
,
0010
0000
0100
0000
,
1000
0000
0001
0000
,
0100
0000
0010
0000
,
1000
0000
0002
0000
,
0000
0000
0000
0000
,
0000
0000
0000
0000
,
0000
0000
0000
0000
,
0000
0000
0000
0000
,
0000
0000
0000
0000
,
0000
0000
0013
0000
,
0000
0100
0000
0000
,
1000
0000
2000
0000
,
0000
0000
0000
0000
,
0000
0000
0000
0000
,
0000
0000
0000
0000
,
3000
0000
0000
0000
,
0001
0000
1000
0000
,
0001
0000
1000
0000
,
1000
0000
0001
0000
,
1000
0000
0001
0001
,
0000
0001
0000
0001
,
0000
0001
0000
0001
,
0000
0001
0000
0001
,
0000
0001
0000
0001
,
0000
0001
0000
0001
,
0000
0001
0000
0001
,
0000
0001
0000
0001
,
0000
0001
0000
1000
,
0000
1000
0000
1000
,
0000
1000
0000
1000
,
0000
1000
0000
1000
,
0000
1000
0000
1000
,
0000
1000
0000
1000
,
0000
1000
0000
1000
,
0000
1000
0000
1000
,
0000
0001
0000
1000
,
0000
0000
0000
0010
0000
0000
0000
0010
,
0000
0000
0000
1000
0000
0000
1000
0000
,
0000
0000
0000
0001
0000
0000
0000
0001
,
0000
0000
0000
1000
0000
0000
1000
0000
,
0000
0000
0000
0010
0000
0000
0000
0010
,
0000
0000
0000
1000
0000
0000
1000
0000
,
0000
0000
0000
0001
0000
0000
0000
1000
,
0000
0000
0000
0100
0000
0000
0100
0000
,
0000
0000
0000
0010
0000
0000
0000
0100
,
0000
0000
0000
0010
0000
0000
0010
0000
,
0000
0000
0000
0001
0000
0000
0000
1000
,
0000
0000
0000
0010
0000
0000
0010
0000
,
0000
0000
0000
1000
0000
0000
0000
0001
,
0000
0000
0000
0100
0000
0000
0100
0000
,
0000
0000
0000
0001
0000
1000
0000
0001
,
0000
1000
0000
0010
0000
0000
0010
1000
,
0000
0001
0000
1000
0000
0001
0000
0100
,
0000
0100
0001
1000
,
0001
0000
1000
0000
0010
0000
0000
0010
,
0000
1000
0000
0001
0000
1000
0000
0001
,
0000
0100
0000
0000
0100
0000
0001
0000
,
1000
0001
2000
0000
,
3000
0000
0000
0000
;

//---------------dance-single - Magna Trick----------------
#NOTEDATA:;
#CHARTNAME:Magna Trick;
#STEPSTYPE:dance-single;
#DESCRIPTION:Magna Trick;
#CHARTSTYLE:;
#DIFFICULTY:Easy;
#METER:7;
#RADARVALUES:0.318931,0.546622,0.061375,0.092063,0.130422,291.000000,283.000000,8.000000,12.000000,0.000000,0.000000,0.000000,0.000000,0.000000,0.318931,0.546622,0.061375,0.092063,0.130422,291.000000,283.000000,8.000000,12.000000,0.000000,0.000000,0.000000,0.000000,0.000000;
#CREDIT:Magna Trick;
#NOTES:
0000
0000
0000
0000
0001
0000
0000
0001
,
0000
0000
1000
0001
,
1000
0000
0001
0000
1000
0000
0000
1000
,
0000
0000
0001
1000
,
0001
0000
1000
0000
0001
0000
0000
0001
,
0000
0000
1000
0010
,
1000
0000
0010
0000
1000
0000
0000
1000
,
0000
0000
0001
0100
,
0001
0000
0100
0000
0001
0000
0000
0001
,
0000
0000
0100
1000
,
0100
0000
1000
0000
0100
0000
0000
0100
,
0000
0000
0010
0001
,
0010
0000
0001
0000
0010
0000
0000
0010
,
0000
0000
0100
0010
,
0100
0000
0010
0000
0100
0000
0000
0100
,
0000
0000
0001
0010
,
0100
0000
1000
0000
0002
0000
0000
1000
,
0003
0000
0000
0000
2000
0000
0000
0001
,
3000
0000
0000
0000
0002
0000
0000
0010
,
0003
0000
0000
0000
2000
0000
0000
0100
,
3000
0000
0010
0000
0200
0000
0000
0001
,
0300
0000
0010
0000
0020
0000
0000
0001
,
0030
1000
0002
0000
,
0000
0000
0000
0000
,
0000
0000
0000
0000
0000
0000
0000
0000
1003
0000
1000
0000
0001
0000
0000
0100
,
0000
0000
0010
0000
0100
0000
0000
0010
0000
0000
0100
0000
0001
0000
0000
0100
,
0000
0000
0010
0000
1000
0000
0000
0010
0000
0000
1000
0000
0100
0000
0000
1000
,
0000
0000
0010
0000
0001
0000
0000
0010
0000
0000
0001
0000
1000
0000
0000
0001
,
0000
0000
0000
0000
0000
0000
0100
0000
0000
0000
0000
0000
0010
0000
0000
0000
0010
0000
0000
0000
0010
0000
0000
0000
0000
0000
0000
0000
0000
0000
0100
0000
0000
0000
0000
0000
0010
0000
0000
0000
0000
0000
0000
0000
0000
0100
0000
0000
,
0000
0000
0001
0000
1000
0000
0000
0001
0000
0000
1000
0000
0100
0000
0000
1000
,
0000
0000
0010
0000
0001
0000
0000
0010
0000
0000
0001
0000
1000
0000
0000
0001
,
0000
0000
0100
0000
0010
0000
0000
0100
0000
0000
0010
0000
1000
0000
0000
0010
,
0000
0000
0000
0000
0000
0000
1000
0000
0000
0000
0000
0000
0100
0000
0000
0000
0100
0000
0000
0000
0100
0000
0000
0000
0010
0000
0000
0000
0000
0000
0001
0000
0000
0000
0000
0000
0001
0000
0000
0000
0000
0000
0000
0000
0000
1000
0000
0000
,
0000
0000
0010
0000
0100
0000
0000
0001
0000
0000
1000
0000
0100
0000
0000
0010
,
0000
0000
0001
0000
1000
0000
0000
0010
0000
0000
0100
0000
0001
0000
0000
1000
,
0000
0000
0001
0000
1000
0000
0000
0100
0000
0000
0010
0000
0001
0000
0000
0010
,
0000
0000
0000
0000
0000
0000
0100
0000
0000
0000
0000
0000
1000
0000
0000
0000
1000
0000
0000
0000
1000
0000
0000
0000
0001
0000
0000
0000
0000
0000
0000
0000
0000
0000
0000
0000
0010
0000
0000
0000
0000
0000
0000
0000
0000
0100
0000
0000
,
0000
0000
0010
0000
0010
0000
0000
0100
0000
0000
1000
0000
0100
0000
0000
1000
,
0000
0000
0001
0000
0010
0000
0000
0001
0000
0000
0010
0000
0100
0000
0000
1000
,
0000
0000
0010
0000
0100
0000
0000
0001
0000
0000
1000
0000
0100
0000
0000
0010
,
0000
0001
0010
0100
2000
0000
0000
0000
,
0000
0000
0000
0000
,
0000
0000
0000
0000
,
0000
0000
0000
0000
,
0000
0000
0000
0000
,
0000
0000
0000
0000
,
0000
0000
3200
0000
,
0000
0320
0000
0000
,
0031
0000
0002
0000
,
0000
0000
0000
0000
,
0000
0000
0000
0000
,
0000
0000
0000
0000
,
0003
0000
0000
0001
,
1000
0000
0001
0000
,
1000
0000
0001
0000
,
0001
0000
1000
0000
,
0001
0000
1000
1000
,
0000
1000
0000
1000
,
0000
1000
0000
1000
,
0000
1000
0000
1000
,
0000
1000
0000
1000
,
0000
1000
0000
1000
,
0000
1000
0000
1000
,
0000
1000
0000
1000
,
0000
1000
0000
0001
,
0000
0001
0000
0001
,
0000
0001
0000
0001
,
0000
0001
0000
0001
,
0000
0001
0000
0001
,
0000
0001
0000
0001
,
0000
0001
0000
0001
,
0000
0001
0000
0001
,
0000
0000
1000
0001
0000
0000
0001
0000
,
0000
0000
0000
0100
0000
0001
0000
0100
,
0000
0001
0000
0100
0000
0000
0100
0000
,
0000
0000
0000
1000
0000
0010
0000
1000
,
0000
0010
0000
1000
0000
0000
1000
0000
,
0000
0000
0000
0100
0000
0010
0000
0100
,
0000
0010
0000
0100
0000
0000
0100
0000
,
0000
0000
0000
0010
0000
0001
0000
0010
,
0000
0001
0000
0010
0000
0000
0010
0000
,
0000
0000
0000
0001
0000
1000
0000
0001
,
0000
1000
0000
0001
0000
0000
0001
0000
,
0000
0000
0000
1000
0000
0001
0000
1000
,
0000
0001
0000
1000
0000
0000
1000
0000
,
0000
0000
0000
0010
0000
0100
0000
0001
,
0000
1000
0000
0010
0000
0000
0010
0000
,
0000
0000
0000
1000
0000
0001
0000
1000
,
0000
0001
0000
1001
0000
0000
1001
0001
,
0000
1000
0000
0001
0000
1000
0000
1001
,
0000
1001
1000
0001
,
1000
0000
0001
0000
1001
0000
0000
1001
,
0000
0001
0000
1000
0000
0001
0000
1000
,
0000
1001
0000
0000
1001
0000
1000
0000
,
0001
1000
0002
0000
,
0003
0000
0000
0000
;

//---------------dance-single - Magna Trick----------------
#NOTEDATA:;
#CHARTNAME:Magna Trick;
#STEPSTYPE:dance-single;
#DESCRIPTION:Magna Trick;
#CHARTSTYLE:;
#DIFFICULTY:Medium;
#METER:9;
#RADARVALUES:0.349619,0.583064,0.076719,0.306876,0.134258,319.000000,309.000000,10.000000,40.000000,0.000000,0.000000,0.000000,0.000000,0.000000,0.349619,0.583064,0.076719,0.306876,0.134258,319.000000,309.000000,10.000000,40.000000,0.000000,0.000000,0.000000,0.000000,0.000000;
#CREDIT:Magna Trick;
#NOTES:
0000
0000
0000
0000
1000
0000
0000
1000
,
0000
0000
0001
1000
,
0001
0000
1000
0000
0002
0000
0003
2000
,
0000
3000
0000
0000
1000
0000
0001
0000
,
1000
0000
0001
0000
2000
0000
3000
0002
,
0000
0003
0000
0000
0001
0000
0100
0000
,
0001
0000
0100
0000
0002
0000
0003
2000
,
0000
3000
0000
0000
1000
0000
0010
0000
,
1000
0000
0010
0000
2000
0000
3000
0002
,
0000
0003
0000
0000
0010
0000
0001
0000
,
0010
0000
0001
0000
0020
0000
0030
0200
,
0000
0300
0000
0000
0100
0000
1000
0000
,
0100
0000
1000
0000
0200
0000
0300
0020
,
0000
0030
0000
0000
0010
0000
0100
0000
,
0010
0000
0100
0000
0020
0000
0030
0200
,
0000
0300
0000
0000
1000
0000
0100
0000
,
0010
0000
0001
0000
2000
0000
0000
0001
,
3000
0000
0001
0100
0002
0000
0000
1000
,
0003
0000
1000
0010
2000
0000
0000
0100
,
3000
0000
0001
0000
0002
0000
0000
0010
,
0003
0000
0100
0000
0020
0000
0000
1000
,
0030
0000
0100
0001
0200
0000
0000
1000
,
0300
0000
0001
0100
2000
0001
0000
0000
,
0001
0000
0000
0001
0000
0000
0001
0000
,
0001
0000
0001
0000
0001
0000
0001
0000
3000
0000
0001
0000
1000
0000
0000
0010
,
0000
0000
0100
0000
0010
0000
0000
0100
0000
0000
0010
0000
1000
0000
0000
0010
,
0000
0000
0100
0000
0001
0000
0000
0100
0000
0000
0001
0000
0010
0000
0000
0001
,
0000
0000
0100
0000
1000
0000
0000
0100
0000
0000
1000
0000
0001
0000
0000
1000
,
0000
0000
0000
0000
0000
0000
0010
0000
0000
0000
0000
0000
0100
0000
0000
0000
0100
0000
0000
0000
0100
0000
0000
0000
0000
0000
0000
0000
0000
0000
0010
0000
0000
0000
0000
0000
0100
0000
0000
0000
0000
0000
0000
0000
0000
0010
0000
0000
,
0000
0000
1000
0000
0001
0000
0000
1000
0000
0000
0001
0000
0010
0000
0000
0001
,
0000
0000
0100
0000
1000
0000
0000
0100
0000
0000
1000
0000
0001
0000
0000
1000
,
0000
0000
0010
0000
0100
0000
0000
0010
0000
0000
0100
0000
0001
0000
0000
0100
,
0000
0000
0000
0000
0000
0000
0001
0000
0000
0000
0000
0000
0010
0000
0000
0000
0010
0000
0000
0000
0010
0000
0000
0000
0110
0000
0000
0000
0000
0000
0100
0000
0000
0000
0000
0000
1000
0000
0000
0000
0000
0000
0000
0000
0000
0001
0000
0000
,
0000
0000
0100
0000
0010
0000
0000
1000
0000
0000
0001
0000
0010
0000
0000
0100
,
0000
0000
1000
0000
0001
0000
0000
0100
0000
0000
0010
0000
1000
0000
0000
0001
,
0000
0000
1000
0000
0001
0000
0000
0010
0000
0000
0100
0000
1000
0000
0000
0100
,
0000
0000
0000
0000
0000
0000
0010
0000
0000
0000
0000
0000
0001
0000
0000
0000
0001
0000
0000
0000
0001
0000
0000
0000
1001
0000
0000
0000
0000
0000
1000
0000
0000
0000
0000
0000
0100
0000
0000
0000
0000
0000
0000
0000
0000
0010
0000
0000
,
0000
0000
0100
0000
0100
0000
0000
0010
0000
0000
0001
0000
0010
0000
0000
0001
,
0000
0000
1000
0000
0100
0000
0000
1000
0000
0000
0100
0000
0010
0000
0000
0001
,
0000
0000
0100
0000
0010
0000
0000
1000
0000
0000
0001
0000
0010
0000
0000
0100
,
0000
0000
1000
0000
0100
0010
0001
0000
0002
0000
0000
0000
0000
0000
0000
0000
,
1000
0000
0000
0000
,
1000
0000
0000
0000
,
1000
0000
0000
0000
,
1000
0000
0000
0000
,
1000
0000
0000
0000
,
1000
0000
0023
0000
,
0000
0230
0000
0000
,
1300
0000
2000
0000
,
0001
0000
0000
0000
,
0001
0000
0000
0000
,
0001
0000
0000
0000
,
3001
0000
0000
1000
,
0001
0000
1000
0000
,
0001
0000
1000
0000
,
1000
0000
0001
0000
,
1000
0000
0001
0001
,
0000
0010
0000
0001
,
0000
0010
0000
0001
,
0000
0010
0000
0001
,
0000
0010
0000
0001
,
0000
0010
0000
0001
,
0000
0010
0000
0001
,
0000
0010
0000
0001
,
0000
0010
0000
0100
,
0000
1000
0000
0100
,
0000
1000
0000
0100
,
0000
1000
0000
0100
,
0000
1000
0000
0100
,
0000
1000
0000
0100
,
0000
1000
0000
0100
,
0000
1000
0000
0100
,
0000
0000
1000
0001
0000
0000
1000
0000
,
0000
0000
0000
0010
0000
1000
0000
0010
,
0000
1000
0000
0020
0000
0030
2000
0000
,
3000
0000
0000
0001
0000
0100
0000
0001
,
0000
0100
0000
0002
0000
0003
0200
0000
,
0300
0000
0000
0010
0000
0100
0000
0010
,
0000
0100
0000
0020
0000
0030
0200
0000
,
0300
0000
0000
0100
0000
1000
0000
0100
,
0000
1000
0000
0200
0000
0300
2000
0000
,
3000
0000
0000
1000
0000
0001
0000
1000
,
0000
0001
0000
2000
0000
3000
0002
0000
,
0003
0000
0000
0001
0000
1000
0000
0001
,
0000
1000
0000
0002
0000
0003
2000
0000
,
3000
0000
0000
0100
0000
0010
0000
1000
,
0000
0001
0000
0200
0000
0300
0020
0000
,
0030
0000
0000
0001
0000
1000
0000
0001
,
0000
1000
0000
0110
0000
0000
0110
1000
,
0000
0001
0000
1000
0000
0001
0000
0110
,
0000
0110
0001
1000
,
0001
0000
1000
0000
0110
0000
0000
0110
,
0000
1000
0000
0001
0000
1000
0000
0001
,
0000
0110
0000
0000
0110
0000
0001
0000
,
1000
0001
2000
0000
,
3000
0000
0000
0000
;

//---------------dance-single - Magna Trick----------------
#NOTEDATA:;
#CHARTNAME:Magna Trick;
#STEPSTYPE:dance-single;
#DESCRIPTION:Magna Trick;
#CHARTSTYLE:;
#DIFFICULTY:Hard;
#METER:14;
#RADARVALUES:0.683894,1.093244,0.084391,0.322219,0.556212,624.000000,613.000000,11.000000,42.000000,0.000000,0.000000,0.000000,0.000000,0.000000,0.683894,1.093244,0.084391,0.322219,0.556212,624.000000,613.000000,11.000000,42.000000,0.000000,0.000000,0.000000,0.000000,0.000000;
#CREDIT:Magna Trick;
#NOTES:
// measure 0
0000
0000
0000
0000
2000
0000
3000
0002
,  // measure 1
0000
0003
0000
0000
1000
0000
0001
0000
,  // measure 2
1000
0000
0000
0000
0001
0000
1000
0001
2000
0000
0000
0000
3000
0000
0002
0000
,  // measure 3
0000
0003
1000
0100
1000
0100
0010
0001
,  // measure 4
0010
0001
1000
0100
0020
0000
0030
0002
,  // measure 5
0000
0003
0000
0000
1000
0000
0010
0000
,  // measure 6
1000
0000
0010
0000
2010
0000
3000
0002
,  // measure 7
0000
0003
0000
0000
0010
0010
0010
0010
,  // measure 8
0100
0100
0100
0100
2000
0000
3000
0002
,  // measure 9
0000
0003
0000
0000
0100
0000
1000
0000
,  // measure 10
0100
0000
1000
0000
0200
0000
0300
0020
,  // measure 11
0000
0030
0000
0000
0010
0000
0001
0000
,  // measure 12
0010
0000
0001
0010
0001
0000
0010
0000
0002
0000
0000
0000
0003
0000
0020
0000
,  // measure 13
0000
0030
0000
0000
0100
0000
0010
0000
,  // measure 14
0100
0000
0010
0000
0200
0000
0300
0020
,  // measure 15
0000
0030
0000
0000
0001
0000
0010
0000
,  // measure 16
0100
0000
1000
0001
1000
0000
0010
0000
0002
0000
0000
0000
0000
0000
1000
0000
,  // measure 17
0003
0000
1000
0010
2000
0000
0000
0001
,  // measure 18
3000
0000
0001
0100
0002
0000
0000
0010
,  // measure 19
0003
0000
1000
0000
2000
0000
0000
0100
,  // measure 20
3000
0000
0010
0000
0200
0000
0000
0001
,  // measure 21
0300
0000
0010
1000
0020
0000
0000
0001
,  // measure 22
0030
0000
1000
0010
0002
1000
0000
0000
,  // measure 23
1000
0000
0000
1000
0000
0000
1000
0000
,  // measure 24
1000
0000
1000
0000
1000
0000
1000
0000
0013
0100
0001
1000
0010
0100
0001
1000
,  // measure 25
0000
1000
0100
0010
0001
1000
0100
0010
0000
0010
0001
0100
0010
1000
0100
0010
,  // measure 26
0000
0010
0100
1000
0001
0010
0100
1000
0000
1000
0100
0010
0001
0100
0010
1000
,  // measure 27
0000
1000
0010
0100
0001
1000
0010
0100
0000
0100
0010
1000
0100
1000
0001
0010
,  // measure 28
0000
0000
0000
0010
0000
0000
0001
0000
0000
0100
0000
0000
0001
0000
0000
0000
0010
0000
0000
0000
0100
0000
0000
0000
1000
0000
0000
0010
0000
0000
1000
0000
0000
0001
0000
0000
0010
0000
0000
0001
0000
0000
1000
0000
0000
0100
0000
0000
,  // measure 29
0000
0100
1000
0001
1000
0010
0100
0001
0000
0001
1000
0001
0010
0100
1000
0010
,  // measure 30
0000
0010
0100
1000
0100
0001
0010
0001
0000
0001
0010
1000
0010
0001
1000
0100
,  // measure 31
0000
0100
1000
0100
0010
0001
0010
0100
0000
0100
0001
0100
1000
0010
1000
0001
,  // measure 32
0000
0000
0000
0001
0000
0000
0100
0000
0000
0010
0000
0000
1000
0000
0000
0000
0100
0000
0000
0000
0010
0000
0000
0000
1001
0000
0000
0010
0000
0000
1000
0000
0000
0001
0000
0000
0100
0000
0000
0010
0000
0000
1000
0000
0000
0001
0000
0000
,  // measure 33
0000
0001
0010
0100
1000
0001
0010
0100
0000
0100
1000
0010
0100
0001
0010
0100
,  // measure 34
0000
0100
0010
0001
1000
0100
0010
0001
0000
0001
0010
0100
1000
0010
0100
0001
,  // measure 35
0000
0001
0100
0010
1000
0001
0100
0010
0000
0010
0100
0001
0010
0001
1000
0100
,  // measure 36
0000
0000
0000
0100
0000
0000
1000
0000
0000
0010
0000
0000
1000
0000
0000
0000
0100
0000
0000
0000
0010
0000
0000
0000
0011
0000
0000
0100
0000
0000
0001
0000
0000
1000
0000
0000
0100
0000
0000
1000
0000
0000
0001
0000
0000
0010
0000
0000
,  // measure 37
0000
0010
0001
1000
0001
0100
0010
1000
0000
1000
0001
1000
0100
0010
0001
0100
,  // measure 38
0000
0100
0010
0001
0010
1000
0100
1000
0000
1000
0100
0001
0100
1000
0001
0010
,  // measure 39
0000
0010
0001
0010
0100
1000
0100
0010
0000
0010
1000
0010
0001
0100
0001
1000
,  // measure 40
0000
1000
0010
0100
0001
0010
0001
0000
1000
0000
0001
0000
1000
0000
0001
0000
,  // measure 41
1000
0001
1000
0001
1000
0001
1000
0001
,  // measure 42
1000
0001
1000
0001
1000
0001
1000
0001
,  // measure 43
1000
0001
1000
0001
1000
0001
1000
0001
,  // measure 44
1000
0001
1000
0001
1000
0001
1000
0001
,  // measure 45
1000
0001
1000
0001
1000
0001
1000
0001
,  // measure 46
1000
0001
1000
0001
0200
0000
0000
0000
,  // measure 47
0000
0320
0000
0000
,  // measure 48
1030
0000
0000
0000
0010
0100
0010
0100
,  // measure 49
0010
0100
0010
0100
0010
0100
0010
0100
,  // measure 50
0010
0100
0010
0100
0010
0100
0010
0100
,  // measure 51
0010
0100
0010
0100
0010
0100
0010
0100
,  // measure 52
0010
0000
0000
0001
,  // measure 53
1000
0001
0001
0010
,  // measure 54
0100
0000
0000
1000
0000
0000
0100
0000
0010
0000
0001
0000
,  // measure 55
1000
0010
1000
1000
,  // measure 56
1000
0000
0001
0010
0001
0000
1000
0000
,  // measure 57
0000
0000
0010
0100
0000
0000
0001
1000
,  // measure 58
0000
0000
0100
0010
0000
0000
0001
0000
,  // measure 59
1000
0001
1000
0001
,  // measure 60
1000
0010
0000
0100
,  // measure 61
0001
0000
1000
0000
0000
0100
0000
0000
,  // measure 62
0100
0000
0000
0010
0000
0000
0001
0000
,  // measure 63
0000
1000
0000
0000
0001
0000
0010
0000
,  // measure 64
0001
1000
0001
1000
0001
1000
0001
1000
,  // measure 65
0001
1000
0001
1000
0001
1000
0001
1000
,  // measure 66
0001
1000
0010
1000
0010
1000
0010
1000
,  // measure 67
0010
1000
0010
1000
0010
1000
0010
1000
,  // measure 68
0010
1000
0010
1000
0010
0100
0010
0100
,  // measure 69
0010
0100
0010
0100
0001
0100
0001
0100
,  // measure 70
0001
0100
0001
0100
0001
0100
0010
1000
,  // measure 71
0001
0100
0001
0010
0100
1000
0010
0100
,  // measure 72
0001
0000
0010
0000
0001
0010
0002
0000
0000
0000
0003
0000
2000
0000
0000
0000
,  // measure 73
3000
0000
0000
0100
0000
0001
0000
0100
,  // measure 74
0000
1000
0000
0200
0000
0300
0002
0000
,  // measure 75
0103
0000
0000
0010
0000
0000
0100
0000
0000
0000
0000
0000
1000
0000
0000
0000
0000
0000
1000
0000
0000
0000
0010
0000
0000
0000
1000
0000
0000
0000
0010
0000
0000
0000
0100
0000
0000
0000
0001
0000
0000
0000
0100
0000
0000
0000
0001
0000
,  // measure 76
0000
1000
0000
0010
0000
0100
0000
0001
0000
2000
0000
0000
0000
0000
0000
3000
0000
0000
0020
0000
0000
0000
0000
0000
,  // measure 77
0030
0000
0000
0100
0000
1000
0000
0100
,  // measure 78
0000
0001
0000
0200
0000
0300
0020
0000
,  // measure 79
1030
0001
0000
0010
0000
0001
0000
1000
,  // measure 80
1000
0001
0000
0020
0000
0030
0002
0000
,  // measure 81
1003
0000
1000
0000
0001
0010
0001
0000
0000
0000
1000
0000
0000
0000
0100
0000
,  // measure 82
0000
1000
0000
0002
0000
0003
2000
0000
,  // measure 83
3001
0000
0001
0000
1000
0100
1000
0000
0000
0000
0001
0000
0000
0000
0100
0000
,  // measure 84
0000
0001
0000
2000
0000
3000
0002
0000
,  // measure 85
1003
1000
1000
0010
0000
0100
0000
0001
,  // measure 86
0000
1000
0000
0020
0000
0030
0200
0000
,  // measure 87
0301
0000
0001
0000
1000
0010
1000
0000
0000
0000
0001
0000
0000
0000
1000
0000
,  // measure 88
0000
0001
0000
0110
0000
0000
0110
0001
,  // measure 89
0000
1000
0000
0001
0000
1000
0000
0110
,  // measure 90
0000
0110
1000
0001
,  // measure 91
1000
0000
0001
0000
0110
0000
0000
0110
,  // measure 92
0000
0001
0000
1000
0000
0001
0000
1000
,  // measure 93
0000
0110
0000
0000
0110
0000
1000
0000
,  // measure 94
0001
1000
0002
0000
,  // measure 95
0003
0000
0000
0000
;

//---------------dance-single - Magna Trick----------------
#NOTEDATA:;
#CHARTNAME:Magna Trick;
#STEPSTYPE:dance-single;
#DESCRIPTION:Magna Trick;
#CHARTSTYLE:;
#DIFFICULTY:Challenge;
#METER:18;
#RADARVALUES:0.896515,1.348335,0.629095,0.698142,0.767189,818.000000,736.000000,82.000000,91.000000,0.000000,1.000000,0.000000,0.000000,0.000000,0.896515,1.348335,0.629095,0.698142,0.767189,818.000000,736.000000,82.000000,91.000000,0.000000,1.000000,0.000000,0.000000,0.000000;
#CREDIT:Magna Trick;
#NOTES:
0000
0000
0000
0000
0000
0000
1000
0010
0102
0000
0000
0000
0003
0000
2000
0000
,
0000
3000
0000
0000
0002
0003
0020
0030
,
0002
0000
0003
0000
0020
0000
0031
1000
0012
0000
0000
0000
0003
0000
2000
0000
,
0000
3001
0001
0010
0001
0010
0100
1000
,
0100
1000
0001
0010
1200
0000
0300
2000
,
0000
3000
0000
0000
0002
0003
0200
0300
,
0002
0003
0200
0300
0102
0000
0003
2000
,
0000
3000
0000
0000
0100
0100
0100
0100
,
0010
0010
0010
0010
0012
0000
0103
2000
,
0000
3000
0101
0000
2000
3000
0002
0003
,
2000
3001
0002
0003
0020
0000
0130
2000
,
0000
3000
1010
0000
0200
0310
0020
0030
,
0200
0000
0301
1000
0010
0000
0100
0000
0102
0000
0000
0000
1003
0000
1200
0000
,
0000
0300
0011
0000
0200
0300
2000
3000
,
0200
1300
2000
3000
0020
0000
0130
0002
,
0000
0000
0003
0000
1010
0000
0000
0000
2000
0000
3000
0010
0200
0000
0300
0000
,
0020
0000
1030
0001
0100
0000
0010
0000
2000
0000
0000
0000
0000
0000
0001
0000
,
3000
0000
0001
0100
0002
0000
0100
1000
,
0003
0000
1000
0010
2000
0000
0100
0001
,
3000
0000
0000
0000
0000
0000
0001
0000
0000
1000
0000
0000
0001
0000
0010
0000
0001
0000
0010
0000
0100
0000
1000
0000
,
0100
0000
1000
0000
0001
0000
0100
0000
0010
0000
1000
0000
0020
0000
0000
0000
0000
0000
0100
0000
0000
1000
0000
0000
,
0030
0000
0100
0001
0200
0000
0010
1000
,
0300
0000
0000
0000
0001
0000
0100
0000
0010
0000
1010
0000
0000
0000
0001
0010
,
1100
0000
0000
0000
1000
0100
0011
0000
0000
0000
0001
0000
0001
0000
0010
0100
,
1001
0000
1001
0000
1001
0000
1001
0000
0100
0010
1000
0001
1100
0010
1000
0001
,
0000
0001
0010
0100
1010
0001
0010
0100
0000
0100
1000
0010
1100
0001
0010
0100
,
0000
0100
0010
0001
1010
0100
0010
0001
0000
0001
0010
0100
1001
0010
0100
0001
,
0000
0001
0100
0010
1100
0001
0100
0010
0000
0010
0100
0001
0110
0001
1000
0100
,
0000
0000
0000
0100
0000
0000
1000
0000
0000
0010
0000
0000
1001
0000
0000
0000
0110
0000
0000
0000
0011
0000
0000
0000
1001
0000
0000
0100
0000
0000
0001
0000
0000
1000
0000
0000
0110
0000
0000
1000
0000
0000
0001
0000
0000
0010
0000
0000
,
0000
0010
0001
1000
0011
0100
0010
1000
0000
1000
0001
1000
0101
0010
0001
0100
,
0000
0100
0010
0001
0110
1000
0100
1000
0000
1000
0100
0001
0110
1000
0001
0010
,
0000
0010
0001
0010
0101
1000
0100
0010
0000
0010
1000
0010
1001
0100
0001
1000
,
0000
0000
0000
1000
0000
0000
0010
0000
0000
0100
0000
0000
1001
0000
0000
0000
0011
0000
0000
0000
0110
0000
0000
0000
1001
0000
0000
0100
0000
0000
0001
0000
0000
1000
0000
0000
0011
0000
0000
0100
0000
0000
0001
0000
0000
1000
0000
0000
,
0000
1000
0100
0010
0101
1000
0100
0010
0000
0010
0001
0100
0011
1000
0100
0010
,
0000
0010
0100
1000
0101
0010
0100
1000
0000
1000
0100
0010
1001
0100
0010
1000
,
0000
1000
0010
0100
0011
1000
0010
0100
0000
0100
0010
1000
0101
1000
0001
0010
,
0000
0000
0000
0010
0000
0000
0001
0000
0000
0100
0000
0000
0011
0000
0000
0000
0110
0000
0000
0000
1100
0000
0000
0000
1001
0000
0000
0010
0000
0000
1000
0000
0000
0001
0000
0000
0110
0000
0000
0001
0000
0000
1000
0000
0000
0100
0000
0000
,
0000
0100
1000
0001
1100
0010
0100
0001
0000
0001
1000
0001
1010
0100
1000
0010
,
0000
0010
0100
1000
0110
0001
0010
0001
0000
0001
0010
1000
0110
0001
1000
0100
,
0000
0100
1000
0100
1010
0001
0010
0100
0000
0100
0001
0100
1001
0010
1000
0001
,
0000
0000
0001
0000
0100
0000
0010
0100
1001
0000
1001
0000
1001
0000
1001
0000
0001
0000
0000
0000
0010
0000
0000
0000
0001
0000
0000
0000
1000
0000
0000
0000
,
0010
1000
0001
0010
0001
1000
0010
1000
,
0001
0010
0001
1000
0010
1000
0001
0010
,
0001
1000
0010
1000
0001
0010
0001
1000
,
0010
1000
0001
0010
0001
1000
0010
1000
,
0001
0010
0001
1000
0010
1000
0001
0010
,
0001
1000
0100
1000
0010
0100
0010
0100
,
0010
0100
0001
1000
0001
1000
0001
1000
,
0001
0010
1000
0001
0100
1000
0100
0001
,
0100
1000
0100
0001
0100
1000
0100
0001
,
0100
1000
0100
0001
0100
1000
0100
0001
,
0100
1000
0100
0001
0100
1000
0100
0001
,
0100
0000
0000
1000
,
0001
1000
1000
0100
,
0010
0000
0000
0001
0000
0000
0010
0000
0100
0000
1000
0000
,
0001
0100
0101
0101
,
0101
0000
1000
0100
1000
0000
0001
1000
,
0000
0000
0100
0010
0000
0000
1000
0001
,
0000
0000
0010
0100
0000
0000
1000
0000
,
0001
1000
0001
1000
,
0001
0100
0000
0010
,
1000
0000
0001
0000
0000
0010
0000
0000
,
0010
0000
0000
0100
0000
0000
1000
0000
,
0000
0001
0000
0000
1000
0000
0100
0000
,
1000
0010
0100
0001
1000
0010
0100
0001
,
1000
0010
0100
0001
1000
0010
0100
0001
,
1000
0000
0000
0001
0000
0000
0100
0000
0010
0000
0100
0000
0010
0000
0100
0000
0010
0000
0100
0000
0010
0000
1000
0000
,
0010
1000
0001
0100
0001
0100
0010
1000
0010
1000
0001
0100
,
0001
0000
0100
0000
0010
0000
1000
0000
0000
0001
0000
0000
0100
0000
0000
0010
0000
0000
1000
0000
0000
0100
0000
0000
,
0010
0001
0010
0100
1000
0100
0001
0010
,
0001
1000
0100
0010
0001
0010
0100
1000
,
0001
0010
1000
0100
0010
0001
0100
0010
,
1000
0000
0100
0000
1000
0100
2000
0000
0000
0001
3100
0000
0002
0000
0000
0000
,
1003
0000
1000
0000
0000
0000
0010
0000
0000
0100
1000
0000
0000
0000
0001
0000
,
0000
0010
0100
0000
0000
0000
0020
0000
0000
0000
0031
0000
2000
0000
0000
0000
,
3010
0000
0000
0100
0000
0000
0010
0000
0000
0000
0000
0000
0001
0000
0000
0000
0000
0000
0001
0000
0000
0000
0100
0000
0000
0000
0001
0000
0000
0000
0100
0000
0000
0000
0010
0000
0000
0000
1000
0000
0000
0000
0010
0000
0000
0000
1000
0000
,
0000
0001
0000
0100
0000
0010
0000
1000
0000
0002
0000
0000
0000
0000
0000
1003
0000
0000
0200
0000
0000
0000
0000
0000
,
0310
0000
0010
0000
0000
0000
0010
0000
0000
0001
1000
0000
0100
0000
0010
0000
,
0000
1000
0001
0000
1000
0000
0120
0000
0000
0000
0130
0000
2001
0000
0000
0000
,
3001
1000
0000
1100
0000
1001
0000
0101
,
0101
0000
1000
0000
0001
0000
0201
0000
0001
0310
0001
0000
2000
0000
0010
0000
,
3100
0000
0010
0000
0001
0100
0010
0000
1000
0100
0010
0000
0001
0010
0100
0000
,
1000
0100
0010
0000
0001
0010
1200
0000
1000
0300
0010
0000
0002
0000
0100
0000
,
1003
0000
1000
0000
0001
0010
0100
0000
1000
0010
0100
0000
0001
0010
0100
0000
,
1000
0010
0100
0000
0001
0010
0102
0000
1000
0000
0013
0000
2000
0000
0010
0000
,
3001
0000
0001
0000
0001
1000
0100
0000
0010
0001
1000
0000
0100
1000
0001
0000
,
0010
0001
1000
0000
0100
1000
0002
0000
0100
0000
0013
1000
0020
0000
0100
0000
,
1030
0000
1000
0000
0001
0100
1000
0000
1000
0100
0001
0000
0001
0100
1000
0000
,
1000
0100
0001
0000
1000
0001
2200
0000
3300
0000
0000
0000
0022
0000
2033
0000
,
3000
0002
0003
2000
3000
0002
0003
0202
,
0303
0000
2020
3030
0002
0003
2000
3000
,
0002
0003
2000
3000
0022
0033
0000
2200
,
3300
2000
3000
0002
0003
2000
3000
0002
,
0003
2020
3030
0000
0202
0303
0002
0003
,
2000
3000
0002
0003
2000
0000
0000
0000
,
3000
0000
0000
0000
;
