#TITLE:El baile del gusano;
#SUBTITLE:;
#ARTIST:Los Kuatreros del Sur;
#TITLETRANSLIT:;
#SUBTITLETRANSLIT:;
#ARTISTTRANSLIT:;
#CREDIT:Sawamura77;
#BANNER:Banner.png;
#BACKGROUND:Background.png;
#LYRICSPATH:;
#CDTITLE:Folder title.png;
#MUSIC:El baile del gusano.mp3;
#OFFSET:-0.086;
#SAMPLESTART:48.073;
#SAMPLELENGTH:15.990;
#SELECTABLE:YES;
#BPMS:0.000=150.094;
#STOPS:;
#BGCHANGES:;

//---------------dance-single - Sawamura77----------------
#NOTES:
     dance-single:
     Sawamura77:
     Easy:
     5:
     0.352,0.451,0.263,0.045,0.000:
0000
0000
0000
0100
,
0010
0100
1000
0010
,
1000
0001
0010
0100
,
1000
0010
0100
0010
,
1000
0100
0010
0001
,
0100
0010
1000
0001
,
0010
0100
1000
0010
,
1000
0001
1000
0100
,
1000
0010
0100
0002
,
0010
0100
1000
0010
,
0100
1000
0010
0103
,
0000
0100
1000
0001
,
1000
0010
1000
0001
,
0100
0001
1000
0100
,
0010
0001
0100
0010
,
1000
0100
0000
0010
,
0100
0001
0010
0001
,
0100
0010
1000
0100
,
0010
0100
1000
0010
,
0100
2000
0010
0100
,
0010
0001
0100
3001
,
0010
0001
0000
0010
,
0100
0010
1000
0001
,
1000
0010
0100
0001
,
0010
0100
0010
0001
,
0010
0100
1000
0100
,
0000
0001
0100
0001
,
0010
0001
0100
0010
,
1000
0010
0100
0001
,
0010
1000
0010
0110
,
0000
0000
0000
0000
,
0000
0010
0100
1001
,
0010
0110
0001
0110
,
1000
1001
1000
1100
,
0011
0110
1001
0101
,
0000
0010
1000
1001
,
0000
0010
1000
0110
,
0000
0001
0100
1010
,
0000
0100
0010
1002
,
0000
0000
0000
0103
,
1000
0001
0100
0001
,
0010
0100
1000
0001
,
0100
0010
1000
0100
,
1000
0010
1000
0100
,
0010
0001
1000
0001
,
0010
0001
0000
1000
,
0010
0100
1000
0010
,
1000
0100
0010
0200
,
1000
0010
0001
0010
,
1000
0010
1000
0301
,
0100
0010
1000
0100
,
0010
0001
0100
0010
,
0100
0001
0010
0100
,
1000
0010
1000
0100
,
0010
0001
0000
0100
,
0010
0001
0010
0100
,
1000
0010
1000
0001
,
1000
0100
0010
0001
,
0010
0020
1000
0001
,
1000
0001
1000
0001
,
1000
0031
0010
0100
,
0010
0100
1000
0100
,
1000
0010
1000
0100
,
0010
0001
0100
0010
,
1000
0001
1000
0010
,
0000
0001
1000
0001
,
0100
0001
0010
0100
,
1000
0001
0010
0100
,
0010
0100
1000
1001
,
0000
0000
0000
0000
,
0000
1000
0010
1001
,
0010
0110
1000
1001
,
0100
0110
0100
1001
,
1010
0101
1100
0011
,
0010
0100
1000
0110
,
0000
0010
1000
0011
,
0000
0010
0100
1010
,
0000
0010
0100
2001
,
0000
0000
0000
3001
,
0000
0010
0100
0011
,
0100
1010
0100
0011
,
1000
0110
0100
1010
,
0110
1001
0110
0011
,
1000
0100
1000
1001
,
0000
0001
1000
0110
,
0000
0001
0100
1010
,
0000
0100
1000
0021
,
0000
0000
0000
0031
,
1000
0010
0100
0010
,
1000
0100
0010
0100
,
1000
0001
0100
0010
,
1000
0100
0010
0100
,
1000
0001
0100
0001
,
0010
0001
1000
0000
;

//---------------dance-single - Sawamura77----------------
#NOTES:
     dance-single:
     Sawamura77:
     Medium:
     7:
     0.486,0.451,0.019,0.148,0.100:
0000
0000
0000
0100
,
0010
0000
1000
0001
1000
0000
0001
0000
,
1000
0000
0010
0100
0010
0000
1000
0000
,
0010
0000
0001
0100
0010
0000
0100
0000
,
0001
0010
0100
1000
0100
0010
0001
0100
,
0000
0010
1000
0100
0000
0010
0001
0100
,
0000
0020
2030
3000
0000
0100
0001
1000
,
0000
0001
1000
0010
0000
1000
0001
1000
,
0000
0200
0310
0000
0110
0000
0002
0000
,
1000
0100
0010
1000
,
0010
0000
0103
0001
1000
0010
0100
0000
,
0000
0000
0010
0000
1000
0000
0000
0001
0000
0000
1000
0000
0010
0000
0000
0001
,
0000
0100
0010
0000
1000
0000
0010
0100
,
0001
0000
1000
0000
0010
0000
0000
1000
0000
0000
0100
0000
0010
0000
0000
0001
,
0000
0100
0010
1000
0001
0000
0100
0010
,
0100
0000
1000
0000
0001
0000
0000
0000
0000
0000
0100
0000
0100
0000
0000
0010
,
0000
0000
1000
0000
0002
0000
0000
0203
0000
0000
0000
0000
0310
0000
0000
0000
,
0000
0000
0100
0000
1000
0000
0010
0000
0001
0000
0010
0000
0100
0000
0000
1000
,
0000
0001
0000
0100
1000
0000
0100
0000
,
0010
2000
0001
0010
,
0100
0000
0001
0000
0100
0000
3010
1000
,
0001
0000
0100
0000
0010
0000
0000
0000
0000
0000
0100
0000
0001
0000
0000
1000
,
0000
0000
0001
0000
0100
0000
0000
1000
0000
0000
0010
0000
0100
0000
0000
0000
,
0001
0000
0000
0000
0100
0000
0010
0000
1000
0000
0001
0000
0100
0000
0000
0001
,
0000
0000
0010
0000
0100
0000
0000
1000
0000
0000
0010
0000
0100
0000
0001
0000
,
1000
0000
0010
0100
0010
0001
1000
0000
,
0000
0000
0010
0000
0010
0000
0000
0100
0000
0000
0001
0000
2000
0000
0000
3020
,
0000
0000
0130
0000
0000
0010
0001
0100
,
1000
0000
0100
0000
0010
0000
0000
0001
0000
0000
1000
0000
0000
0000
0010
0000
,
0001
0000
0010
0000
0100
1000
0001
0000
,
0000
0000
0000
0000
,
0000
0000
0000
0000
0001
1000
0010
0000
,
1000
0001
0100
0000
0001
1000
0010
0000
,
1000
0001
0100
0000
0001
1000
0010
1000
,
0001
0100
0001
1000
0010
1000
0100
0000
,
0010
0000
1000
1000
0001
0001
0010
0010
,
0000
0000
0100
0100
0010
0010
1000
1000
,
0000
0000
0010
0001
1000
0100
0001
0010
,
0000
0000
0000
0000
0001
0000
0100
0000
0010
0000
1000
0000
0001
0000
0000
0200
,
0000
0000
0000
0310
,
0100
0000
0001
1000
0001
0000
1000
0000
,
0001
0000
0100
0010
0100
0000
0001
0000
,
0100
0000
1000
0010
0100
0000
0010
0000
,
1000
0100
0010
0001
0010
0100
1000
0010
,
0000
0100
0001
0010
0000
0100
1000
0010
,
0000
0200
0302
0003
0000
0010
1000
0001
,
0000
1000
0001
0100
0000
0001
1000
0001
,
0000
0020
0130
0000
0110
0000
2000
0000
,
0001
0010
0100
0001
,
0100
0000
3010
1000
0001
0100
0010
0000
,
0000
0000
0100
0000
0001
0000
0000
1000
0000
0000
0001
0000
0100
0000
0000
1000
,
0000
0010
0100
0000
0001
0000
0100
0010
,
1000
0000
0001
0000
0100
0000
0000
0001
0000
0000
0010
0000
0100
0000
0000
1000
,
0000
0010
0100
0001
1000
0000
0010
0100
,
0010
0000
0001
0000
1000
0000
0000
0000
0000
0000
0010
0000
0010
0000
0000
0100
,
0000
0000
0001
0000
2000
0000
0000
3020
0000
0000
0000
0000
0130
0000
0000
0000
,
0000
0000
0010
0000
0001
0000
0100
0000
1000
0000
0100
0000
0010
0000
0000
0001
,
0000
1000
0000
0010
0001
0000
0010
0000
,
0100
0002
1000
0100
,
0010
0000
1000
0000
0010
0000
0103
0001
,
1000
0000
0010
0000
0100
0000
0000
0000
0000
0000
0010
0000
1000
0000
0000
0001
,
0000
0000
1000
0000
0010
0000
0000
0001
0000
0000
0100
0000
0010
0000
0000
0000
,
1000
0000
0000
0000
0010
0000
0100
0000
0001
0000
1000
0000
0010
0000
0000
1000
,
0000
0000
0100
0000
0010
0000
0000
0001
0000
0000
0100
0000
0010
0000
1000
0000
,
0001
0000
0100
0010
0100
1000
0001
0000
,
0000
0000
0100
0000
0100
0000
0000
0010
0000
0000
1000
0000
0002
0000
0000
0203
,
0000
0000
0310
0000
0000
0100
1000
0010
,
0001
0000
0010
0000
0100
0000
0000
1000
0000
0000
0001
0000
0000
0000
0100
0000
,
1000
0000
0100
0000
0010
0001
1000
0000
,
0000
0000
0000
0000
,
0000
0000
0000
0000
1000
0001
0100
0000
,
0001
1000
0010
0000
1000
0001
0100
0000
,
0001
1000
0010
0000
1000
0001
0100
0001
,
1000
0010
1000
0001
0100
0001
0010
0000
,
0100
0000
0001
0001
1000
1000
0100
0100
,
0000
0000
0010
0010
0100
0100
0001
0001
,
0000
0000
0100
1000
0001
0010
1000
0100
,
0000
0000
0000
0000
1000
0000
0010
0000
0100
0000
0001
0000
1000
0000
0000
0020
,
0000
0000
0000
0000
0000
0000
0130
0010
,
0100
0010
1000
0001
0001
1000
0100
0000
,
1000
0001
0010
0000
0001
1000
0100
0000
,
1000
0001
0010
0000
0001
1000
0100
1000
,
0001
0010
0001
1000
0100
1000
0010
0000
,
0100
0000
0001
0001
1000
1000
0100
0100
,
0000
0000
0010
0010
0100
0100
0001
0001
,
0000
0000
0100
1000
0001
0010
1000
0100
,
0000
0000
0000
0000
1000
0000
0010
0000
0100
0000
0001
0000
1000
0000
0000
0020
,
0000
0000
0000
0130
,
0010
0000
0001
1000
0001
0000
1000
0000
,
0001
0000
0010
0100
0010
0000
0001
0000
,
0010
0000
1000
0100
0010
0000
0100
0000
,
1000
0010
0100
0001
0100
0010
1000
0100
,
0000
0010
0001
0100
0000
0010
1000
0100
,
0000
0020
0032
0003
1001
0000
0000
0000
;

//---------------dance-single - Sawamura77----------------
#NOTES:
     dance-single:
     Sawamura77:
     Hard:
     10:
     0.809,0.751,0.315,0.090,0.729: // measure 1
0000
0000
0000
0000
0000
0000
0000
0000
0000
0000
0000
0000
0100
0010
0000
0001
,  // measure 2
1000
0000
1000
0000
0010
0000
0100
0000
0010
0000
0100
0000
0001
1000
0000
0010
,  // measure 3
0100
0000
0001
0000
1000
0000
0001
0000
1000
0000
0010
0000
1000
0100
0000
0001
,  // measure 4
0010
0000
1000
0000
0100
0000
0001
0000
0010
0000
0000
0000
0100
0010
0000
0010
,  // measure 5
0100
0000
0001
0000
1000
0000
0010
0000
0000
0100
1000
0001
0010
0000
0100
0000
,  // measure 6
0000
1000
0010
0100
0001
0000
1000
0000
0000
0100
1000
0001
0010
0000
0100
0000
,  // measure 7
0000
0000
2000
0000
3002
0000
0003
0000
0000
1000
0001
1000
0001
0000
0010
0000
,  // measure 8
0000
0100
0010
0100
0010
0000
0100
0000
0000
0001
0010
0100
1000
0000
0100
0000
,  // measure 9
0000
0000
0020
0000
0230
0000
0300
0000
1001
0000
0000
0000
0100
0000
0010
1000
,  // measure 10
0001
0000
0010
0000
0100
0000
1000
0001
0100
0000
0010
0000
0110
0000
0000
0000
,  // measure 11
1001
0000
0000
0000
0000
0000
0000
0000
0000
0000
0000
0000
0100
0000
0000
0000
0001
0000
0000
0000
0100
0000
0000
0000
1000
0000
0000
0000
0010
0000
0000
0000
0001
0000
0000
0000
0010
0000
0000
0000
0000
0000
1000
0000
0000
0100
0000
0000
,  // measure 12
1000
0000
0010
0000
0100
0000
0010
0001
0010
0000
0001
0000
1000
0000
0010
0100
,  // measure 13
0010
0000
1000
0000
0001
0000
0100
0010
0100
0000
0010
0000
1000
0000
0001
0010
,  // measure 14
0100
0000
1000
0000
0010
0000
0001
1000
0010
0000
0001
0000
0100
0000
0001
0010
,  // measure 15
0100
0000
0010
0000
1000
0000
0001
0100
1000
0000
0100
0000
0010
0000
1000
0000
,  // measure 16
0100
0010
0001
0000
0200
0000
0310
0000
0001
0000
0010
0000
1000
0000
0000
0100
,  // measure 17
0000
0000
0010
0000
0001
0000
0010
0000
0100
0000
1000
0001
0100
0000
1000
0000
,  // measure 18
0010
0000
0001
1000
0100
0000
0001
0000
1000
0000
0001
0000
0010
0000
0000
0100
,  // measure 19
0000
0000
1000
0000
0001
0000
0000
0000
0010
0000
1000
0010
0100
0000
0010
0001
,  // measure 20
1000
0000
0100
1000
0010
0000
0100
0001
1000
0000
0100
0000
0010
0000
0001
1000
,  // measure 21
0010
0000
0000
0100
0000
0000
0110
0000
0000
0000
0000
0000
1001
0000
0000
0000
0000
0000
0010
0000
1000
0000
0010
0000
,  // measure 22
0001
0000
0000
0000
0100
0000
0000
0000
1000
0000
0000
0000
0100
0000
0000
0000
0000
0000
0001
0000
0000
0010
0000
0000
0001
0000
0000
0000
0000
0000
0100
0000
0000
0000
0000
0000
0010
0000
0000
0000
0000
0000
0100
0000
0000
1000
0000
0000
,  // measure 23
0100
0000
1000
0000
0001
0000
0100
0010
0100
0000
0001
0000
1000
0000
0010
0100
,  // measure 24
0010
0000
0100
0000
0001
0000
1000
0100
0010
0000
0001
0000
0100
0000
1000
0001
,  // measure 25
0100
0000
1000
0000
0010
0000
1000
0100
0010
0000
0100
0000
0001
0000
1000
0010
,  // measure 26
0001
0000
0010
0000
0100
0000
0001
0000
0010
0100
1000
0000
0020
0000
0130
0000
,  // measure 27
1000
0000
0100
0000
0001
0000
0000
0010
0000
0000
0100
0000
1000
0000
0100
0000
,  // measure 28
0010
0000
0001
1000
0010
0000
0001
0000
0100
0000
1000
0001
0010
0000
1000
0000
,  // measure 29
0001
0000
1000
0000
0100
0000
0000
0010
0000
0000
0001
0000
1000
0000
0000
0000
,  // measure 30
0100
0000
0001
0100
0010
0000
0100
1000
0001
0000
0010
0001
0100
0000
0000
0000
,  // measure 31
0000
0000
0000
0000
0M00
0000
0000
0000
000M
0000
M000
0000
0000
0000
00M0
0000
0M00
0000
0000
00M0
0000
0000
000M
0000
M000
0000
0000
0000
0M00
0000
0000
0000
,  // measure 32
0000
0000
0000
0010
0000
1000
0000
0001
0000
0100
0000
0000
0000
0000
0010
0000
0100
0000
0000
0000
0001
0000
0000
0000
1001
0000
0000
0000
0000
0000
0100
0000
,  // measure 33
0010
0000
1000
0000
1001
0000
0000
1000
0001
0000
0100
0000
0110
0000
0000
0001
,  // measure 34
1000
0000
0010
0000
0110
0000
0000
0010
0100
0000
0010
0000
1001
0000
0100
0000
,  // measure 35
1001
0000
0000
0010
0000
0000
1001
0000
0000
1000
0000
0000
1001
0000
0000
0001
0000
0000
1001
0000
0100
0000
0010
0000
,  // measure 36
0001
0000
0000
0000
0010
0000
0000
0000
1000
0000
0000
0000
0100
0000
0000
0010
0000
0000
0000
0000
0000
0001
0000
0000
1000
0000
0000
0000
0000
0000
0010
0000
0000
0000
0000
0000
0110
0000
0000
0000
0000
0000
0100
0000
0000
0000
0000
0000
,  // measure 37
0001
0000
0100
0000
1000
0010
0000
0001
0100
0000
0010
0000
1010
0000
1000
0000
,  // measure 38
0001
0000
1000
0000
0100
0010
0000
0001
0010
0000
0100
0000
1001
0000
1000
0000
,  // measure 39
0001
0000
0100
0000
0010
1000
0000
0100
0001
0000
0010
0000
0110
0000
0000
1000
,  // measure 40
0000
0000
0001
1000
0100
0000
0010
0000
0001
1000
0001
0100
0010
0100
0000
1000
,  // measure 41
0001
0000
0001
0000
0100
0000
0010
0000
0100
0000
0010
0000
1000
0001
0000
0100
,  // measure 42
0010
0000
1000
0000
0001
0000
1000
0000
0001
0000
0100
0000
0001
0010
0000
1000
,  // measure 43
0100
0000
0001
0000
0010
0000
1000
0000
0100
0000
0000
0000
0010
0100
0000
0100
,  // measure 44
0010
0000
1000
0000
0001
0000
0100
0000
0000
0010
0001
1000
0100
0000
0010
0000
,  // measure 45
0000
0001
0100
0010
1000
0000
0001
0000
0000
0010
0001
1000
0100
0000
0010
0000
,  // measure 46
0000
0000
0002
0000
2003
0000
3000
0000
0000
0001
1000
0001
1000
0000
0100
0000
,  // measure 47
0000
0010
0100
0010
0100
0000
0010
0000
0000
1000
0100
0010
0001
0000
0010
0000
,  // measure 48
0000
0000
0200
0000
0320
0000
0030
0000
1001
0000
0000
0000
0010
0000
0100
0001
,  // measure 49
1000
0000
0100
0000
0010
0000
0001
1000
0010
0000
0100
0000
0110
0000
0000
0000
,  // measure 50
1001
0000
0000
0000
0000
0000
0000
0000
0000
0000
0000
0000
0010
0000
0000
0000
1000
0000
0000
0000
0010
0000
0000
0000
0001
0000
0000
0000
0100
0000
0000
0000
1000
0000
0000
0000
0100
0000
0000
0000
0000
0000
0001
0000
0000
0010
0000
0000
,  // measure 51
0001
0000
0100
0000
0010
0000
0100
1000
0100
0000
1000
0000
0001
0000
0100
0010
,  // measure 52
0100
0000
0001
0000
1000
0000
0010
0100
0010
0000
0100
0000
0001
0000
1000
0100
,  // measure 53
0010
0000
0001
0000
0100
0000
1000
0001
0100
0000
1000
0000
0010
0000
1000
0100
,  // measure 54
0010
0000
0100
0000
0001
0000
1000
0010
0001
0000
0010
0000
0100
0000
0001
0000
,  // measure 55
0010
0100
1000
0000
0020
0000
0130
0000
1000
0000
0100
0000
0001
0000
0000
0010
,  // measure 56
0000
0000
0100
0000
1000
0000
0100
0000
0010
0000
0001
1000
0010
0000
0001
0000
,  // measure 57
0100
0000
1000
0001
0010
0000
1000
0000
0001
0000
1000
0000
0100
0000
0000
0010
,  // measure 58
0000
0000
0001
0000
1000
0000
0000
0000
0100
0000
0001
0100
0010
0000
0100
1000
,  // measure 59
0001
0000
0010
0001
0100
0000
0010
1000
0001
0000
0010
0000
0100
0000
1000
0001
,  // measure 60
0100
0000
0000
0010
0000
0000
0110
0000
0000
0000
0000
0000
1001
0000
0000
0000
0000
0000
0100
0000
0001
0000
0100
0000
,  // measure 61
1000
0000
0000
0000
0010
0000
0000
0000
0001
0000
0000
0000
0010
0000
0000
0000
0000
0000
1000
0000
0000
0100
0000
0000
1000
0000
0000
0000
0000
0000
0010
0000
0000
0000
0000
0000
0100
0000
0000
0000
0000
0000
0010
0000
0000
0001
0000
0000
,  // measure 62
0010
0000
0001
0000
1000
0000
0010
0100
0010
0000
1000
0000
0001
0000
0100
0010
,  // measure 63
0100
0000
0010
0000
1000
0000
0001
0010
0100
0000
1000
0000
0010
0000
0001
1000
,  // measure 64
0010
0000
0001
0000
0100
0000
0001
0010
0100
0000
0010
0000
1000
0000
0001
0100
,  // measure 65
1000
0000
0100
0000
0010
0000
1000
0000
0100
0010
0001
0000
0200
0000
0310
0000
,  // measure 66
0001
0000
0010
0000
1000
0000
0000
0100
0000
0000
0010
0000
0001
0000
0010
0000
,  // measure 67
0100
0000
1000
0001
0100
0000
1000
0000
0010
0000
0001
1000
0100
0000
0001
0000
,  // measure 68
1000
0000
0001
0000
0010
0000
0000
0100
0000
0000
1000
0000
0001
0000
0000
0000
,  // measure 69
0010
0000
1000
0010
0100
0000
0010
0001
1000
0000
0100
1000
0010
0000
0000
0000
,  // measure 70
0000
0000
0000
0000
00M0
0000
0000
0000
M000
0000
000M
0000
0000
0000
0M00
0000
00M0
0000
0000
0M00
0000
0000
M000
0000
000M
0000
0000
0000
00M0
0000
0000
0000
,  // measure 71
0000
0000
0000
0100
0000
0001
0000
1000
0000
0010
0000
0000
0000
0000
0100
0000
0010
0000
0000
0000
1000
0000
0000
0000
1001
0000
0000
0000
0000
0000
0010
0000
,  // measure 72
0100
0000
0001
0000
1001
0000
0000
0001
1000
0000
0010
0000
0110
0000
0000
1000
,  // measure 73
0001
0000
0100
0000
0110
0000
0000
0100
0010
0000
0100
0000
1001
0000
0010
0000
,  // measure 74
1001
0000
0000
0100
0000
0000
1001
0000
0000
0001
0000
0000
1001
0000
0000
1000
0000
0000
1001
0000
0010
0000
0100
0000
,  // measure 75
1000
0000
0000
0000
0100
0000
0000
0000
0001
0000
0000
0000
0010
0000
0000
0100
0000
0000
0000
0000
0000
1000
0000
0000
0001
0000
0000
0000
0000
0000
0100
0000
0000
0000
0000
0000
0110
0000
0000
0000
0000
0000
0010
0000
0000
0000
0000
0000
,  // measure 76
1000
0000
0010
0000
0001
0100
0000
1000
0010
0000
0100
0000
0101
0000
0001
0000
,  // measure 77
1000
0000
0001
0000
0010
0100
0000
1000
0100
0000
0010
0000
1001
0000
0001
0000
,  // measure 78
1000
0000
0010
0000
0100
0001
0000
0010
1000
0000
0100
0000
0110
0000
0000
0001
,  // measure 79
0000
0000
0000
0000
0000
0000
1000
0000
0000
0001
0000
0000
0010
0000
0000
0000
0000
0000
0100
0000
0000
0000
0000
0000
1000
0000
0000
0001
0000
0000
1000
0000
0000
0010
0000
0000
0100
0000
0000
0000
1000
0000
0000
0000
0001
0000
0000
0000
,  // measure 80
0100
0000
0000
0010
0000
1000
0000
0001
0000
0100
0000
0000
0000
0000
0010
0000
0100
0000
0000
0000
0001
0000
0000
0000
1001
0000
0000
0000
0000
0000
0100
0000
,  // measure 81
0010
0000
1000
0000
1001
0000
0000
1000
0001
0000
0100
0000
0110
0000
0000
0001
,  // measure 82
1000
0000
0010
0000
0110
0000
0000
0010
0100
0000
0010
0000
1001
0000
0100
0000
,  // measure 83
1001
0000
0000
0010
0000
0000
1001
0000
0000
1000
0000
0000
1001
0000
0000
0001
0000
0000
1001
0000
0100
0000
0010
0000
,  // measure 84
0001
0000
0000
0000
0010
0000
0000
0000
1000
0000
0000
0000
0100
0000
0000
0010
0000
0000
0000
0000
0000
0001
0000
0000
1000
0000
0000
0000
0000
0000
0010
0000
0000
0000
0000
0000
0110
0000
0000
0000
0000
0000
0100
0000
0000
0000
0000
0000
,  // measure 85
0001
0000
0100
0000
1000
0010
0000
0001
0100
0000
0010
0000
1010
0000
1000
0000
,  // measure 86
0001
0000
1000
0000
0100
0010
0000
0001
0010
0000
0100
0000
1001
0000
1000
0000
,  // measure 87
0001
0000
0100
0000
0010
1000
0000
0100
0001
0000
0010
0000
0110
0000
0000
1000
,  // measure 88
0000
0000
0001
1000
0100
0000
0010
0000
0001
1000
0001
0100
0010
0100
0000
1000
,  // measure 89
0001
0000
0001
0000
0100
0000
0010
0000
0100
0000
0010
0000
1000
0001
0000
0100
,  // measure 90
0010
0000
1000
0000
0001
0000
1000
0000
0001
0000
0100
0000
0001
0010
0000
1000
,  // measure 91
0100
0000
0001
0000
0010
0000
1000
0000
0100
0000
0000
0000
0010
0100
0000
0100
,  // measure 92
0010
0000
1000
0000
0001
0000
0100
0000
0000
0010
0001
1000
0100
0000
0010
0000
,  // measure 93
0000
0001
0100
0010
1000
0000
0001
0000
0000
0010
0001
1000
0100
0000
0010
0000
,  // measure 94
0000
0002
2003
3000
0100
0000
0000
0000
;
