#TITLE:DubiDubiDu;
#SUBTITLE:(Keisari's Eurobeat Remix);
#ARTIST:Christell;
#TITLETRANSLIT:;
#SUBTITLETRANSLIT:;
#ARTISTTRANSLIT:;
#CREDIT:;
#BANNER:DubiDubiDu (Keisari Eurobeat Remix)-bn.png;
#BACKGROUND:DubiDubiDu (Keisari's Eurobeat Remix)i.png;
#LYRICSPATH:;
#CDTITLE:cd.png;
#MUSIC:DubiDubiDu (Keisari's Eurobeat Remix).mp3;
#OFFSET:-8.155;
#SAMPLESTART:48.810;
#SAMPLELENGTH:12.000;
#SELECTABLE:YES;
#BPMS:0.000=165.020;
#STOPS:;
#BGCHANGES:;

//---------------dance-single - ----------------
#NOTES:
     dance-single:
     :
     Hard:
     8:
     0.628,0.557,0.406,0.336,0.000:
1000
0001
0100
0010
,
0200
0320
2030
3002
,
2003
0002
0000
0000
,
3003
0000
0000
0000
0000
1000
1000
0001
,
1002
0000
1003
0010
0100
0001
1000
0010
,
0100
0010
0000
0110
0000
1000
0001
0010
,
0002
0000
1003
0100
1000
0010
0100
0001
,
1000
0010
0000
0110
0000
0010
1000
0001
,
1001
0000
0001
1000
0010
0100
0001
1000
,
0100
0010
0000
0011
0000
0100
1000
0010
,
0200
0000
0301
1000
0010
0100
0001
1000
,
0010
1000
0000
1010
0000
0001
1000
0010
,
2000
3002
0103
0110
,
0020
2030
3001
1001
,
0001
1000
0001
0000
1000
0001
1000
0000
,
2001
0010
0010
3010
,
0010
0100
0010
0000
0110
0000
1001
0000
,
0001
0010
0001
0000
1100
0000
0011
0000
,
0001
1000
0001
0000
1000
0010
1000
0000
,
2000
3020
0230
0302
,
1003
0001
1000
0000
0010
1000
0010
0000
,
0100
0010
0100
0000
0001
0100
0001
0000
,
0200
0020
0000
0330
,
2000
0002
0000
3003
,
1000
0001
1000
0000
0001
0010
0001
0000
,
0010
0100
0010
0000
0100
0010
0001
0000
,
2000
3020
0230
0301
,
0110
1001
0110
1001
,
1000
0010
1000
0010
0100
0010
0100
0010
,
0100
0001
0100
0001
0100
0010
0100
0010
,
0100
0001
1000
0010
1000
0100
0010
0100
,
0110
1001
0110
1001
,
0001
1000
0001
1000
0001
0100
0001
0100
,
0010
0100
0010
0100
0001
0100
0001
0100
,
0010
0100
0001
1000
0001
0010
0100
1000
,
2002
0000
0000
3003
,
0002
0203
0320
1030
,
1001
0000
0010
0100
0010
0001
1000
0010
,
0100
0001
0000
0101
0000
0010
1000
0001
,
2000
0000
3010
0100
0001
0010
0100
1000
,
0010
1000
0000
1010
0000
0001
1000
0100
,
1001
0000
0010
0100
0001
1000
0100
0010
,
0001
0010
0000
0110
0000
0100
0010
0001
,
2000
0000
3010
0100
0001
1000
0010
0100
,
0001
0100
0000
0010
0000
0100
0001
0100
,
0010
0100
0010
0100
0001
0100
0001
0100
,
0010
0100
0010
0100
0001
0100
0001
0100
,
0001
1000
0100
0010
0001
1000
0001
1000
,
1001
0110
1001
0110
,
0100
0001
0100
0001
1000
0010
1000
0010
,
0100
0010
0100
0010
1000
0001
1000
0001
,
1000
0001
0100
0001
1000
0010
0100
0001
,
2002
0000
3003
0000
,
0010
0100
0010
0100
0001
1000
0001
1000
,
0010
0100
0010
0100
0001
1000
0001
1000
,
0001
1000
0010
0100
0001
1000
0100
0010
,
0011
0011
1100
1100
,
0001
0001
1000
1000
0010
0010
0100
0100
,
0010
0010
1000
1000
0001
0001
0100
0100
,
0010
0100
0001
1000
0010
0100
0001
1000
,
0002
0100
0010
1003
,
1010
0101
0110
1001
,
2001
0000
3010
0100
0001
1000
0100
0010
,
0001
0010
0000
0011
0000
0100
0010
0001
,
2000
0000
3001
1000
0010
0100
0001
1000
,
0010
1000
0000
1010
0000
0010
0100
0010
,
0110
0000
0010
1000
0100
0010
0100
1000
,
0010
2000
0000
3001
0000
0100
0010
1000
,
1001
0000
0010
0100
0001
1000
0100
1000
,
0001
1000
0000
0010
0000
0100
0001
0010
,
1001
0000
0000
0000
;

//---------------dance-single - ----------------
#NOTES:
     dance-single:
     :
     Medium:
     5:
     0.423,0.464,0.159,0.159,0.000: // measure 1
0010
0010
0010
0000
,  // measure 2
0100
0100
0100
0000
,  // measure 3
0001
0001
0000
0000
,  // measure 4
1000
0000
0001
1000
,  // measure 5
0001
0000
1000
0000
0010
1000
0010
0000
,  // measure 6
0100
0100
0100
0000
,  // measure 7
0010
0000
1000
0000
0001
0010
0001
0000
,  // measure 8
0100
0100
0100
0000
,  // measure 9
1000
0000
0001
0000
0100
0010
0100
0000
,  // measure 10
0001
0001
0001
0000
,  // measure 11
1000
0000
0001
0000
0010
0100
1000
0000
,  // measure 12
0001
0001
0001
0000
,  // measure 13
1000
0010
0100
1001
,  // measure 14
0001
0010
0100
1010
,  // measure 15
0010
1000
0010
0000
0100
0001
0100
0000
,  // measure 16
0020
0100
0100
0130
,  // measure 17
0010
1000
0010
0000
0101
0000
1010
0000
,  // measure 18
0001
0010
0001
0000
1100
0000
0011
0000
,  // measure 19
0001
1000
0010
0000
0100
0001
1000
0000
,  // measure 20
0020
1000
1000
1030
,  // measure 21
0002
1000
0100
1003
,  // measure 22
2000
0010
0001
3010
,  // measure 23
0002
2000
0003
3000
,  // measure 24
0200
0020
0300
0030
,  // measure 25
0100
1000
0010
0101
,  // measure 26
0001
0010
0100
1100
,  // measure 27
0001
1000
0010
0000
0100
0001
1000
0000
,  // measure 28
0010
0100
0001
0000
,  // measure 29
1000
0010
1000
0000
0001
0000
0100
0000
,  // measure 30
0010
1000
0010
0000
0100
0000
0010
0000
,  // measure 31
1000
0001
0010
0100
,  // measure 32
0110
0110
1001
1001
,  // measure 33
0001
1000
0001
0000
0100
0000
0010
0000
,  // measure 34
1000
0010
1000
0000
0001
0000
0010
0000
,  // measure 35
0100
0010
0100
0000
1000
0001
1000
0000
,  // measure 36
0020
0100
0100
0130
,  // measure 37
2000
0001
0001
3001
,  // measure 38
0001
0000
1000
0000
0010
1000
0010
0000
,  // measure 39
0100
0001
0010
0000
,  // measure 40
0100
0000
1000
0000
0001
0010
0001
0000
,  // measure 41
2000
0001
3001
0000
,  // measure 42
0010
0000
1000
0000
0001
0100
0010
0000
,  // measure 43
1000
0001
0100
0000
,  // measure 44
0010
0000
1000
0000
0001
0100
0010
0000
,  // measure 45
2000
0010
3010
0000
,  // measure 46
1000
0010
1000
0000
0001
0000
0100
0000
,  // measure 47
0010
0100
0010
0000
1000
0000
0001
0000
,  // measure 48
0010
0100
0010
0000
0001
1000
0001
0000
,  // measure 49
2000
0010
0010
3010
,  // measure 50
1000
0010
1000
0000
0001
0000
0100
0000
,  // measure 51
0010
0100
0010
0000
1000
0000
0001
0000
,  // measure 52
0010
0100
0010
0000
0001
1000
0001
0000
,  // measure 53
2001
0010
0010
3010
,  // measure 54
0010
1000
0010
0000
0100
0000
0001
0000
,  // measure 55
1000
0001
0010
0000
0100
0000
1000
0000
,  // measure 56
0001
0010
0001
0000
1000
0010
1000
0000
,  // measure 57
0020
0100
0100
0130
,  // measure 58
0001
1000
0001
0000
0010
0000
0100
0000
,  // measure 59
1000
0001
1000
0000
0001
0000
0010
0000
,  // measure 60
0100
1000
0001
0100
,  // measure 61
0020
1000
1000
1030
,  // measure 62
1010
0101
1010
0101
,  // measure 63
1000
0000
0001
0000
1000
0010
1000
0000
,  // measure 64
0001
0100
0010
0000
,  // measure 65
1000
0000
0001
0000
0010
0100
0010
0000
,  // measure 66
0001
0001
0001
0000
,  // measure 67
1000
0000
0010
0000
0100
0001
1000
0000
,  // measure 68
0200
0010
0310
0000
,  // measure 69
0001
0000
1000
0000
0010
0100
0001
0000
,  // measure 70
0020
0001
0031
0000
,  // measure 71
1001
0000
0000
0000
;

//---------------dance-single - ----------------
#NOTES:
     dance-single:
     :
     Easy:
     4:
     0.313,0.309,0.027,0.088,0.000: // measure 1
0010
0000
0100
0000
,  // measure 2
0010
0100
0010
0000
,  // measure 3
1000
0001
0000
0000
,  // measure 4
0000
0000
0000
1000
,  // measure 5
1001
0001
1000
0010
,  // measure 6
0100
0100
0100
0000
,  // measure 7
0010
1000
0001
0010
,  // measure 8
0100
1000
1000
0000
,  // measure 9
0001
1000
0010
0100
,  // measure 10
0001
0001
0001
0000
,  // measure 11
1000
0001
0100
0010
,  // measure 12
1000
1000
1000
0000
,  // measure 13
0010
1000
0010
0000
,  // measure 14
0100
0001
0100
0000
,  // measure 15
0010
0100
0001
1000
,  // measure 16
0002
2000
3003
0000
,  // measure 17
0010
0010
0010
0000
,  // measure 18
0100
0100
0100
0000
,  // measure 19
0010
0100
0001
1000
,  // measure 20
0020
0200
0330
0000
,  // measure 21
0010
0010
0010
0000
,  // measure 22
0100
0100
0100
0000
,  // measure 23
0002
2000
3003
0000
,  // measure 24
0200
0020
0330
0000
,  // measure 25
0010
0010
0010
0000
,  // measure 26
0100
0100
0100
0000
,  // measure 27
0010
1000
0001
0100
,  // measure 28
0010
0000
1000
0000
,  // measure 29
0001
0001
1000
1000
,  // measure 30
0001
0001
1000
1000
,  // measure 31
0001
1000
0001
0100
,  // measure 32
0010
0010
0010
0010
,  // measure 33
0100
0100
0010
0010
,  // measure 34
0100
0010
0100
0010
,  // measure 35
0100
0100
0001
1000
,  // measure 36
0020
0000
0000
0000
,  // measure 37
0100
0100
0100
0130
,  // measure 38
0001
0001
1000
0010
,  // measure 39
0100
0100
0100
0000
,  // measure 40
0010
1000
0001
0010
,  // measure 41
0100
1000
1000
0000
,  // measure 42
0001
1000
0010
0100
,  // measure 43
0001
0001
0001
0000
,  // measure 44
1000
0001
0100
0010
,  // measure 45
1000
1000
1000
0000
,  // measure 46
0010
0010
0100
0100
,  // measure 47
0001
0001
1000
1000
,  // measure 48
0001
1000
0010
0100
,  // measure 49
0001
0001
1000
1000
,  // measure 50
0001
1000
0001
1000
,  // measure 51
0010
0100
0010
0100
,  // measure 52
0001
1000
0010
0100
,  // measure 53
1001
0000
0000
0000
,  // measure 54
0100
0100
0010
0010
,  // measure 55
0100
0100
0010
0010
,  // measure 56
0100
0001
1000
0010
,  // measure 57
0100
0100
0100
0100
,  // measure 58
0010
0010
0100
0100
,  // measure 59
0010
0100
0010
0100
,  // measure 60
1000
0001
0100
0010
,  // measure 61
2000
0000
0001
0000
,  // measure 62
0001
0001
0001
3001
,  // measure 63
0001
1000
0010
0100
,  // measure 64
0001
0001
0001
0000
,  // measure 65
1000
0010
0100
0010
,  // measure 66
0100
0100
0100
0000
,  // measure 67
0001
0010
0100
1000
,  // measure 68
0001
0001
0001
0000
,  // measure 69
1000
0001
1000
0010
,  // measure 70
0100
0100
0100
0000
,  // measure 71
1001
0000
0000
0000
;
