#VERSION:0.83;
#TITLE:Death by Glamour;
#SUBTITLE:;
#ARTIST:Pokerus Project;
#TITLETRANSLIT:;
#SUBTITLETRANSLIT:;
#ARTISTTRANSLIT:;
#GENRE:;
#ORIGIN:;
#CREDIT:;
#BANNER:Death by Glamour.png;
#BACKGROUND:Death by Glamour bg.png;
#PREVIEWVID:;
#JACKET:;
#CDIMAGE:;
#DISCIMAGE:;
#LYRICSPATH:;
#CDTITLE:Magna Trick title!.png;
#MUSIC:Death by Glamour.mp3;
#OFFSET:-0.091540;
#SAMPLESTART:39.676998;
#SAMPLELENGTH:12.000000;
#SELECTABLE:YES;
#BPMS:0.000=299.781,
2.000=149.891,
29.500=299.781,
30.500=149.891,
33.000=299.781,
35.000=149.891,
123.750=299.781,
125.000=149.891,
125.750=299.781,
126.750=149.891,
129.500=299.781,
143.500=599.563,
149.500=299.781,
151.500=599.563,
154.500=299.781,
163.500=599.563,
165.500=299.781,
175.500=599.563,
181.500=299.781,
183.500=599.563,
187.500=299.781,
191.000=149.891,
199.000=299.781,
201.000=149.891,
203.000=299.781,
205.000=149.891,
215.000=299.781,
217.000=149.891,
219.000=299.781,
227.000=599.563,
233.000=1199.126,
245.000=599.563,
258.500=299.781,
261.000=599.563,
274.500=299.781,
277.000=599.563,
290.500=299.781,
293.000=599.563,
306.500=299.781,
309.000=599.563,
387.667=299.781,
388.333=599.563,
389.000=149.891,
395.500=74.945,
400.000=299.781;
#STOPS:0.000=0.067,
0.333=0.067,
0.667=0.067,
1.000=0.200,
29.500=0.200,
123.750=0.250,
125.750=0.200,
129.000=0.200,
143.500=0.200,
145.500=0.200,
147.500=0.200,
151.500=0.300,
163.500=0.200,
175.500=0.200,
177.500=0.200,
179.500=0.200,
183.500=0.400,
187.500=0.200,
188.000=0.200,
188.500=0.100,
189.000=0.200,
190.000=0.200,
199.000=0.150,
199.750=0.150,
200.500=0.100,
203.000=0.150,
203.750=0.150,
204.500=0.100,
215.000=0.150,
215.750=0.150,
216.500=0.100,
219.000=0.150,
219.750=0.150,
220.500=0.100,
245.000=0.200,
247.000=0.200,
249.000=0.150,
250.500=0.150,
252.000=0.200,
254.000=0.100,
255.000=0.200,
257.000=0.150,
261.000=0.200,
263.000=0.200,
265.000=0.150,
266.500=0.150,
268.000=0.200,
270.000=0.100,
271.000=0.200,
273.000=0.150,
277.000=0.200,
279.000=0.200,
281.000=0.150,
282.500=0.150,
284.000=0.200,
286.000=0.100,
287.000=0.200,
289.000=0.150,
293.000=0.200,
295.000=0.200,
297.000=0.150,
298.500=0.150,
300.000=0.200,
302.000=0.100,
303.000=0.200,
305.000=0.150,
309.000=0.150,
310.500=0.150,
312.000=0.150,
313.500=0.150,
315.000=0.150,
316.500=0.150,
318.000=0.150,
319.500=0.150,
321.000=0.100,
322.000=0.100,
323.000=0.100,
324.000=0.100,
325.000=0.150,
326.500=0.150,
328.000=0.150,
329.500=0.150,
331.000=0.150,
332.500=0.150,
334.000=0.150,
335.500=0.150,
337.000=0.100,
338.000=0.100,
339.000=0.100,
340.000=0.100,
341.000=0.150,
342.500=0.150,
344.000=0.150,
345.500=0.150,
347.000=0.150,
348.500=0.150,
350.000=0.150,
351.500=0.150,
353.000=0.150,
354.500=0.150,
356.000=0.150,
357.500=0.150,
359.000=0.150,
360.500=0.150,
362.000=0.150,
363.500=0.150,
365.000=0.100,
366.000=0.100,
367.000=0.100,
368.000=0.100,
369.000=0.100,
370.000=0.100,
371.000=0.100,
372.000=0.100,
373.000=0.100,
374.000=0.100,
375.000=0.100,
376.000=0.100,
377.000=0.067,
377.667=0.067,
378.333=0.067,
379.000=0.067,
379.667=0.067,
380.333=0.067,
381.000=0.067,
381.667=0.067,
382.333=0.067,
383.000=0.067,
383.667=0.067,
384.333=0.067,
385.000=0.067,
385.667=0.067,
386.333=0.067,
387.000=0.067,
388.333=0.067;
#DELAYS:;
#WARPS:;
#TIMESIGNATURES:0.000=4=4;
#TICKCOUNTS:0.000=4;
#COMBOS:0.000=1;
#SPEEDS:0.000=1.000=0.000=0;
#SCROLLS:0.000=1.000;
#FAKES:;
#LABELS:0.000=Song Start;
#BGCHANGES:0.063=Death by Glamour.mp4=1.000=0=0=1=====,
99999=-nosongbg-=1.000=0=0=0 // don't automatically add -songbackground-
;
#KEYSOUNDS:;
#ATTACKS:
;

//---------------dance-single - Magna Trick----------------
#NOTEDATA:;
#CHARTNAME:Magna Trick;
#STEPSTYPE:dance-single;
#DESCRIPTION:Magna Trick;
#CHARTSTYLE:;
#DIFFICULTY:Beginner;
#METER:6;
#RADARVALUES:0.303206,0.476550,0.101069,0.160026,0.080013,252.000000,240.000000,12.000000,19.000000,0.000000,0.000000,0.000000,0.000000,0.000000,0.303206,0.476550,0.101069,0.160026,0.080013,252.000000,240.000000,12.000000,19.000000,0.000000,0.000000,0.000000,0.000000,0.000000;
#CREDIT:Magna Trick;
#NOTES:
0000
0000
1001
1000
,
0000
0001
0000
1000
,
1000
0000
0001
0000
,
1000
0000
0001
0001
,
0001
0000
1000
0000
,
0010
0000
1000
1000
,
1000
0000
0010
0000
,
0100
0000
0000
1001
0000
0100
0100
0000
,
1000
0000
0000
2000
0000
0000
0000
0000
0000
0000
0000
0000
3001
0000
0000
0000
,
0000
0010
0000
0100
,
0000
0010
0010
0010
,
0000
0001
0000
1000
,
0000
0100
0100
0100
,
0000
1000
0000
0001
,
0000
0010
0100
0010
,
0000
1000
0000
0001
,
0000
0100
0000
0010
,
1000
0000
1000
0000
,
0001
0000
0001
0000
,
1000
0000
1000
0000
,
0010
0000
0010
0000
,
0100
0000
0100
0000
,
0001
0000
0001
0000
,
1000
0000
1000
0000
,
0100
0000
0100
0010
,
0001
0000
1000
0000
,
0010
0100
0100
0010
,
0001
0000
1000
0000
,
0010
0100
0001
0020
,
0000
1000
0000
0100
,
0000
0001
0000
0032
,
0003
0000
0000
0000
2000
0000
0000
3000
0000
0000
0000
0020
0000
0000
0000
0000
,
0000
0000
0000
0000
1000
0030
0200
0000
0000
0000
0000
0000
0300
0000
1001
0000
,
0000
0000
0000
0000
0000
0000
0000
0200
,
0000
0000
0000
0000
0000
0300
0000
0001
,
0000
0000
0000
0000
0000
0000
0000
1000
,
0000
0000
0000
0010
0000
0000
0000
1000
,
0000
0000
0000
0000
0000
0000
0000
1001
,
0000
0000
0000
0000
0000
0000
0000
0100
,
0000
0000
0000
1000
0000
0000
0000
0010
,
0000
0000
0000
0001
0000
0000
0000
0110
,
0000
0000
0000
0000
0000
0000
0000
0020
,
0000
0000
0000
0000
0000
0030
0000
1000
,
0000
0000
0000
0000
0000
0000
0000
0100
,
0000
0000
0000
0001
0000
0000
0000
0010
,
0000
0000
0000
0000
0000
0000
0000
2002
,
0000
0000
0000
0000
0000
3003
0000
0010
,
0010
0100
1001
0000
0110
0000
1000
0000
,
0000
0010
0000
1000
,
1000
0000
0000
0000
0001
0000
0000
0000
0000
0000
0000
0000
0010
0000
0000
0010
,
0000
0000
0010
0000
0010
0000
0000
0000
0000
0000
0000
0000
0100
0000
0000
0100
,
0000
0100
0100
0000
0010
0010
0000
0000
,
0001
0000
1000
0000
,
0010
0000
0000
0000
0000
0000
0000
0000
0100
0000
0000
0000
0001
0000
0000
0001
,
0000
0000
0001
0000
0001
0000
0000
0000
0000
0000
0000
0000
1000
0000
0000
1000
,
0000
1000
2000
0000
0000
0000
0000
0000
,
0000
0000
0000
0000
,
0000
0000
0000
0000
,
0000
0000
0000
0000
,
0000
0000
0000
0000
,
0000
0000
0000
0000
,
0000
3001
0000
1000
,
0000
0000
0001
0000
0000
1000
0000
0000
,
0001
0000
1000
0001
,
0000
0000
1000
0000
0000
0001
0000
0000
,
0000
1000
0000
0001
,
0000
0000
1000
0000
0000
0001
0000
0000
,
1000
0000
0001
1000
,
0000
0000
0001
0000
0000
1000
0000
0000
,
0000
0001
0000
1000
,
0000
0000
0001
0000
0000
1000
0000
0000
,
0001
0000
1000
0001
,
0000
0000
1000
0000
0000
0001
0000
0000
,
0000
1000
0000
0001
,
0000
0000
1000
0000
0000
0001
0000
0000
,
1000
0000
0001
1000
,
0000
0000
0001
0000
0000
1000
0000
0000
,
0000
0000
1000
0000
0000
1000
0000
0000
,
1000
0000
0000
1000
0000
0000
0001
0000
,
0000
0001
0000
0000
0001
0000
0000
0001
,
0000
1000
1000
1000
,
1000
0000
0001
0000
0000
1000
0000
0000
,
0001
0000
0000
1000
0000
0000
0001
0000
,
0000
1000
0000
0000
0001
0000
0000
1000
,
0000
0001
0001
0001
,
0001
0000
1000
0000
0000
0001
0000
0000
,
1000
0000
0000
0001
0000
0000
1000
0000
,
0000
0001
0000
0000
1000
0000
0000
0001
,
0000
0000
1000
0000
0000
0001
0000
0000
,
1000
0000
0000
0001
0000
0000
1000
0000
,
0000
0001
0000
0000
1000
0000
0000
0001
,
0000
1000
1000
1000
,
0001
0001
0001
0100
,
0100
0100
0010
0010
,
0010
1000
0000
0001
,
0000
1000
0000
0001
,
0000
1000
0000
0001
,
0000
0000
2002
0000
0000
3003
0220
0000
,
0000
0330
0202
0000
0000
0000
0303
2001
,
0000
0000
0000
0000
0000
0000
0000
0000
0000
0000
0000
0000
0000
0001
0000
3001
,
0000
0000
0000
0001
0000
1000
0000
0001
0000
0000
0000
1000
0000
0000
0000
0000
,
0000
0001
0000
0000
0000
1000
0000
0000
0000
0001
0000
0000
0000
0001
0000
1000
,
0000
0001
0000
0200
0000
0000
0000
0000
0000
0000
0000
0000
0000
0000
0300
0000
;

//---------------dance-single - Magna Trick----------------
#NOTEDATA:;
#CHARTNAME:Magna Trick;
#STEPSTYPE:dance-single;
#DESCRIPTION:Magna Trick;
#CHARTSTYLE:;
#DIFFICULTY:Easy;
#METER:10;
#RADARVALUES:0.428339,0.779809,0.800128,0.235827,0.092646,356.000000,261.000000,95.000000,28.000000,0.000000,0.000000,0.000000,0.000000,0.000000,0.428339,0.779809,0.800128,0.235827,0.092646,356.000000,261.000000,95.000000,28.000000,0.000000,0.000000,0.000000,0.000000,0.000000;
#CREDIT:Magna Trick;
#NOTES:
0000
0000
1001
0001
,
0001
1000
0001
0001
,
1000
0000
0000
1000
0000
0000
0000
0000
1000
0000
0000
0000
1000
0000
0000
0000
,
0001
0100
1000
1000
,
0001
0000
0000
0001
0000
0000
0000
0000
0010
0000
0000
0000
0010
0000
0000
0000
,
0100
0100
0001
0001
,
1000
0000
0000
1000
0000
0000
0000
0000
0100
0000
0000
0000
0100
0000
0000
0000
,
0010
0000
0010
1001
0000
0010
0010
0000
,
0001
0000
0000
0002
0000
0000
0000
0000
0000
0000
0000
0000
2003
0000
0000
0000
,
0000
0100
0000
0010
,
0000
3100
0100
0200
,
0000
1000
0000
0001
,
0000
0310
0010
0020
,
0000
0001
0000
1000
,
0000
0100
1000
2030
,
0000
0001
0000
3002
,
0000
0010
0000
0103
,
0001
1000
0001
0000
,
1000
0100
1000
0000
,
0001
0010
0001
0000
,
0100
0010
0100
0000
,
0010
0001
0010
0000
,
1000
0100
1000
0000
,
0001
0010
0001
0000
,
0010
0001
0010
0210
,
0000
0000
0001
0000
,
1000
0310
0010
2000
,
0001
0000
0001
0000
,
3100
0010
1000
0210
,
0000
0001
0000
0010
,
0000
1000
0000
2300
,
3000
0000
0000
0000
0002
0000
0000
0003
0000
0000
0000
0200
0000
0000
0000
0000
,
0000
0000
0000
0000
0001
0300
0020
0000
0000
0000
0000
0000
0030
0000
1001
0000
,
0000
0000
0000
0000
0000
0000
0000
0020
,
0000
0000
0000
0000
0000
0030
0000
1100
,
0000
0000
0000
0000
0000
0000
0000
0101
,
0000
0000
0000
0101
0000
0000
0000
0101
,
0000
0000
0000
0000
0000
0000
0000
1001
,
0000
0000
0000
0000
0000
0000
0000
0011
,
0000
0000
0000
0011
0000
0000
0000
0101
,
0000
0000
0000
1001
0000
0000
0000
1010
,
0000
0000
0000
0000
0000
0000
0000
0200
,
0000
0000
0000
0000
0000
0300
0000
0011
,
0000
0000
0000
0000
0000
0000
0000
0011
,
0000
0000
0000
1010
0000
0000
0000
0110
,
0000
0000
0000
0000
0000
0000
0000
2002
,
0000
0000
0000
0000
0000
3003
0000
0110
,
0110
1001
1001
0000
0110
0000
0001
0000
,
0010
0000
0200
0000
0000
0300
0001
0000
,
0001
0000
0000
0000
2000
0000
0000
0000
0000
0000
3000
0000
0100
0000
0000
0100
,
0000
0000
0100
0000
0100
0000
0000
0000
0000
0000
0000
0000
0010
0000
0000
0010
,
0000
0010
0010
0000
0100
0100
0000
0000
,
1000
0010
0000
0001
,
0100
0000
0000
0000
0010
0000
0000
0000
0010
0000
0000
0000
1000
0000
0000
1000
,
0000
0000
1000
0000
1000
0000
0000
0000
0000
0000
0000
0000
0001
0000
0000
0001
,
0000
0001
0002
0000
0000
0000
0000
0000
,
0000
0000
0000
0000
,
0000
0000
0000
0000
,
0000
0000
0000
0000
,
0000
0000
0000
0000
,
0000
0000
0000
0000
,
0000
1003
0000
0001
,
0000
0000
1000
0000
0000
0001
0000
0000
,
1000
0000
0001
1000
,
0000
0000
1001
0000
0000
1001
0000
0000
,
0000
0001
0000
1000
,
0000
0000
0001
0000
0000
1000
0000
0000
,
0001
0000
1000
0001
,
0000
0000
1001
0000
0000
1001
0000
0000
,
0000
1000
0000
0001
,
0000
0000
1000
0000
0000
0001
0000
0000
,
1000
0000
0001
1000
,
0000
0000
1001
0000
0000
1001
0000
0000
,
0000
0001
0000
1000
,
0000
0000
0001
0000
0000
1000
0000
0000
,
0001
0000
1000
0001
,
0000
0000
1001
0000
0000
1001
0000
0000
,
0000
0000
0011
0000
0000
0011
0000
0000
,
0011
0000
0000
0011
0000
0000
1100
0000
,
0000
1100
0000
0000
1100
0000
0000
1100
,
0000
1001
1001
1001
,
1001
0000
0101
0000
0000
0101
0000
0000
,
0101
0000
0000
0101
0000
0000
1010
0000
,
0000
1010
0000
0000
1010
0000
0000
1010
,
0000
1001
1001
1001
,
1001
0000
0110
0000
0000
1100
0000
0000
,
0101
0000
0000
1100
0000
0000
0101
0000
,
0000
1100
0000
0000
0101
0000
0000
1100
,
0000
0000
0101
0000
0000
1100
0000
0000
,
0101
0000
0000
1100
0000
0000
0101
0000
,
0000
1100
0000
0000
0101
0000
0000
1100
,
0000
1001
1001
1001
,
0110
0110
0110
1010
,
1010
1010
0101
0101
,
0101
0011
0000
1010
,
0000
0011
0000
1010
,
0000
0011
0000
1010
,
0000
0000
2002
0000
0000
3003
0220
0000
,
0000
0330
2020
0000
0000
0000
3030
1002
,
0000
0000
0000
0000
0000
0000
0000
0000
0000
0000
0000
0000
0000
1000
0000
1003
,
0000
0000
0000
1000
0000
0001
0000
1000
0000
0000
0000
0001
0000
0000
0000
0000
,
0000
1000
0000
0000
0000
0001
0000
0000
0000
1000
0000
0000
0000
1000
0000
0001
,
0000
1000
0000
0020
0000
0000
0000
0000
0000
0000
0000
0000
0000
0000
0030
0000
;

//---------------dance-single - Magna Trick----------------
#NOTEDATA:;
#CHARTNAME:Magna Trick;
#STEPSTYPE:dance-single;
#DESCRIPTION:Magna Trick;
#CHARTSTYLE:;
#DIFFICULTY:Medium;
#METER:12;
#RADARVALUES:0.519782,0.779809,1.069645,0.244250,0.109491,432.000000,305.000000,127.000000,29.000000,0.000000,1.000000,0.000000,0.000000,0.000000,0.519782,0.779809,1.069645,0.244250,0.109491,432.000000,305.000000,127.000000,29.000000,0.000000,1.000000,0.000000,0.000000,0.000000;
#CREDIT:Magna Trick;
#NOTES:
0000
0000
0200
0300
1001
0000
0001
0000
,
1000
0000
0000
1000
0000
0000
1000
0000
0000
0000
0001
0000
0001
0000
0000
0000
,
1000
0000
0000
1000
0000
0000
0000
0000
1001
0000
0000
0000
1000
0000
0000
0000
,
0001
0000
0000
0001
0000
0000
0001
0000
0000
0000
1000
0000
1000
0000
0000
0000
,
0001
0000
0000
0001
0000
0000
0000
0000
0110
0000
0000
0000
0100
0000
0000
0000
,
0010
0000
0000
0010
0000
0000
0010
0000
0000
0000
0100
0000
0100
0000
0000
0000
,
0010
0000
0000
0010
0000
0000
0000
0000
0110
0000
0000
0000
0010
0000
0000
0000
,
0100
0000
0000
0100
0000
0000
1001
0000
0000
0000
0100
0000
0100
0000
0000
0000
,
1000
0000
0000
2000
0000
0000
0000
0000
0000
0000
0000
0000
3002
0000
0000
0000
,
0000
0010
0000
0100
,
0010
0013
0010
0020
,
0000
0001
0000
1000
,
0000
0130
0100
0200
,
0000
1000
0000
0001
,
0000
0010
0001
0302
,
0000
1000
0000
2003
,
0000
0000
0100
0000
0000
0000
3010
0100
,
0010
0000
1000
0100
1000
0000
0000
0010
,
0001
0010
0001
0000
1000
0000
0010
1000
,
0010
1000
0100
0000
0010
0000
0000
0001
,
0010
0001
0100
0001
0010
0000
0100
1000
,
0100
1000
0100
0010
0001
0000
0000
0010
,
0001
0010
0001
0000
0010
0000
1000
0001
,
1000
0001
0100
0000
0001
0000
0000
0010
,
0100
0010
0001
0000
0100
0000
0120
0000
,
1000
0000
1000
0000
,
0001
0130
0001
0102
,
1000
0000
1000
0010
,
0103
0100
0001
0120
,
0000
1000
0000
0100
,
0000
0001
0000
0032
,
0003
0000
0000
0000
2000
0000
0000
3000
0000
0000
0000
0020
0000
0000
0000
0000
,
1000
0000
0000
0000
1000
0030
0200
0000
0000
0000
0000
0000
0300
0000
1001
0000
,
0000
0000
0000
0000
0000
0000
0000
0200
,
0000
0000
0000
0000
0000
0301
0000
0011
,
0000
0000
0000
0000
0000
0000
0000
1010
,
0000
0000
0000
1010
0000
0000
0000
1010
,
0000
0000
0000
0000
0000
1000
0000
1001
,
0000
0000
0000
0000
0000
0000
0000
1100
,
0000
0000
0000
1100
0000
0000
0000
1010
,
0000
0000
0000
1001
0000
0000
0000
0101
,
0000
0000
0000
0000
0000
0000
0000
0020
,
0000
0000
0000
0000
0000
1030
0000
1100
,
0000
0000
0000
0000
0000
0000
0000
1100
,
0000
0000
0000
0101
0000
0000
0000
0110
,
0000
0000
0000
0000
0000
0001
0000
2002
,
0000
0000
0000
0000
0000
3003
0000
0110
,
0110
1001
1001
0000
0110
0000
1000
0000
,
0100
1000
0020
0000
1000
0030
1000
0100
,
1000
0000
0100
0000
0002
0000
0000
0000
0000
0000
0003
0000
0010
0000
0000
0010
,
0000
0000
0010
0000
0010
0000
0000
0000
0001
0000
0000
0000
0100
0000
0000
0100
,
0000
0100
0100
0000
0010
0010
0000
1000
,
0001
0010
0100
0000
0000
1000
0010
0100
,
0001
0000
1000
0000
0100
0000
0000
0000
0100
0000
0000
0000
0001
0000
0000
0001
,
0000
0000
0001
0000
0001
0000
0000
0000
0010
0000
0000
0000
1000
0000
0000
1000
,
0000
1000
2000
0000
0000
0000
0000
0000
,
0000
0000
0000
0000
,
0000
0000
0000
0000
,
0000
0000
0000
0000
,
0000
0000
0000
0000
,
0000
0000
0000
0000
,
0000
3011
0000
1100
,
0000
0000
0011
0000
0000
1100
0000
0000
,
0011
0000
1100
0011
,
0000
0000
1001
0000
0000
1001
0000
0000
,
0000
1010
0000
0101
,
0000
0000
1010
0000
0000
0101
0000
0000
,
1010
0000
0101
1010
,
0000
0000
1001
0000
0000
1001
0000
0000
,
0000
1100
0000
0011
,
0000
0000
0011
0000
0000
1100
0000
0000
,
0011
0000
1100
0011
,
0000
0000
1001
0000
0000
1001
0000
0000
,
0000
1010
0000
0101
,
0000
0000
1010
0000
0000
0101
0000
0000
,
1010
0000
0101
1010
,
0000
0000
1001
0000
0000
1001
0000
0000
,
0000
0000
1100
0000
0000
1100
0000
0000
,
1100
0000
0000
1100
0000
0000
0011
0000
,
0000
0011
0000
0000
0011
0000
0000
0011
,
0000
1001
1001
1001
,
1001
0000
1010
0000
0000
1010
0000
0000
,
1010
0000
0000
1010
0000
0000
0101
0000
,
0000
0101
0000
0000
0101
0000
0000
0101
,
0000
1001
1001
1001
,
1001
0000
0110
0000
0000
0011
0000
0000
,
1010
0000
0000
0011
0000
0000
1010
0000
,
0000
0011
0000
0000
1010
0000
0000
0011
,
0000
0000
1010
0000
0000
0011
0000
0000
,
1010
0000
0000
0011
0000
0000
1010
0000
,
0000
0011
0000
0000
1010
0000
0000
0011
,
0000
1001
1001
1001
,
0110
0110
0110
0101
,
0101
0101
1010
1010
,
1010
1100
0000
0101
,
0000
1100
0000
0101
,
0000
1100
0000
0101
,
0000
0000
2002
0000
0000
3003
0220
0000
,
0000
0330
0202
0000
0000
0000
0303
2001
,
0000
0000
0000
0000
0000
0000
0000
0000
0000
0000
0000
0000
0000
0001
0000
3001
,
0000
0000
0000
0001
0000
1000
0000
0001
0000
0000
0000
1000
0000
0000
0000
0000
,
0000
0001
0000
0000
0000
1000
0000
0000
0000
0001
0000
0000
0000
0001
0000
1000
,
0000
0001
0000
0200
0000
0000
0000
0000
0000
0000
0000
0000
0000
0000
0300
0000
;

//---------------dance-single - Magna Trick----------------
#NOTEDATA:;
#CHARTNAME:Magna Trick;
#STEPSTYPE:dance-single;
#DESCRIPTION:Magna Trick;
#CHARTSTYLE:;
#DIFFICULTY:Hard;
#METER:14;
#RADARVALUES:0.644915,0.996423,0.867507,0.168448,0.391642,536.000000,433.000000,103.000000,20.000000,0.000000,1.000000,0.000000,0.000000,0.000000,0.644915,0.996423,0.867507,0.168448,0.391642,536.000000,433.000000,103.000000,20.000000,0.000000,1.000000,0.000000,0.000000,0.000000;
#CREDIT:Magna Trick;
#NOTES:
0001
0000
0001
0000
0001
0000
0020
0000
0000
0030
0000
0000
1001
0000
0000
0000
0000
0000
1000
0000
0000
0000
0000
0000
,
0001
0000
0000
0001
0000
0000
0010
0000
0000
0000
0100
0000
0100
0000
0000
0000
,
0010
0000
0000
0001
0000
0000
0000
0000
1001
0000
0000
0000
0001
0000
0000
0000
,
1000
0000
0000
1000
0000
0000
0100
0000
0000
0000
0010
0000
0010
0000
0000
0000
,
0100
0000
0000
1000
0000
0000
0000
0000
0110
0000
0000
0000
0010
0000
0000
0000
,
0100
0000
0000
0100
0000
0000
0001
0000
0000
0000
1000
0000
1000
0000
0000
0000
,
0100
0000
0000
0010
0000
0000
0000
0000
0110
0000
0000
0000
0100
0000
0000
0000
,
0010
0000
0000
0010
0000
0000
1001
0000
0000
0000
0010
0000
0010
0000
0000
0000
,
0001
0000
0000
0002
0000
0000
0000
0000
0000
0000
0000
0000
1003
0000
0000
0000
,
0001
0000
0000
0000
0010
0000
0000
0010
0000
0000
0001
0000
0000
0000
0100
0000
,
0100
0000
0000
0000
1000
0000
0000
0001
0000
0000
0000
0000
0010
0000
0000
0000
,
0100
0000
0000
0000
0001
0000
0000
0001
0000
0000
1000
0000
0000
0000
0010
0000
,
0010
0000
0000
0000
0100
0000
0000
1000
0000
0000
0000
0000
0001
0000
0000
0000
,
0010
0000
0000
0000
0100
0000
0000
1000
0000
0000
1000
0000
0000
0000
0001
0000
,
0001
0000
0000
0000
0010
0000
0000
0100
0000
0000
0000
0000
1000
0000
0000
0000
,
0010
0000
0000
0000
0100
0000
0000
1000
0000
0000
0100
0000
0000
0000
0001
0000
,
0001
0000
0000
0000
0010
0000
0000
0001
0000
0000
0000
0000
1000
0000
0100
0000
,
1000
0000
0100
0000
0010
0000
0001
0010
0000
0001
0010
0000
0000
0000
0100
0000
,
0010
0000
0100
0000
0010
0001
0000
1000
0000
0000
0010
0000
0100
0000
0001
0000
,
0100
0000
0001
0000
1000
0000
0100
0010
0000
0100
0010
0000
0000
0000
1000
0000
,
0100
0000
1000
0000
0010
1000
0000
0001
0000
0000
1000
0000
0010
0000
0001
0000
,
0010
0000
0001
0000
1000
0000
0001
1000
0000
0001
1000
0000
0000
0000
0100
0000
,
1000
0000
0100
0000
1000
0001
0000
0010
0000
0000
0100
0000
0010
0000
0001
0000
,
0100
0000
0010
0000
1000
0000
0100
1000
0000
0100
1000
0000
0000
0000
0100
0000
,
0010
0000
0100
0000
1000
0001
0000
0010
0000
0000
0100
0000
1001
0000
1000
0000
,
0010
1000
0010
1000
0000
0010
1000
0010
1000
0000
0100
0000
0010
0000
0001
0000
,
0010
0001
0000
0010
0000
0001
0010
0000
0100
0000
1000
0000
0100
0010
0001
1000
,
0100
0000
0000
0000
0010
0000
0000
0000
0100
0000
0000
0000
1000
0000
0000
0001
,
1000
0001
0100
0010
1000
0001
0010
0100
,
1000
0001
0000
1000
0000
0100
0010
0100
0010
0000
0001
0000
0100
0000
0010
0000
,
1000
0100
0000
1000
0000
0001
1000
0000
0010
0000
0100
0000
0001
1000
0001
1000
,
0000
0000
0000
0000
1000
0001
1000
0001
0000
0000
0000
0100
0010
0100
0010
0100
,
0010
0100
0010
0100
0010
0000
2000
0000
0000
0000
0000
0000
3000
0000
1001
0000
,
0000
0000
0000
0000
0000
0000
0000
0020
,
0000
0000
0000
0000
0000
1030
0000
1100
,
0000
0000
0000
0001
0000
0000
0000
0101
,
0000
0000
0000
0101
0000
0000
0000
0101
,
0000
0000
0000
1000
0000
0001
0000
1001
,
0000
0000
0000
0000
0000
0010
0000
0011
,
0000
0000
0000
0011
0000
0000
0000
0101
,
0000
0000
0000
1001
0000
0100
0000
1010
,
0000
0000
0000
0000
0000
0000
0000
0200
,
0000
0000
0000
0000
0000
0301
0000
0011
,
0000
0000
0000
0010
0000
0001
0000
0011
,
0000
0000
0000
1010
0000
0000
0000
0110
,
0000
0000
0000
0000
0000
1000
0000
2002
,
0000
0000
0000
0000
0000
3003
0000
0110
,
0110
1001
1001
0000
0110
0000
0001
0000
,
0010
0000
0001
0200
0000
0000
0000
0300
0001
0000
1000
0000
0001
0000
0010
0000
,
0001
0000
1000
0200
0000
0000
0000
0300
0010
0000
0001
0000
0100
0000
0000
0100
,
0000
0000
0100
0000
0100
0000
0000
0000
1000
0000
0100
0000
0010
0000
0000
0010
,
0000
0010
0010
0000
0001
0001
0000
0001
,
1000
0000
0100
0020
0000
0000
0000
0030
0100
0000
1000
0000
0100
0000
0010
0000
,
0001
0000
0010
0002
0000
0000
0000
0003
0010
0000
0100
0000
1000
0000
0000
1000
,
0000
0000
1000
0000
1000
0000
0000
0000
0100
0000
0010
0000
0001
0000
0000
0001
,
0000
0001
0002
0000
0000
0000
0000
0000
,
0000
0000
0000
0000
,
0000
0000
0000
0000
,
0000
0000
0000
0000
,
0000
0000
0000
0000
,
0000
0000
0000
0000
,
0000
1103
0000
0011
,
0000
0000
1100
0000
0000
0011
0000
0000
,
1100
0000
0011
1100
,
0000
0000
1001
0000
0000
1001
0000
0000
,
0000
0101
0000
1010
,
0000
0000
0101
0000
0000
1010
0000
0000
,
0101
0000
1010
0101
,
0000
0000
1001
0000
0000
1001
0000
0000
,
0000
0011
0000
1100
,
0000
0000
0011
0000
0000
1100
0000
0000
,
0011
0000
1100
0011
,
0000
0000
1001
0000
0000
1001
0000
0000
,
0000
0101
0000
1010
,
0000
0000
0101
0000
0000
1010
0000
0000
,
0101
0000
1010
0101
,
0000
0000
1001
0000
0000
1001
0000
0000
,
0000
0000
0011
0000
0001
0010
0000
0000
,
0011
0000
0001
0010
0000
0000
1100
0000
,
1000
0100
0000
0000
1100
0000
1000
0100
,
0000
1001
1001
1001
,
1001
0000
0101
0000
0001
0100
0000
0000
,
0101
0000
0001
0100
0000
0000
1010
0000
,
0010
1000
0000
0000
1010
0000
0010
1000
,
0000
1001
1001
1001
,
1001
0000
0110
0000
0001
1000
0000
0000
,
0101
0000
0001
1000
0000
0000
0101
0000
,
0001
1000
0000
0000
0101
0000
0001
1000
,
0000
0000
0101
0000
0001
1000
0000
0000
,
0101
0000
0001
1000
0000
0000
0101
0000
,
0001
1000
0000
0000
0101
0000
0001
1000
,
0000
1001
1001
1001
,
0110
0110
0110
1010
,
1010
1010
0101
0101
,
0101
0000
0000
0001
0000
1000
0000
0001
0000
1000
0000
0001
,
0000
1000
0000
0001
0000
1000
0000
0001
0000
1000
0000
0001
,
0000
1000
0000
0001
0000
1000
0000
0001
0000
1000
0000
0001
,
0000
0000
1000
0000
0000
0000
2002
0000
0000
0000
0000
0000
0000
0000
0000
3003
0000
0000
0220
0000
0000
0000
0000
0000
,
0000
0330
2020
0000
0000
0000
3030
1002
,
0000
0000
0000
0000
0000
0000
0000
0000
0000
0000
0000
0000
0000
1000
0000
1003
,
0000
0000
0000
1000
0000
0100
0000
0010
0000
0000
0000
0001
0000
0000
0000
0000
,
0000
1000
0000
0000
0000
0001
0000
0000
0000
0100
0000
0000
0000
0010
0000
1000
,
0000
0100
0000
0020
0000
0000
0000
0000
0000
0000
0000
0000
0000
0000
0030
0000
;

//---------------dance-single - Magna Trick----------------
#NOTEDATA:;
#CHARTNAME:Magna Trick;
#STEPSTYPE:dance-single;
#DESCRIPTION:Magna Trick;
#CHARTSTYLE:;
#DIFFICULTY:Challenge;
#METER:17;
#RADARVALUES:0.784486,1.126391,1.254938,0.185293,0.509555,652.000000,495.000000,149.000000,22.000000,0.000000,9.000000,0.000000,0.000000,0.000000,0.784486,1.126391,1.254938,0.185293,0.509555,652.000000,495.000000,149.000000,22.000000,0.000000,9.000000,0.000000,0.000000,0.000000;
#CREDIT:Magna Trick;
#NOTES:
1000
0000
1000
0000
1000
0000
0200
0000
0000
0300
0000
0000
1001
0000
0000
0000
0000
0000
0001
0000
0000
0000
0000
0000
,
1000
0000
0000
1000
0000
0000
0100
0000
0000
0000
0010
0000
0010
0000
0000
0000
,
1100
0000
0000
1010
0000
0000
0000
0000
1001
0000
0000
0000
1000
0000
0000
0000
,
0001
0000
0000
0001
0000
0000
0010
0000
0000
0000
0100
0000
0100
0000
0000
0000
,
0011
0000
0000
0101
0000
0000
0000
0000
0110
0000
0000
0000
0100
0000
0000
0000
,
0010
0000
0000
0010
0000
0000
1000
0000
0000
0000
0001
0000
0001
0000
0000
0000
,
1010
0000
0000
0101
0000
0000
0000
0000
0110
0000
0000
0000
0010
0000
0000
0000
,
0100
0000
0000
0100
0000
0000
1001
0000
0000
0000
0100
0000
0100
0000
0000
0000
,
1000
0000
0000
2000
0000
0000
0000
0000
0000
0000
0000
0000
3001
0000
0000
0001
,
1000
0000
0000
0000
0100
0000
0000
0100
0000
0000
1000
0000
0000
0000
0010
0000
,
0010
0000
0000
0000
1000
0000
0000
1000
0000
0100
0010
0100
0010
0000
0000
0000
,
0001
0000
0000
0000
1000
0000
0000
1000
0000
0000
0001
0000
0000
0000
0100
0000
,
0100
1000
0100
1000
0010
1000
0000
0001
0000
0010
1000
0010
1000
0000
0000
0000
,
0100
0000
0000
0000
0010
0000
0000
0001
0000
0000
0001
0000
0000
0000
1000
0000
,
1000
0000
0000
0000
0100
0000
0000
0010
0000
0001
0100
0010
2000
0000
0000
0000
,
0100
0000
0000
0000
0010
0000
0000
0001
0000
0000
0010
0000
3001
0000
1000
0000
,
0010
0000
1000
0100
1000
0100
1000
0100
1000
0001
0010
0000
0100
0000
0010
0000
,
0001
0000
0010
0000
0100
0010
0001
0100
0000
1000
0100
0000
0000
0000
0010
0000
,
0100
0000
0010
0000
0100
1000
0010
0001
1000
0000
0100
0000
0010
0000
1000
0000
,
0010
0000
1000
0000
0100
0010
0001
0100
0000
0001
0100
0000
0000
0000
0001
0000
,
0010
0000
0001
0000
0100
0001
0010
1000
0100
0000
0001
0000
0100
0000
1000
0000
,
0100
0000
1000
0000
0001
0010
0100
1000
0000
0001
1000
0000
0000
0000
0010
0000
,
0001
0000
0010
0000
0001
1000
0010
0100
0001
0000
0010
0000
0100
0000
1000
0000
,
0010
0000
0100
0000
0001
1000
0010
0100
0000
0001
0100
0000
0000
0000
0010
0000
,
0100
0000
0010
0000
0001
1000
0100
0010
0001
0000
0010
0000
1001
0000
0001
0000
,
0100
0001
0100
0001
0000
0100
0001
0100
0001
0000
0010
0000
0100
0000
1000
0000
,
0100
1000
0000
0100
0000
1000
0100
0000
0010
0000
0001
0000
0011
0100
1000
0001
,
0010
0000
0000
0000
0100
0000
0000
0010
0000
0000
0001
0000
1000
0000
0000
1000
,
0001
1000
0010
0100
0001
1000
1100
0010
,
0001
1000
0000
0001
0000
0010
0100
0010
0100
0000
1000
0000
0010
0000
0100
0000
,
0001
0010
0000
0001
0000
1000
0001
0000
0100
0000
0010
0000
1000
0100
0001
0010
,
0000
0000
0000
0000
0001
0010
1000
0100
0000
0000
0000
1000
0100
0001
0010
1000
,
0100
0001
0010
1000
0100
0000
0002
0000
0000
0000
0000
0000
0003
0000
1001
0000
,
0000
0000
0000
0010
0000
0000
0000
0200
,
0000
0000
0000
0000
0000
0301
0000
0011
,
0000
0000
0000
1000
0000
0000
0000
1010
,
0000
0000
0000
1010
0000
0000
0000
1010
,
0000
0000
0000
0001
0000
1000
0000
1001
,
0000
0000
0000
0000
0000
0100
0000
1100
,
0010
0001
0000
1100
0010
0001
0000
1010
,
0000
0000
0000
1001
0000
0010
1000
0101
,
0000
0000
0000
0000
0000
0000
0000
0020
,
0000
0000
0000
0000
0000
1030
0000
1100
,
0000
0000
0000
0100
0000
1000
0000
1100
,
0000
0000
0000
0101
0000
0000
0000
0110
,
0000
0000
0000
0000
0000
0001
0000
2002
,
0000
0000
0000
0000
0000
3003
0000
1010
,
1100
0011
0101
0000
1001
0000
2000
0000
,
3100
0000
1000
0020
0000
0000
0000
0030
1000
0000
0001
0000
1000
0000
0100
0000
,
1000
0000
0001
0020
0000
0000
0000
0030
0100
1000
0100
1000
0110
0000
0000
1010
,
0000
0000
0110
0000
1010
0000
0000
0000
0001
0010
0001
0010
0101
0000
0000
0110
,
0000
0000
0101
0000
0110
0000
0000
0000
1000
0001
1000
0000
0000
0000
1000
0000
,
0001
0000
0010
0200
0000
0000
0000
0300
0010
0000
0001
0000
0010
0000
0100
1000
,
0001
0000
0100
2000
0000
0000
0000
3000
0100
0010
0100
0010
0101
0000
0000
0011
,
0000
0000
0101
0000
0011
0000
0000
0000
0010
0100
0010
0100
1010
0000
0000
1100
,
0000
1010
2100
0000
0000
0000
0000
0000
,
0000
0000
0000
0000
,
0000
0000
0000
0000
,
0000
0000
0000
0000
,
0000
0000
0000
0000
,
0000
0000
0000
0000
,
0000
3011
0000
1100
,
0000
0000
0011
0000
0000
1100
0000
0000
,
0011
0000
1100
0011
,
0000
0000
1011
0000
0000
1101
0000
0001
,
0100
0001
1010
0000
0000
0000
0101
0000
,
0000
0000
1010
0000
0000
0101
0000
0000
,
1010
0000
0101
1010
,
0000
0000
1101
0000
0000
1011
0000
0010
,
0001
0010
1100
0000
0000
0000
1010
0000
,
0000
0000
0101
0000
0000
0011
0000
0000
,
0110
0000
1001
0110
,
0000
0000
1110
0000
0000
0111
0000
0000
,
1000
0001
1100
0000
0000
0000
0101
0000
,
0000
0000
0011
0000
0000
1010
0000
0000
,
0011
0000
0101
1100
,
0000
0000
0111
0000
0000
1110
0000
0001
,
0010
0001
1100
0000
1000
0100
0000
0000
,
1100
0000
1000
0100
0000
0000
0011
0000
,
0001
0010
0000
0000
0011
0000
0001
0010
,
0000
1001
1001
1001
,
1001
0000
1010
0000
1000
0010
0000
0000
,
1010
0000
1000
0010
0000
0000
0101
0000
,
0100
0001
0000
0000
0101
0000
0100
0001
,
0000
1001
1001
1001
,
1001
0000
0110
0000
1000
0001
0000
0000
,
1010
0000
1000
0001
0000
0000
1010
0000
,
1000
0001
0000
0000
1010
0000
1000
0001
,
0000
0000
1010
0000
1000
0001
0000
0000
,
1010
0000
1000
0001
0000
0000
1010
0000
,
1000
0001
0000
0000
1010
0000
1000
0001
,
0000
1001
1001
1001
,
0110
0110
0110
0101
,
0101
0101
1010
1010
,
1010
0000
0000
1100
0000
1100
0000
1100
0000
0011
0000
0011
,
0000
0011
0000
1001
0000
1001
0000
1001
0000
1010
0000
1010
,
0000
1010
0000
0101
0000
0101
0000
0101
0000
0110
0000
0110
,
0000
0000
0110
0000
0000
0000
2002
0000
0000
0000
0000
0000
0000
0000
0000
3003
0000
0000
0220
0000
0000
0000
0000
0000
,
0000
0330
0202
0000
0000
0000
0303
2001
,
0000
0000
0000
0000
0000
0000
0000
0000
0000
0000
0000
0000
0000
0001
0000
3001
,
0000
0000
0000
0001
0000
0010
0000
0100
0000
0000
0000
0110
0000
0000
0000
0000
,
0000
0011
0000
0000
0000
1100
0000
0000
0000
1001
0000
0000
0000
0100
0000
0001
,
0000
0010
0000
0200
0000
0000
0000
0000
0000
0000
0000
0000
0000
0000
0300
0000
;
