#VERSION:0.83;
#TITLE:Déjame Gritar;
#SUBTITLE:;
#ARTIST:Kudai;
#TITLETRANSLIT:;
#SUBTITLETRANSLIT:;
#ARTISTTRANSLIT:;
#GENRE:Rock;
#ORIGIN:;
#CREDIT:OpenITG3;
#BANNER:Déjame Gritar-bn.png;
#BACKGROUND:Déjame Gritar-bg.png;
#PREVIEWVID:;
#JACKET:jacket.png;
#CDIMAGE:;
#DISCIMAGE:;
#LYRICSPATH:;
#CDTITLE:;
#MUSIC:Déjame Gritar.ogg;
#OFFSET:-0.317836;
#SAMPLESTART:37.092999;
#SAMPLELENGTH:12.000000;
#SELECTABLE:YES;
#BPMS:0.000=104.010;
#STOPS:;
#DELAYS:;
#WARPS:;
#TIMESIGNATURES:0.000=4=4;
#TICKCOUNTS:0.000=4;
#COMBOS:0.000=1;
#SPEEDS:0.000=1.000=0.000=0;
#SCROLLS:0.000=1.000;
#FAKES:;
#LABELS:0.000=Song Start;
#BGCHANGES:;
#KEYSOUNDS:;
#ATTACKS:
;

//---------------dance-single - ----------------
#NOTEDATA:;
#CHARTNAME:;
#STEPSTYPE:dance-single;
#DESCRIPTION:;
#CHARTSTYLE:;
#DIFFICULTY:Hard;
#METER:8;
#RADARVALUES:0.436619,0.548032,0.090335,0.406507,0.237129,406.000000,394.000000,12.000000,54.000000,0.000000,0.000000,0.000000,0.000000,0.000000,0.436619,0.548032,0.090335,0.406507,0.237129,406.000000,394.000000,12.000000,54.000000,0.000000,0.000000,0.000000,0.000000,0.000000;
#CREDIT:OpenITG3;
#NOTES:
// measure 0
0000
0000
0000
0000
,  // measure 1
0000
0000
0000
0000
,  // measure 2
0000
0000
0000
0000
,  // measure 3
0000
0000
0000
0000
,  // measure 4
1000
0100
1000
0002
0000
0023
0000
0130
,  // measure 5
0001
0100
1000
0002
0000
0203
0000
0310
,  // measure 6
1000
0100
0001
2000
0000
3001
0100
0020
,  // measure 7
0000
1030
0010
0002
0000
0013
0100
1000
,  // measure 8
0001
0100
0010
0200
0000
2300
0000
3100
,  // measure 9
0010
0100
0001
0020
0000
0230
0000
0310
,  // measure 10
0001
0100
0010
2000
0000
3010
0100
0002
,  // measure 11
0000
0013
0100
2000
0000
3020
0000
0130
,  // measure 12
1001
0000
0001
0000
0100
0000
0010
0000
1000
0010
1000
0000
0100
0000
0010
0000
,  // measure 13
0001
0010
0001
0000
0100
0000
0010
1000
0100
0000
1000
0000
0010
0000
1000
0000
,  // measure 14
0100
0000
0010
0000
0001
0000
0100
0000
0001
0010
0100
0000
1000
0000
0010
0000
,  // measure 15
0100
0010
0000
0000
1001
0000
0010
0100
0000
0000
0010
0001
2000
0000
3000
0000
,  // measure 16
0110
0000
1000
0002
0000
0000
0013
0000
0001
0000
0100
0000
0010
0000
0100
0010
,  // measure 17
1000
0000
1000
0020
0000
0000
0130
0000
0001
0000
0010
0000
0001
0000
1000
0010
,  // measure 18
0100
0000
0001
2000
0000
0000
3010
0000
1001
0000
0100
0000
0001
0000
1000
0100
,  // measure 19
1000
0000
0010
0100
0010
0000
0001
0010
0002
0000
0023
0000
0230
0000
2300
0000
,  // measure 20
3010
0000
0001
0020
0000
0000
0130
0000
1000
0000
0010
0000
0001
0000
0010
1000
,  // measure 21
0100
0000
0001
0020
0000
0000
0031
0000
0100
0000
0001
0000
1000
0000
0010
0100
,  // measure 22
0001
0000
1000
0200
0000
0000
0310
0000
0100
0000
1000
0000
0010
0000
0100
0000
,  // measure 23
0011
0000
0001
0010
0100
0000
0010
0100
1000
0000
1000
0010
0100
0000
0010
0100
,  // measure 24
0001
0000
0010
0000
0100
0000
0010
1000
0000
0010
1000
0000
0001
0000
0010
0000
,  // measure 25
0100
0010
0001
0010
0100
1000
0010
0100
,  // measure 26
0001
0100
0001
0000
0010
0100
0010
0000
1000
0010
1000
0000
0100
0010
0100
0000
,  // measure 27
1001
0000
0000
0000
,  // measure 28
0001
0010
0001
2000
0000
3200
0000
0310
,  // measure 29
1000
0010
0001
2000
0000
3020
0000
0130
,  // measure 30
0001
0010
1000
0002
0000
1003
0010
0200
,  // measure 31
0000
0301
0100
2000
0000
3100
0010
0001
,  // measure 32
1000
0010
0100
0020
0000
0032
0000
0013
,  // measure 33
0100
0010
1000
0200
0000
0320
0000
0130
,  // measure 34
1000
0010
0100
0002
0000
0103
0010
2000
,  // measure 35
0000
3100
0010
0002
0000
0203
0000
0310
,  // measure 36
1001
0000
1000
0000
0010
0000
0100
0000
0001
0100
0001
0000
0010
0000
0100
0000
,  // measure 37
1000
0100
1000
0000
0010
0000
0100
0001
0010
0000
0001
0000
0100
0000
0001
0000
,  // measure 38
0010
0000
0100
0000
1000
0000
0010
0000
1000
0100
0010
0000
0001
0000
0100
0000
,  // measure 39
0010
0100
0020
0000
0130
0000
0010
0001
1000
0000
0010
0000
1001
0000
0000
0000
,  // measure 40
0110
0000
0001
2000
0000
0000
3100
0000
1000
0000
0010
0000
0100
0000
0010
0100
,  // measure 41
0001
0000
0001
0200
0000
0000
0310
0000
1000
0000
0100
0000
1000
0000
0001
0100
,  // measure 42
0010
0000
1000
0002
0000
0000
0103
0000
1001
0000
0010
0000
1000
0000
0001
0010
,  // measure 43
0001
0000
0100
0010
0100
0000
1000
0100
2000
0000
3200
0000
0320
0000
0032
0000
,  // measure 44
0103
0000
1000
0200
0000
0000
0310
0000
0001
0000
0100
0000
1000
0000
0100
0001
,  // measure 45
0010
0000
1000
0200
0000
0000
1300
0000
0010
0000
1000
0000
0001
0000
0100
0010
,  // measure 46
1000
0000
0001
0020
0000
0000
0130
0000
0010
0000
0001
0000
0100
0000
0010
0000
,  // measure 47
1100
0000
1000
0100
0010
0000
0100
0010
0001
0000
0001
0100
0010
0000
0100
0010
,  // measure 48
1000
0000
0100
0000
0010
0000
0100
0001
0000
0100
0001
0000
1000
0000
0100
0000
,  // measure 49
0010
0100
1000
0100
0010
0001
0100
0010
,  // measure 50
1000
0010
1000
0000
0100
0010
0100
0000
0001
0100
0001
0000
0010
0100
0010
0000
,  // measure 51
1000
0100
1000
0000
0001
1000
0001
0000
0100
0001
0100
0000
0010
1000
0010
0000
,  // measure 52
1020
0000
0000
0000
,  // measure 53
0000
0000
0002
0000
,  // measure 54
0000
0000
0000
0000
,  // measure 55
0000
0000
0000
0000
,  // measure 56
0033
0000
0000
0000
;

//---------------dance-single - ----------------
#NOTEDATA:;
#CHARTNAME:;
#STEPSTYPE:dance-single;
#DESCRIPTION:;
#CHARTSTYLE:;
#DIFFICULTY:Medium;
#METER:5;
#RADARVALUES:0.278533,0.337250,0.045167,0.421563,0.052695,259.000000,253.000000,6.000000,56.000000,0.000000,0.000000,0.000000,0.000000,0.000000,0.278533,0.337250,0.045167,0.421563,0.052695,259.000000,253.000000,6.000000,56.000000,0.000000,0.000000,0.000000,0.000000,0.000000;
#CREDIT:;
#NOTES:
// measure 0
0000
0000
0000
0000
,  // measure 1
0000
0000
0000
0000
,  // measure 2
0000
0000
0000
0000
,  // measure 3
0000
0000
0000
0000
,  // measure 4
0000
0000
1000
0002
0000
0023
0000
0130
,  // measure 5
0000
0000
0001
2000
0000
3200
0000
0310
,  // measure 6
0000
0000
0001
2000
0000
3001
0000
0020
,  // measure 7
0000
1030
0000
0200
0000
0320
0000
0130
,  // measure 8
0001
0000
0010
0200
0000
0320
0000
1030
,  // measure 9
0000
0000
0001
0020
0000
0230
0000
1300
,  // measure 10
0000
0000
0010
2000
0000
3010
0000
0200
,  // measure 11
0000
0301
0000
2000
0000
3020
0000
0130
,  // measure 12
1000
0000
0100
0000
1000
0010
1000
0000
,  // measure 13
0001
0100
0001
0000
0010
1000
0100
0010
,  // measure 14
0000
0010
0001
0000
0001
0010
0100
1000
,  // measure 15
0010
1001
1000
0001
,  // measure 16
0110
0000
0000
2000
0000
0000
3010
0000
0001
0000
0000
0000
0010
0000
0100
0000
,  // measure 17
0010
0000
0000
0002
0000
0000
0103
0000
0001
0000
0010
0000
0001
0000
0100
0000
,  // measure 18
1000
0000
0000
0020
0000
0000
1030
0000
0100
0000
0000
0000
0010
0000
0100
0000
,  // measure 19
0002
0000
0023
0000
0130
0000
0010
0001
,  // measure 20
1000
0000
0000
0020
0000
0000
1030
0000
0100
0000
0000
0000
0010
0000
0100
0000
,  // measure 21
0001
0000
0000
0020
0000
0000
0031
0000
0100
0000
0010
0000
0001
0000
0100
0000
,  // measure 22
1000
0000
0000
0200
0000
0000
0310
0000
0100
0000
0000
0000
0010
0000
0100
0000
,  // measure 23
0020
0000
2030
0000
3002
0000
0103
0010
,  // measure 24
0100
0000
0000
0000
0001
0000
0000
1000
0000
0000
0100
0000
0010
0000
0000
0000
,  // measure 25
0100
0010
0001
0000
0100
1000
0010
0100
,  // measure 26
0001
0000
0010
0100
1000
1000
0100
0010
,  // measure 27
1001
0000
0000
0000
,  // measure 28
0000
0000
0001
2000
0000
3200
0000
0310
,  // measure 29
0000
0000
1000
0002
0000
0023
0000
0130
,  // measure 30
0000
0000
1000
0002
0000
1003
0000
0200
,  // measure 31
0000
0301
0000
0020
0000
0230
0000
0310
,  // measure 32
1000
0000
0100
0020
0000
0230
0000
0301
,  // measure 33
0000
0000
1000
0200
0000
0320
0000
0031
,  // measure 34
0000
0000
0100
0002
0000
0103
0000
0020
,  // measure 35
0000
1030
0000
0002
0000
0203
0000
0310
,  // measure 36
0001
0000
0010
0000
0001
0100
0001
0000
,  // measure 37
1000
0010
1000
0000
0100
0001
0010
0100
,  // measure 38
0000
0100
1000
0000
1000
0100
0010
0001
,  // measure 39
0100
1001
0001
1000
,  // measure 40
0110
0000
0000
0002
0000
0000
0103
0000
1000
0000
0000
0000
0100
0000
0010
0000
,  // measure 41
0100
0000
0000
2000
0000
0000
3010
0000
1000
0000
0100
0000
1000
0000
0010
0000
,  // measure 42
0001
0000
0000
0200
0000
0000
0301
0000
0010
0000
0000
0000
0100
0000
0010
0000
,  // measure 43
2000
0000
3200
0000
0310
0000
0100
1000
,  // measure 44
0001
0000
0000
0200
0000
0000
0301
0000
0010
0000
0000
0000
0100
0000
0010
0000
,  // measure 45
1000
0000
0000
0200
0000
0000
1300
0000
0010
0000
0100
0000
1000
0000
0010
0000
,  // measure 46
0001
0000
0000
0020
0000
0000
0130
0000
0010
0000
0000
0000
0100
0000
0010
0000
,  // measure 47
0200
0000
0302
0000
2003
0000
3010
0100
,  // measure 48
0010
0000
0000
0000
1000
0000
0000
0001
0000
0000
0010
0000
0100
0000
0000
0000
,  // measure 49
0010
0100
1000
0000
0010
0001
0100
0010
,  // measure 50
1000
0000
0100
0010
0001
0001
0010
0100
,  // measure 51
0010
0000
1000
0100
0010
0100
1000
0000
,  // measure 52
0201
0000
0000
0000
,  // measure 53
0000
0000
2000
0000
,  // measure 54
0000
0000
0000
0000
,  // measure 55
0000
0000
0000
0000
,  // measure 56
3300
0000
0000
0000
;

//---------------dance-single - ----------------
#NOTEDATA:;
#CHARTNAME:;
#STEPSTYPE:dance-single;
#DESCRIPTION:;
#CHARTSTYLE:;
#DIFFICULTY:Easy;
#METER:3;
#RADARVALUES:0.223686,0.295094,0.203254,0.406507,0.000000,208.000000,181.000000,27.000000,54.000000,0.000000,0.000000,0.000000,0.000000,0.000000,0.223686,0.295094,0.203254,0.406507,0.000000,208.000000,181.000000,27.000000,54.000000,0.000000,0.000000,0.000000,0.000000,0.000000;
#CREDIT:;
#NOTES:
// measure 0
0000
0000
0000
0000
,  // measure 1
0000
0000
0000
0000
,  // measure 2
0000
0000
0000
0000
,  // measure 3
0000
0000
0000
0000
,  // measure 4
0010
1000
0200
0300
,  // measure 5
0010
0001
2000
3000
,  // measure 6
0010
0001
0200
0301
,  // measure 7
0020
0000
1030
0000
0200
0000
0310
1000
,  // measure 8
0001
0020
0230
0300
,  // measure 9
1000
0002
0023
0030
,  // measure 10
0100
0010
2000
3100
,  // measure 11
0020
0031
0200
1300
,  // measure 12
0020
0100
1000
0031
,  // measure 13
0200
1000
0010
0301
,  // measure 14
2000
3010
0002
0103
,  // measure 15
0110
0000
0000
1001
0000
0010
0100
0000
,  // measure 16
0110
2000
0020
3030
,  // measure 17
0001
1001
0100
0010
,  // measure 18
1010
0200
0002
0303
,  // measure 19
0010
1100
0001
0101
,  // measure 20
0110
2000
0200
3300
,  // measure 21
0001
0101
0100
1000
,  // measure 22
1010
0002
0200
0303
,  // measure 23
0020
1030
0200
0301
,  // measure 24
0100
0001
1000
0010
,  // measure 25
1001
0100
1001
0010
,  // measure 26
0001
0001
0001
0000
1000
1000
1000
0000
,  // measure 27
0110
0000
0000
0000
,  // measure 28
0100
0001
0020
0030
,  // measure 29
0100
1000
0002
0003
,  // measure 30
0100
1000
0020
1030
,  // measure 31
0200
0000
0301
0000
0020
0000
0130
0001
,  // measure 32
1000
0200
0320
0030
,  // measure 33
0001
2000
3200
0300
,  // measure 34
0010
0100
0002
0013
,  // measure 35
0200
1300
0020
0031
,  // measure 36
0200
0010
0001
1300
,  // measure 37
0020
0001
0100
1030
,  // measure 38
0002
0103
2000
3010
,  // measure 39
0110
0000
0000
1001
0000
0100
0010
0000
,  // measure 40
0110
0002
0200
0303
,  // measure 41
1000
1001
0010
0100
,  // measure 42
0101
0020
2000
3030
,  // measure 43
0100
0011
1000
1010
,  // measure 44
0110
0002
0020
0033
,  // measure 45
1000
1010
0010
0001
,  // measure 46
0101
2000
0020
3030
,  // measure 47
0200
0301
0020
1030
,  // measure 48
0010
1000
0001
0100
,  // measure 49
1001
0010
1001
0100
,  // measure 50
1000
1000
1000
0000
0001
0001
0001
0000
,  // measure 51
0100
0011
0100
0101
,  // measure 52
0020
0000
0000
0000
,  // measure 53
0000
0000
0200
0000
,  // measure 54
0000
0000
0000
0000
,  // measure 55
0000
0000
0000
0000
,  // measure 56
0330
0000
0000
0000
;

//---------------dance-single - ----------------
#NOTEDATA:;
#CHARTNAME:;
#STEPSTYPE:dance-single;
#DESCRIPTION:;
#CHARTSTYLE:;
#DIFFICULTY:Beginner;
#METER:1;
#RADARVALUES:0.102164,0.147547,0.082807,0.030112,0.000000,95.000000,84.000000,11.000000,4.000000,0.000000,0.000000,0.000000,0.000000,0.000000,0.102164,0.147547,0.082807,0.030112,0.000000,95.000000,84.000000,11.000000,4.000000,0.000000,0.000000,0.000000,0.000000,0.000000;
#CREDIT:;
#NOTES:
// measure 0
0000
0000
0000
0000
,  // measure 1
0000
0000
0000
0000
,  // measure 2
0000
0000
0000
0000
,  // measure 3
0000
0000
0000
0000
,  // measure 4
0010
0000
0000
0000
,  // measure 5
0100
0000
0000
0000
,  // measure 6
0100
0000
0000
0000
,  // measure 7
0010
0000
1000
0000
,  // measure 8
0001
0000
0000
0000
,  // measure 9
0100
0000
0000
0000
,  // measure 10
0010
0000
0000
0000
,  // measure 11
1000
0000
0100
0000
,  // measure 12
0010
0000
0010
0000
,  // measure 13
0001
0000
0001
0000
,  // measure 14
1001
0000
1000
0000
,  // measure 15
0110
0000
0000
0000
,  // measure 16
1000
0000
1000
0000
,  // measure 17
0001
0000
0001
0000
,  // measure 18
0010
0000
0010
0000
,  // measure 19
1001
0000
1001
0000
,  // measure 20
0100
0000
0100
0000
,  // measure 21
1000
0000
1000
0000
,  // measure 22
0010
0000
0010
0000
,  // measure 23
1001
0000
0001
0000
,  // measure 24
0010
0000
0100
0000
,  // measure 25
0010
0000
0100
0000
,  // measure 26
2002
0000
3003
0000
,  // measure 27
0100
0000
0000
0000
,  // measure 28
0100
0000
0000
0000
,  // measure 29
0010
0000
0000
0000
,  // measure 30
0010
0000
0000
0000
,  // measure 31
0100
0000
0001
0000
,  // measure 32
1000
0000
0000
0000
,  // measure 33
0010
0000
0000
0000
,  // measure 34
0100
0000
0000
0000
,  // measure 35
0001
0000
0010
0000
,  // measure 36
0100
0000
0100
0000
,  // measure 37
1000
0000
1000
0000
,  // measure 38
1001
0000
0001
0000
,  // measure 39
0110
0000
0000
0000
,  // measure 40
0001
0000
0001
0000
,  // measure 41
1000
0000
1000
0000
,  // measure 42
0100
0000
0100
0000
,  // measure 43
1001
0000
1001
0000
,  // measure 44
0010
0000
0010
0000
,  // measure 45
0001
0000
0001
0000
,  // measure 46
0100
0000
0100
0000
,  // measure 47
1001
0000
1000
0000
,  // measure 48
0100
0000
0010
0000
,  // measure 49
0100
0000
0010
0000
,  // measure 50
0001
0000
0100
0000
,  // measure 51
0010
1000
1000
1000
,  // measure 52
0200
0000
0000
0000
,  // measure 53
0000
0000
0020
0000
,  // measure 54
0000
0000
0000
0000
,  // measure 55
0000
0000
0000
0000
,  // measure 56
0330
0000
0000
0000
;
