#TITLE:Cruzare La Oscuridad;
#SUBTITLE:(Alonso Montero Euro Mix);
#ARTIST:Dollchix;
#TITLETRANSLIT:;
#SUBTITLETRANSLIT:;
#ARTISTTRANSLIT:;
#CREDIT:;
#BANNER:Cruzare La Oscuridad (Alonso Montero Euro Mix)-bn.png;
#BACKGROUND:Cruzare La Oscuridad (Alonso Montero Euro Mix)-bg.png;
#LYRICSPATH:Cruzare La Oscuridad (Alonso Montero Euro Mix).lrc;
#CDTITLE:cd.png;
#MUSIC:Cruzare La Oscuridad (Alonso Montero Euro Mix).mp3;
#OFFSET:-7.519;
#SAMPLESTART:52.330;
#SAMPLELENGTH:12.000;
#SELECTABLE:YES;
#BPMS:0.000=155.000;
#STOPS:;
#BGCHANGES:;

//---------------dance-single - ----------------
#NOTES:
     dance-single:
     :
     Easy:
     4:
     0.323,0.364,0.423,0.202,0.000:
1000
1001
0000
0000
,
0001
1001
0000
0000
,
0001
0011
0000
0000
,
1000
1100
1100
0011
,
0011
1000
0000
0000
,
0001
1010
0000
0000
,
0100
0101
0000
0000
,
0010
0110
1001
0110
,
1001
0001
0001
1000
,
1000
0010
0100
1001
,
0000
1000
1000
0001
,
0001
1000
0010
0100
,
1001
0001
0001
0010
,
0010
0100
1000
1001
,
1000
0020
0000
0000
,
0000
0100
0100
0100
,
0130
0010
0010
0100
,
0100
0010
0100
1001
,
0000
0001
1000
0010
,
0100
0001
1000
0001
,
1001
0001
0001
1000
,
1000
0001
1000
0010
,
0100
0020
0000
0000
,
0000
1000
1000
1000
,
1030
0200
0000
0000
,
0000
0320
0000
0000
,
0000
2030
0000
0000
,
0000
3002
0000
0000
,
0000
1003
0000
1001
,
0000
0001
0001
1000
,
0001
2002
0003
3010
,
0000
0010
0010
0100
,
0100
0101
1010
0101
,
1010
0010
0010
0100
,
0100
0001
0001
1000
,
1000
0002
0003
0020
,
0030
0200
0300
2000
,
3000
0001
1000
0001
,
1000
2002
3000
0103
,
0000
0100
0100
0010
,
0010
1001
0110
1001
,
0110
0100
0100
0010
,
0010
1000
1000
0001
,
0001
2000
3000
0002
,
0003
0200
0300
0020
,
0030
0200
0000
0000
,
0310
1001
0000
0000
,
1000
1001
0000
0000
,
1000
1100
0000
0000
,
0001
0011
0011
1100
,
1100
0001
0000
0000
,
1000
0101
0000
0000
,
0010
1010
0000
0000
,
0100
0110
1001
0110
,
2001
0010
0010
3010
,
0100
0201
0000
0301
,
0000
1000
0000
0001
,
0000
1000
1000
0001
,
0001
1001
0000
0000
;

//---------------dance-single - ----------------
#NOTES:
     dance-single:
     :
     Medium:
     5:
     0.431,0.420,0.115,0.461,0.000:
1000
0000
1001
0000
0010
0000
1000
0010
,
1000
0010
0200
0000
0310
0000
0100
0001
,
0100
0010
0200
0000
0301
0000
0100
0010
,
0100
0010
0200
0000
0301
0000
2000
0000
,
3001
0000
1001
0000
0100
0000
0001
0100
,
0001
0100
0020
0000
0130
0000
0010
1000
,
0010
0100
0020
0000
1030
0000
0010
0100
,
0010
0100
0020
0000
1030
0000
0002
0000
,
1003
0001
0001
1000
,
1000
0000
0001
1000
0001
0000
0110
0000
,
1001
0001
0001
1000
,
1000
0000
0001
1000
0001
0000
1010
0000
,
0101
0100
0100
0010
,
0010
0000
0100
0010
0100
0000
0010
0000
,
0100
0002
1003
1000
,
1000
2000
0001
0001
,
3001
0000
1000
0001
1000
0000
0001
0100
,
0001
0002
2003
3020
,
0130
0000
0010
0100
0010
0000
1000
0001
,
1000
0002
1003
0020
,
0130
0000
0010
0100
0010
0000
1000
0010
,
1000
2000
3010
0100
,
0001
0002
1000
0100
,
1003
2000
0010
0001
,
3010
0200
0000
0302
,
0000
2003
0000
3020
,
0000
0230
0000
0010
,
0000
0020
0000
0000
,
0330
1000
0000
1001
,
0001
1000
0001
0000
1000
0000
0010
0000
,
1000
0020
0000
0000
0000
0130
0000
0000
,
0000
0100
0010
0000
0100
0010
0000
0100
,
0000
0010
0100
0000
0001
0000
1000
0000
,
0001
1000
1000
0001
,
0001
0010
0010
0100
,
0100
2000
0000
0001
0000
3002
0000
1000
,
0000
2003
0000
0001
0000
3001
0000
0001
,
1000
0001
1000
0000
0001
0000
0100
0000
,
0001
0200
0000
0000
0000
0310
0000
0000
,
0000
0010
0100
0000
0010
0100
0000
0010
,
0000
0100
0010
0000
0010
0000
0100
0000
,
0100
0001
0001
1000
,
1000
0100
0100
0010
,
0010
0002
0000
1000
0000
2003
0000
0001
,
0000
3002
0000
1000
0000
1003
0000
0010
,
0000
2002
3003
0000
,
0110
0000
1001
0000
0100
0000
0001
0100
,
0001
0100
0020
0000
0130
0000
0010
1000
,
0010
0100
0020
0000
1030
0000
0010
0100
,
0010
0100
0020
0000
1030
0000
0002
0000
,
1003
0000
1001
0000
0010
0000
1000
0010
,
1000
0010
0200
0000
0310
0000
0100
0001
,
0100
0010
0200
0000
0301
0000
0100
0010
,
0100
0010
0200
0000
0301
0000
2000
0000
,
3001
1000
0020
0000
0100
0000
0130
0000
,
0100
0010
0200
0000
0000
0020
0000
0000
,
0330
2000
0000
3002
,
0000
0203
0000
0310
,
0000
1001
0000
0000
;

//---------------dance-single - ----------------
#NOTES:
     dance-single:
     :
     Hard:
     8:
     0.587,0.588,0.500,0.490,0.135: // measure 1
0001
0000
1000
0001
2000
0000
0000
0000
3100
0000
0000
0000
0011
0000
1000
0100
,  // measure 2
1000
0000
0001
1000
0002
0000
0000
0000
1003
0000
0000
0000
1001
0000
0010
0100
,  // measure 3
0010
0000
1000
0001
2000
0000
0000
0000
3001
0000
0000
0000
1001
0000
0010
1000
,  // measure 4
0010
0000
0100
0001
0200
0000
0000
0000
0310
0000
0000
0000
0110
0000
0000
0000
,  // measure 5
1001
0000
0000
0000
1010
0000
0000
0000
0102
0000
0000
0000
0103
0000
0010
1000
,  // measure 6
0010
0000
1000
0001
2000
0000
0000
0000
3001
0000
0000
0000
0110
0000
1000
0001
,  // measure 7
1000
0000
0001
1000
0002
0000
0000
0000
0103
0000
0000
0000
0101
0000
1000
0010
,  // measure 8
1000
0000
0001
0100
0002
0000
0000
0000
1003
0000
0000
0000
0011
0000
0000
0000
,  // measure 9
1100
0000
1001
0000
0010
1000
0001
0100
,  // measure 10
0010
1000
0001
0010
0100
1000
0020
0000
,  // measure 11
0130
0000
1001
0000
0100
0001
1000
0100
,  // measure 12
0010
0001
1000
0010
0100
0001
2000
0000
,  // measure 13
3001
0000
1001
0000
0001
1000
0010
0100
,  // measure 14
0001
1000
0001
0010
0100
0010
0001
0000
,  // measure 15
1000
0010
2000
0000
0001
0000
0010
0000
,  // measure 16
3001
0002
1000
0100
,  // measure 17
1003
0000
1001
0000
1000
0001
1000
0010
,  // measure 18
1000
0001
0100
0010
0100
0001
0100
0000
,  // measure 19
0110
0000
1001
0000
0100
0010
1000
0010
,  // measure 20
0100
0001
1000
0010
0100
0001
1000
0000
,  // measure 21
1010
0000
0101
0000
0010
1000
0001
0100
,  // measure 22
0010
1000
0001
0010
0100
1000
0010
0000
,  // measure 23
1000
0001
2000
0000
0010
0000
0001
0000
,  // measure 24
3010
0020
0100
1000
,  // measure 25
0130
0002
0000
1003
,  // measure 26
0000
2000
0000
3001
,  // measure 27
0000
0002
0000
0203
,  // measure 28
0000
0320
0000
1030
,  // measure 29
0000
0000
0000
0000
1000
0000
0000
0001
0000
0000
1000
0000
1001
0000
0000
0000
,  // measure 30
0001
1000
0020
0000
1030
0000
0110
0000
,  // measure 31
0001
1000
0020
0000
0000
0200
0000
0330
,  // measure 32
0000
0001
1000
0000
0010
1000
0001
0000
,  // measure 33
1000
0010
2000
0000
3001
0000
0110
0000
,  // measure 34
1001
0101
0101
1010
,  // measure 35
1010
0110
1001
0110
,  // measure 36
1001
0000
0001
1000
0020
0000
1030
0001
,  // measure 37
0020
0000
0130
1000
0200
0000
1300
0001
,  // measure 38
0200
0010
0320
0000
2030
0000
3001
0000
,  // measure 39
1000
0020
0000
0000
0000
0200
0000
0330
,  // measure 40
0000
0001
0200
0000
0310
1000
0002
0000
,  // measure 41
1003
0010
2000
0000
3001
0000
1010
0000
,  // measure 42
1010
0101
0101
1010
,  // measure 43
1010
0011
0011
1100
,  // measure 44
1100
0000
0001
1000
0002
0000
0103
0010
,  // measure 45
2000
0000
3001
1000
0002
0000
0103
0001
,  // measure 46
2000
0000
0000
0000
3001
0000
0000
0000
0000
0000
0000
0000
0000
0000
1000
0001
,  // measure 47
1000
0000
0001
1000
0002
0000
0000
0000
0013
0000
0000
0000
1100
0000
0001
0010
,  // measure 48
0001
0000
1000
0001
2000
0000
0000
0000
3001
0000
0000
0000
1001
0000
0100
0010
,  // measure 49
0100
0000
0001
1000
0002
0000
0000
0000
1003
0000
0000
0000
1001
0000
0100
0001
,  // measure 50
0100
0000
0010
1000
0020
0000
0000
0000
0130
0000
0000
0000
0110
0000
0000
0000
,  // measure 51
1001
0000
0000
0000
0101
0000
0000
0000
2010
0000
0000
0000
3010
0000
0100
0001
,  // measure 52
0100
0000
0001
1000
0002
0000
0000
0000
1003
0000
0000
0000
0110
0000
0001
1000
,  // measure 53
0001
0000
1000
0001
2000
0000
0000
0000
3010
0000
0000
0000
1010
0000
0001
0100
,  // measure 54
0001
0000
1000
0010
2000
0000
0000
0000
3001
0000
0000
0000
1100
0000
0000
0000
,  // measure 55
0001
1000
0010
0000
0100
0000
0010
0000
,  // measure 56
1000
0001
1000
0000
0010
0100
0001
0000
,  // measure 57
1000
0002
0023
0230
,  // measure 58
2300
3002
0000
1003
,  // measure 59
0000
1001
0000
0000
;
