#VERSION:0.83;
#TITLE:Conexiones Televisivas;
#SUBTITLE:;
#ARTIST:Aparato Raro;
#TITLETRANSLIT:;
#SUBTITLETRANSLIT:;
#ARTISTTRANSLIT:;
#GENRE:;
#ORIGIN:;
#CREDIT:OpenITG3;
#BANNER:;
#BACKGROUND:;
#PREVIEWVID:;
#JACKET:;
#CDIMAGE:;
#DISCIMAGE:;
#LYRICSPATH:;
#CDTITLE:./OpenITG3.png;
#MUSIC:Conexiones Televisivas.ogg;
#OFFSET:0.000000;
#SAMPLESTART:75.222000;
#SAMPLELENGTH:12.000000;
#SELECTABLE:YES;
#DISPLAYBPM:169.000000;
#BPMS:0.000=169.100,
115.000=676.400,
119.000=169.100,
183.000=84.550,
199.000=169.100;
#STOPS:;
#DELAYS:;
#WARPS:;
#TIMESIGNATURES:0.000=4=4;
#TICKCOUNTS:0.000=4;
#COMBOS:0.000=1;
#SPEEDS:0.000=1.000=0.000=0;
#SCROLLS:0.000=1.000;
#FAKES:;
#LABELS:0.000=Song Start;
#LASTSECONDHINT:112.477997;
#BGCHANGES:;
#KEYSOUNDS:;
#ATTACKS:
;

//---------------dance-single - ----------------
#NOTEDATA:;
#CHARTNAME:;
#STEPSTYPE:dance-single;
#DESCRIPTION:;
#CHARTSTYLE:;
#DIFFICULTY:Challenge;
#METER:9;
#RADARVALUES:0.786924,1.123381,1.040971,0.026024,0.130121,635.000000,515.000000,120.000000,3.000000,0.000000,0.000000,0.000000,0.000000,0.000000,0.786924,1.123381,1.040971,0.026024,0.130121,635.000000,515.000000,120.000000,3.000000,0.000000,0.000000,0.000000,0.000000,0.000000;
#CREDIT:OpenITG3;
#NOTES:
// measure 0
0000
0000
0000
0000
,  // measure 1
0000
0000
0000
0000
,  // measure 2
0000
0000
0000
0000
,  // measure 3
0000
0000
0000
0000
,  // measure 4
1000
0001
1000
0100
0000
0011
0000
0101
,  // measure 5
0000
1001
0000
1000
0010
0010
1000
0100
,  // measure 6
0010
0100
0001
0100
0000
1010
0000
1100
,  // measure 7
0000
0000
1001
0000
0000
0000
0001
0000
0010
0000
0100
0010
0110
0000
0000
0000
,  // measure 8
1000
0010
1001
0100
0000
0001
0110
1000
,  // measure 9
0000
0001
0101
1000
0100
0001
0110
0000
,  // measure 10
0101
0001
0100
0110
0010
1000
1010
1000
,  // measure 11
1100
0000
0001
0010
0110
0100
0000
0010
,  // measure 12
1001
0100
0000
1000
1100
0010
0100
1000
,  // measure 13
0110
0000
1001
0100
1000
1100
1000
0010
,  // measure 14
0110
0010
0101
0000
0001
1000
1010
0100
,  // measure 15
0000
0001
0101
0100
0000
0010
1010
1000
,  // measure 16
0001
0100
1001
0000
1010
0010
0100
0101
,  // measure 17
0001
0010
0011
0010
0110
0000
1000
0100
,  // measure 18
0011
1000
0000
0001
0011
0100
0000
1000
,  // measure 19
0110
0010
0100
0001
0011
0000
1100
1000
,  // measure 20
0001
0101
1000
0001
0011
0100
1001
0000
,  // measure 21
1000
0100
0001
0100
1000
0100
0001
0100
,  // measure 22
0010
1000
0010
0001
0010
1000
0010
0001
,  // measure 23
0100
1000
0100
0001
0100
1000
0100
0001
,  // measure 24
1000
0010
0001
0010
1000
0010
0001
0010
,  // measure 25
1000
0100
0010
0100
0001
0100
0010
0100
,  // measure 26
1000
0010
0100
0010
0001
0010
0100
0010
,  // measure 27
1000
0001
0010
0100
0010
1000
0010
0100
,  // measure 28
0001
0001
1000
1000
0100
0000
0020
0000
,  // measure 29
0000
0000
0000
0000
0000
0000
1030
0100
,  // measure 30
0110
0100
1000
0100
0110
0100
0001
0100
,  // measure 31
0110
0100
0001
0100
0110
1000
0001
0100
,  // measure 32
1001
0010
1000
0001
1001
0100
0010
1000
,  // measure 33
1001
0100
0010
0001
1001
0001
0100
0001
,  // measure 34
0011
0001
0100
1000
1100
1000
0100
0001
,  // measure 35
0011
0001
0010
1000
1010
1000
0010
0001
,  // measure 36
1001
1000
0100
1100
0000
1001
0000
0010
,  // measure 37
0010
0010
0100
0100
1000
0000
0010
0100
,  // measure 38
0110
0010
0100
0001
0101
0001
1000
0100
,  // measure 39
0110
0010
0100
1000
1100
0010
0100
0001
,  // measure 40
0011
0010
0100
1000
1010
1000
0010
0100
,  // measure 41
0101
0001
0010
0100
1100
0010
0100
0010
,  // measure 42
1001
0100
0010
0100
1001
0001
0100
1000
,  // measure 43
0110
0001
0010
1000
0110
0001
0010
0100
,  // measure 44
1100
0001
0100
0001
0101
1001
0000
1000
,  // measure 45
1000
0000
1000
0000
0100
0000
0010
0000
0010
0000
0010
0000
1000
0100
1000
0001
,  // measure 46
0110
0100
1000
0001
0000
0001
1000
0100
1001
0010
0100
0010
0001
0100
0010
1000
,  // measure 47
0101
1000
0100
0010
0000
0010
0100
0001
1001
0000
1001
0000
0001
0100
0001
0010
,  // measure 48
0101
1000
0100
0010
0000
0010
0001
0100
1100
0001
0100
0001
1000
0010
1000
0100
,  // measure 49
0101
0010
0100
0010
0000
0001
0001
0001
1000
0100
0110
0000
0010
0000
1000
0000
,  // measure 50
1001
0100
0000
0110
0000
0001
0010
0100
,  // measure 51
0110
1000
0000
1000
1001
0001
0100
0010
,  // measure 52
0110
1000
0000
0101
0000
0001
0010
0100
,  // measure 53
1000
0200
0000
0010
0310
0000
0100
0001
,  // measure 54
1001
0010
0000
0110
0000
1000
0100
0010
,  // measure 55
0110
0001
0000
0001
1001
1000
0010
0100
,  // measure 56
0110
0001
0000
1010
0000
0010
1000
0001
,  // measure 57
0001
0010
0010
0100
0100
0100
1000
0100
,  // measure 58
0110
0001
0000
1001
0000
0010
1000
0001
,  // measure 59
1001
0100
0000
0100
0110
0010
0001
1000
,  // measure 60
1001
0100
0000
0011
0000
0010
1000
0001
,  // measure 61
0100
0002
0000
1000
1003
0000
0001
0010
,  // measure 62
0110
1000
0000
1001
0000
0100
0001
1000
,  // measure 63
1001
0010
0000
0010
0110
0100
1000
0001
,  // measure 64
1001
0010
0000
1100
0000
1000
0100
0010
,  // measure 65
0001
0100
0000
0010
0110
0000
0010
0100
,  // measure 66
1000
0100
0000
0010
0010
0100
0001
0100
,  // measure 67
1000
0010
1000
0100
1010
0000
0001
0100
,  // measure 68
1001
0010
0000
1000
0110
0001
0000
1000
,  // measure 69
1010
0001
0010
1000
0110
0000
1010
1000
,  // measure 70
0010
0110
0100
0001
0101
0001
0011
0000
,  // measure 71
1000
0100
0110
0010
0000
0100
1001
0010
,  // measure 72
0000
0001
0011
0100
0010
0001
0110
0000
,  // measure 73
1001
0010
0001
0011
0001
0100
0110
0100
,  // measure 74
1001
0000
0000
0000
;

//---------------dance-single - ----------------
#NOTEDATA:;
#CHARTNAME:;
#STEPSTYPE:dance-single;
#DESCRIPTION:;
#CHARTSTYLE:;
#DIFFICULTY:Hard;
#METER:9;
#RADARVALUES:0.640693,1.027091,0.234218,0.173495,0.125784,517.000000,490.000000,27.000000,20.000000,0.000000,0.000000,0.000000,0.000000,0.000000,0.640693,1.027091,0.234218,0.173495,0.125784,517.000000,490.000000,27.000000,20.000000,0.000000,0.000000,0.000000,0.000000,0.000000;
#CREDIT:OpenITG3;
#DISPLAYBPM:169.000000;
#NOTES:
0000
0000
0000
0000
,
0000
0000
0000
0000
,
0000
0000
0000
0000
,
0000
0000
0000
0000
,
0001
0100
0010
0100
0000
1000
0000
0010
,
0000
0100
0000
0001
0010
0001
0100
0000
,
1000
0100
0010
0100
0000
0001
0000
0100
,
0000
0010
0000
1000
0100
0010
1001
0000
,
0010
0100
0010
2000
0000
3001
0100
0020
,
0000
0130
1000
0002
0000
0013
0100
0000
,
0001
0100
0001
1000
0010
1000
0100
0010
,
0100
0000
1000
0010
0100
0002
0000
1003
,
0100
0020
0000
0031
0100
2000
0000
3010
,
0100
0000
0010
0100
1000
0001
0010
0100
,
0010
0100
1000
0000
0100
0010
0100
0002
,
0000
1003
0010
0200
0000
0310
0001
2000
,
0000
3100
0010
0000
1000
0010
1000
0001
,
0100
0001
0010
0100
0010
0000
0001
0100
,
0010
2000
0000
3001
0010
0200
0000
1300
,
0010
0002
0000
0103
0010
0000
0100
0010
,
0001
1000
0100
0010
0100
0010
0011
0000
,
0010
0100
0001
0010
0001
0100
0001
0010
,
0000
0100
1000
0010
1000
0100
1000
0010
,
0000
0100
0001
0010
1000
0100
0001
0010
,
0000
0100
1000
0010
0001
0100
1000
0010
,
0000
0100
0001
0010
0001
0100
1000
0010
,
0000
0100
1000
0010
1000
0100
0001
0010
,
0000
0100
0001
0010
1000
0100
1000
0010
,
1000
1000
0001
0001
0100
0000
0120
0000
,
0000
0000
0000
0000
0000
0000
1030
0100
,
1000
0000
0001
1000
0001
0000
0010
0100
,
0010
0000
1000
0010
1001
0000
0001
0010
,
0001
0000
0100
0010
0100
0000
1000
0010
,
0100
0000
0010
0001
0110
0000
1000
0100
,
0010
0100
1000
0001
0100
0000
0001
0010
,
0100
0010
0001
0100
0001
0000
1000
0100
,
0001
0100
1000
1001
0000
0101
0000
0010
,
0010
0010
0010
0100
0100
0000
0001
0100
,
0001
0100
0010
1000
0010
1000
0100
0010
,
0100
0010
0001
0100
0001
0000
1000
0010
,
0100
0001
0010
0100
1000
0100
0010
0001
,
0010
0001
0010
0100
1000
0000
0001
0100
,
0010
0100
0010
1000
0100
0000
1000
0100
,
0010
1000
0001
0100
1000
0000
0001
0100
,
0010
1000
0100
0010
0001
1000
0000
1000
,
1000
0000
0001
0000
0100
0000
0010
0000
0010
0000
0010
0000
1000
0100
1000
0010
,
0001
0100
0001
0010
0000
0100
1000
0010
1000
0100
0001
0010
0001
0100
1000
0010
,
1000
0100
0001
0010
0000
0100
1000
0010
0110
0000
1001
0000
0001
0100
0001
0010
,
0001
0100
0001
0010
0000
0100
1000
0010
1000
0100
1000
0010
1000
0100
1000
0010
,
0001
0100
0001
0010
0000
0100
1000
0010
1000
0100
0110
0000
0100
0000
0001
0000
,
0101
0000
0010
1000
1010
0000
1000
0100
,
0010
0100
0010
0001
0100
0000
0010
0100
,
1001
0000
0100
1000
1010
0000
1000
0001
,
0100
0001
0010
0001
0100
0000
0010
1000
,
0110
0000
0100
0001
0110
0000
0010
1000
,
0100
1000
0010
0100
0001
0000
1000
0010
,
0101
0000
0001
0010
1100
0000
1000
0010
,
0100
0002
0000
0010
0010
0013
0100
0010
,
1001
0000
0010
0100
1001
0000
1000
0001
,
0100
0001
0010
0100
1000
0000
0010
0100
,
0101
0000
0001
0010
0011
0000
0001
0100
,
0010
1000
0100
1000
0010
0000
1000
0100
,
1010
0000
0001
0100
0101
0000
0001
0100
,
0010
0100
0001
0100
1000
0000
0010
0100
,
0101
0000
0010
0100
1010
0000
0100
0001
,
0010
0100
1000
0100
0010
0000
0100
0001
,
0100
0001
0010
1000
0010
1000
0100
1000
,
0100
0010
0100
0001
1000
0000
0001
0100
,
0001
2000
0000
3010
0100
0002
0000
0103
,
1000
0020
0000
0031
0100
0000
0010
0100
,
0010
1000
0001
1000
0100
0001
0100
0000
,
1000
0001
0100
0020
0000
1030
0100
0002
,
0000
0013
0100
2000
0000
3001
0100
0000
,
0001
0100
1000
0010
0001
0100
0001
0010
,
1001
0000
0000
0000
;

//---------------dance-single - ----------------
#NOTEDATA:;
#CHARTNAME:;
#STEPSTYPE:dance-single;
#DESCRIPTION:;
#CHARTSTYLE:;
#DIFFICULTY:Medium;
#METER:6;
#RADARVALUES:0.488265,0.641932,0.381689,0.294942,0.039036,394.000000,350.000000,44.000000,34.000000,0.000000,0.000000,0.000000,0.000000,0.000000,0.488265,0.641932,0.381689,0.294942,0.039036,394.000000,350.000000,44.000000,34.000000,0.000000,0.000000,0.000000,0.000000,0.000000;
#CREDIT:OpenITG3;
#DISPLAYBPM:169.000000;
#NOTES:
0000
0000
0000
0000
,
0000
0000
0000
0000
,
0000
0000
0000
0000
,
0000
0000
0000
0000
,
0101
0000
0010
0100
0000
1000
0000
0010
,
0000
0100
0000
0001
0010
0000
0100
0000
,
1010
0000
0001
0100
0000
0010
0000
1000
,
0000
0100
0000
0010
0001
0000
0110
0000
,
0001
0000
1000
0200
0000
0320
0000
0031
,
0000
0200
0000
0010
0300
0010
1000
0000
,
0101
0000
0010
0100
0000
1000
0100
0000
,
1001
0000
1000
0000
0001
0020
0000
0230
,
0000
1300
0000
0020
0000
0100
0030
0100
,
0001
0000
1010
0000
0100
0010
0000
0001
,
0010
0000
0101
0000
1000
0000
0001
0200
,
0000
0320
0000
1030
0000
0200
0000
0010
,
0300
0010
0001
0000
1100
0000
0010
0100
,
0000
0001
0100
0000
1001
0000
0010
0000
,
0100
0002
0000
2003
0000
3010
0000
0002
,
0000
1000
0003
1000
0100
0000
0011
0000
,
1000
0001
0000
0100
0001
0000
0110
0000
,
1000
0110
0001
0100
,
1000
0000
1010
0000
0100
1000
0100
0000
,
0010
0101
0001
1000
,
0100
0000
1010
0000
0100
0010
0100
0000
,
0001
1001
1000
0010
,
0100
0000
1010
0000
0100
0010
0100
0000
,
0001
0011
0100
0110
,
1000
0001
1000
0001
0100
0000
0020
0000
,
0000
0000
0000
1030
,
0100
0000
0010
0001
0010
0000
0100
0000
,
1001
0000
0010
1000
0010
0000
0100
0000
,
0010
0000
0100
0001
1000
0000
0100
0000
,
1010
0000
1000
0100
0010
0000
0100
0000
,
0011
0100
1000
0100
,
0011
0000
0100
0000
1000
0000
0010
1000
,
0100
0000
0001
0100
0001
0100
0000
0010
,
2000
0000
0100
0100
3100
0000
0010
0000
,
1001
0000
0001
0100
0001
0000
0010
0000
,
1000
0000
0100
1000
0100
0000
0010
0000
,
0101
0000
0001
0010
0100
0000
0010
0000
,
1000
0000
0010
0100
1000
0000
0001
0000
,
0101
0010
0100
1000
,
0011
0000
0100
0000
1000
0000
0100
1000
,
0100
0000
0010
0001
0010
0001
0000
0100
,
0010
0000
0010
1000
0100
0000
0001
0100
,
0010
0000
0100
1000
0000
1000
0100
0000
0010
0000
0001
0000
0010
0000
0100
0000
,
0010
0000
0001
0100
0000
0010
1000
0000
0200
0000
0302
0000
1003
0000
0100
0000
,
0010
0000
0100
0001
0000
0001
0100
0000
0010
0000
1000
0000
0100
0000
1000
0000
,
0010
0000
0100
0001
0000
0001
0010
0000
0100
0100
0100
0000
2000
0000
0000
0000
,
3020
0100
0000
0130
0001
0000
0010
0000
,
0020
1000
0000
1030
0100
0000
0001
0000
,
1001
0000
1000
0000
1100
0000
0001
0100
,
0001
0100
0000
0000
1001
0000
0002
0000
,
0203
0010
0000
0310
1000
0000
0100
0000
,
0200
0001
0000
0301
0010
0000
1000
0000
,
1001
0000
0001
0000
0011
0000
1000
0010
,
1000
0100
0000
0001
0010
0000
0200
0000
,
2300
0001
0000
3001
0010
0000
1000
0000
,
2000
0100
0000
3100
0001
0000
0010
0000
,
0110
0000
0100
0000
0101
0000
0010
0001
,
0010
0001
0000
0000
0110
0000
0020
0000
,
0032
1000
0000
1003
0100
0000
0001
0000
,
0002
0010
0000
0013
1000
0000
0100
0000
,
0110
0000
0010
0000
1010
0000
0100
1000
,
1000
0000
0110
0000
0001
0000
0001
0100
,
0001
0000
0110
0000
1000
0000
0100
0010
,
0100
0010
0100
0000
1001
0000
1000
0000
,
0001
0020
0000
0230
0000
1300
0000
0020
,
0000
0100
0030
0100
0001
0000
1010
0000
,
0100
0010
0000
0001
0010
0000
1001
0000
,
0001
0000
1000
0200
0000
0320
0000
0031
,
0000
0200
0000
0010
0300
0010
1000
0000
,
0101
0000
0010
0100
0000
1000
0010
0000
,
1100
0000
0000
0000
;

//---------------dance-single - ----------------
#NOTEDATA:;
#CHARTNAME:;
#STEPSTYPE:dance-single;
#DESCRIPTION:;
#CHARTSTYLE:;
#DIFFICULTY:Easy;
#METER:5;
#RADARVALUES:0.327162,0.641932,0.242893,0.000000,0.017350,264.000000,236.000000,28.000000,0.000000,0.000000,0.000000,0.000000,0.000000,0.000000,0.327162,0.641932,0.242893,0.000000,0.017350,264.000000,236.000000,28.000000,0.000000,0.000000,0.000000,0.000000,0.000000,0.000000;
#CREDIT:OpenITG3;
#DISPLAYBPM:169.000000;
#NOTES:
0000
0000
0000
0000
,
0000
0000
0000
0000
,
0000
0000
0000
0000
,
0000
0000
0000
0000
,
1000
0100
1000
1000
,
0001
0001
0101
1001
,
0100
0100
0010
0010
,
1000
1000
0100
1001
,
0100
1000
0100
0000
,
0011
0000
1001
0000
,
1000
0000
0000
0100
0000
0000
0001
0000
,
0100
0001
1000
0100
,
0000
0110
0000
1100
,
0000
0000
0010
0000
0000
0100
0000
0000
,
0010
0001
0100
0010
,
0100
0000
1010
0000
,
0101
0000
0000
0000
0001
0000
0000
0010
,
0000
0100
1000
0100
,
0010
0001
0000
0101
,
0000
0110
0000
0100
,
0000
1000
0000
0000
0100
0000
1001
0000
,
0001
0100
0001
0100
,
0010
1000
0010
0000
,
0100
1000
0100
0010
,
0001
0010
0100
0000
,
1000
0100
0010
0100
,
0010
0001
0100
0000
,
0001
0001
1000
1000
,
0010
0100
1001
0000
,
0000
0000
0000
0100
,
1000
0100
0000
0010
,
0001
0010
0000
0100
,
0001
0100
0000
0010
,
1000
0010
0000
1000
,
0001
1000
0001
0100
,
0010
0100
0000
0001
,
0001
0100
0100
1001
,
0000
0000
0100
0010
,
0001
0010
0100
1000
,
0001
1000
0000
0100
,
0001
0100
0000
0010
,
0001
0010
0000
0100
,
1000
0010
1000
0100
,
0001
0100
0000
0001
,
0010
0100
0000
0100
,
1000
0100
1001
0100
,
0110
0000
0000
1001
0000
0000
0100
0000
1000
0000
0100
0000
0010
0000
0000
0000
,
0101
0000
0000
1001
0000
0000
0100
0000
0110
0000
0110
0000
1001
0000
0000
0000
,
0100
0000
0000
0011
0000
0000
0100
0000
1000
0000
0010
0000
0100
0000
0000
0000
,
0010
0000
0000
0101
0000
0000
0010
0000
1000
0000
1000
0000
0100
0000
0000
0000
,
0100
0001
0001
0010
,
0001
0100
0000
1000
,
0001
1000
0100
1000
,
0010
0100
0000
0010
,
0100
0010
0001
1000
,
0100
0010
0000
1000
,
0001
0100
0001
0010
,
0001
0100
0000
0001
,
0001
1000
1000
0001
,
0100
0010
0000
0010
,
0100
0010
1000
0010
,
0001
0100
0000
0001
,
1000
0001
0100
0010
,
1000
0100
0000
0100
,
0100
0010
0010
0001
,
1000
0100
0000
0010
,
0001
1000
0000
0100
,
1000
0010
0000
1000
,
0001
1000
0000
0110
,
0000
0011
0000
0001
,
0000
1000
0000
0000
0010
0000
1000
0000
,
0010
0001
1000
0000
,
1100
0000
1001
0000
,
0100
0000
0000
1000
0000
0000
0010
0000
,
0100
0000
0000
0000
;

//---------------dance-single - ----------------
#NOTEDATA:;
#CHARTNAME:;
#STEPSTYPE:dance-single;
#DESCRIPTION:;
#CHARTSTYLE:;
#DIFFICULTY:Beginner;
#METER:3;
#RADARVALUES:0.214390,0.385159,0.268917,0.008675,0.000000,173.000000,142.000000,31.000000,1.000000,0.000000,0.000000,0.000000,0.000000,0.000000,0.214390,0.385159,0.268917,0.008675,0.000000,173.000000,142.000000,31.000000,1.000000,0.000000,0.000000,0.000000,0.000000,0.000000;
#CREDIT:OpenITG3;
#DISPLAYBPM:169.000000;
#NOTES:
0000
0000
0000
0000
,
0000
0000
0000
0000
,
0000
0000
0000
0000
,
0000
0000
0000
0000
,
1000
0000
0000
0000
,
0100
0000
0000
0000
,
0010
0000
0000
0000
,
0001
0000
0000
0000
,
1000
1000
1000
0000
,
0001
0000
1000
0000
,
1001
0000
0000
0110
,
0110
0001
0000
0000
,
0000
0100
0000
0010
,
0000
0110
0000
0000
,
1001
1001
0001
0001
,
0001
0000
1000
0000
,
0001
0000
1001
0000
,
0000
0110
0110
1000
,
0000
0000
0000
0010
,
0000
0100
0000
0110
,
0000
0000
1001
1001
,
0110
0000
0010
0000
,
1000
0000
0100
0000
,
1000
0000
0001
0000
,
0100
0000
0001
0000
,
0010
0000
0100
0000
,
0100
0000
1000
0000
,
1000
0000
0001
0000
,
0001
0000
1001
0000
,
0000
0000
0000
1000
,
0000
1000
0000
1000
,
0000
1000
0000
0001
,
0000
0001
0000
0001
,
0000
0001
0000
0100
,
0100
0100
0000
0010
,
0010
0010
0000
1001
,
1001
1001
1001
0100
,
0000
0000
0000
0001
,
0000
0001
0000
0010
,
0000
0010
0000
0100
,
0000
0100
0000
1000
,
0000
1000
0000
0100
,
0100
0100
0000
0010
,
0010
0010
0000
0001
,
0001
1001
1001
1000
,
0000
0000
0000
1000
,
0000
0100
0000
1000
,
0000
0020
0030
0001
,
0000
0100
0000
0010
,
0000
1000
0000
1000
,
0000
1000
0000
0001
,
0000
0001
0000
0010
,
0000
0100
0000
0010
,
0000
0100
0000
0001
,
0000
0010
0000
0001
,
0000
0010
0000
1000
,
0000
0010
0000
0100
,
0000
1000
0000
0001
,
0000
0001
0000
0001
,
0000
0000
0000
0100
,
0000
0100
0000
0100
,
0000
0000
0000
1000
,
0000
1000
0000
1000
,
0000
0000
0000
0010
,
0000
0010
0000
0100
,
0000
0100
0000
1001
,
0000
1001
0000
0110
,
0110
0110
0000
0001
,
0001
0001
0000
1000
,
0000
0001
0000
1001
,
0000
0000
0110
0110
,
1000
0000
0000
0000
,
0010
0000
0100
0000
,
0110
0000
0000
1001
,
1001
0000
0000
0000
;
