#TITLE:Caradura;
#SUBTITLE:;
#ARTIST:Duque & Bandaduke;
#TITLETRANSLIT:;
#SUBTITLETRANSLIT:;
#ARTISTTRANSLIT:;
#GENRE:Rock;
#CREDIT:OpenITG3;
#BANNER:Caradura-bn.png;
#BACKGROUND:Caradura-bg.png;
#LYRICSPATH:;
#CDTITLE:;
#MUSIC:Caradura.ogg;
#OFFSET:-0.521978;
#SAMPLESTART:40.678001;
#SAMPLELENGTH:12.000000;
#SELECTABLE:YES;
#BPMS:0.000000=94.879997
;
#STOPS:
;
#BGCHANGES:;
#KEYSOUNDS:;
#ATTACKS:;

//---------------dance-single - ----------------
#NOTES:
     dance-single:
     :
     Beginner:
     1:
     0.103206,0.132489,0.069275,0.049482,0.000000,73.000000,66.000000,7.000000,5.000000,0.000000,0.000000,0.103206,0.132489,0.069275,0.049482,0.000000,73.000000,66.000000,7.000000,5.000000,0.000000,0.000000:
0000
0000
0000
0000
,
0000
0000
0000
0000
,
0000
0000
0000
0000
,
0000
0000
0000
0000
,
1001
0000
0000
0000
,
0100
0000
0000
0000
,
0110
0000
0001
0000
,
2000
0000
3000
0000
,
0110
0000
0000
0000
,
0001
0000
0000
0000
,
1001
0000
0100
0000
,
0020
0000
0030
0000
,
0001
0000
0001
0000
,
0001
0000
0000
0000
,
0100
0000
0100
0000
,
0200
0000
0300
0000
,
1000
0000
1000
0000
,
0001
0000
0001
0000
,
0100
0100
0100
0000
,
0010
0010
0010
0000
,
0100
0000
0100
0000
,
0010
0000
0010
0000
,
0001
0001
0001
0000
,
1000
1000
2000
0000
,
0000
3000
0000
1000
,
0000
0001
0000
1000
,
0000
0001
0000
0100
,
0000
0010
0000
0100
,
0000
0010
0000
0100
,
0000
1001
0000
1000
,
0000
0001
0001
0001
,
0000
0100
0000
1000
,
0000
0010
0010
0010
,
0000
0110
0000
0010
,
0000
1000
1000
1000
,
0000
0010
0000
0100
,
0000
0001
0001
0002
,
0000
0000
0000
0003
,
0000
1001
0000
0000
;

//---------------dance-single - ----------------
#NOTES:
     dance-single:
     :
     Easy:
     2:
     0.203585,0.227124,0.158344,0.188033,0.000000,144.000000,128.000000,16.000000,19.000000,0.000000,0.000000,0.203585,0.227124,0.158344,0.188033,0.000000,144.000000,128.000000,16.000000,19.000000,0.000000,0.000000:
// measure 0
0000
0000
0000
0000
,  // measure 1
0000
0000
0000
0000
,  // measure 2
0000
0000
0000
0000
,  // measure 3
0000
0000
0000
0000
,  // measure 4
1010
0100
0020
0030
,  // measure 5
0101
0001
0010
0100
,  // measure 6
2000
3000
0020
0030
,  // measure 7
0002
0003
0200
0310
,  // measure 8
1001
0100
0002
0003
,  // measure 9
0110
0100
1000
0100
,  // measure 10
0002
0013
0200
1300
,  // measure 11
0020
0130
0002
0013
,  // measure 12
1000
2000
0100
3001
,  // measure 13
0010
0020
0001
0130
,  // measure 14
1000
0001
1000
0010
,  // measure 15
0100
0001
0200
0300
,  // measure 16
0001
0100
0001
0100
,  // measure 17
1000
1000
0010
0100
,  // measure 18
0001
0101
1000
1010
,  // measure 19
0010
1000
0200
0310
,  // measure 20
1000
0100
1000
0100
,  // measure 21
0010
0001
0010
0100
,  // measure 22
0001
1001
1000
0110
,  // measure 23
0010
1000
0200
0320
,  // measure 24
0000
0000
0000
1030
,  // measure 25
1000
0001
1001
0010
,  // measure 26
0010
0001
1010
0100
,  // measure 27
0100
1000
0110
0001
,  // measure 28
0001
0010
1000
0200
,  // measure 29
0310
1000
0010
1000
,  // measure 30
0010
0001
0001
0100
,  // measure 31
0010
1000
1010
0001
,  // measure 32
0101
0100
0001
0020
,  // measure 33
0130
0001
0010
0001
,  // measure 34
0010
0100
1000
0100
,  // measure 35
0010
1000
1001
0001
,  // measure 36
0110
0100
1000
1000
,  // measure 37
0100
0020
0000
0100
,  // measure 38
0130
1001
0000
0000
;

//---------------dance-single - ----------------
#NOTES:
     dance-single:
     :
     Medium:
     4:
     0.254481,0.264978,0.267205,0.178137,0.000000,180.000000,153.000000,27.000000,18.000000,0.000000,0.000000,0.254481,0.264978,0.267205,0.178137,0.000000,180.000000,153.000000,27.000000,18.000000,0.000000,0.000000:
// measure 0
0000
0000
0000
0000
,  // measure 1
0000
0000
0000
0000
,  // measure 2
0000
0000
0000
0000
,  // measure 3
0000
0000
0000
0000
,  // measure 4
0101
0010
0200
0301
,  // measure 5
0010
1000
0100
0000
0010
0000
1010
0000
,  // measure 6
0100
1001
0010
0100
,  // measure 7
0001
0100
0010
0000
0101
0000
0010
0000
,  // measure 8
1010
0100
0020
1030
,  // measure 9
0100
0001
0010
0000
0100
0000
0101
0000
,  // measure 10
0010
1001
0100
0010
,  // measure 11
1000
0010
0100
0000
1010
0000
1000
0000
,  // measure 12
0001
0100
0002
0000
0010
0000
1003
0000
,  // measure 13
0100
0010
0200
0000
1000
0000
0310
0000
,  // measure 14
0001
0010
1000
0000
0001
0000
0110
0000
,  // measure 15
0010
0000
1000
0100
0020
0000
0030
0000
,  // measure 16
1000
0010
1000
0110
,  // measure 17
0001
0000
0001
1000
0200
0000
0310
0000
,  // measure 18
1000
1010
0001
0101
,  // measure 19
0100
0000
0001
1000
0020
0000
0130
0000
,  // measure 20
0001
0010
0001
1010
,  // measure 21
0100
0000
1000
0010
0200
0000
0310
0000
,  // measure 22
1000
1001
0001
0110
,  // measure 23
0100
0000
0001
0100
0020
0000
0230
0000
,  // measure 24
0000
0000
0000
0000
0000
0000
0301
0010
,  // measure 25
0001
0000
2100
0000
3001
0000
0100
0010
,  // measure 26
0100
0000
1020
0000
0130
0000
1000
0010
,  // measure 27
0100
0000
0012
0000
0103
0000
1000
0010
,  // measure 28
1000
0110
0001
0020
,  // measure 29
0130
0001
0100
0001
,  // measure 30
0110
0000
1000
0000
1000
0001
0020
0000
,  // measure 31
0130
0001
0101
1000
,  // measure 32
1010
0000
0010
0000
1000
0001
0200
0000
,  // measure 33
0310
1000
0100
1000
,  // measure 34
0101
0000
0010
0000
0001
0100
0020
0000
,  // measure 35
0130
0001
1001
1000
,  // measure 36
0110
0000
0010
0000
1000
0010
1000
0000
,  // measure 37
0100
0020
0000
0130
,  // measure 38
0110
1001
0000
0000
;

//---------------dance-single - ----------------
#NOTES:
     dance-single:
     :
     Hard:
     5:
     0.298308,0.304812,0.237516,0.227619,0.000000,211.000000,187.000000,24.000000,23.000000,0.000000,0.000000,0.298308,0.304812,0.237516,0.227619,0.000000,211.000000,187.000000,24.000000,23.000000,0.000000,0.000000:
// measure 0
0000
0000
0000
0000
,  // measure 1
0000
0000
0000
0000
,  // measure 2
0000
0000
0000
0000
,  // measure 3
0000
0000
0000
0000
,  // measure 4
2100
0000
3010
0000
0001
1000
0001
0000
,  // measure 5
0102
0000
0013
0000
1000
0100
0001
0000
,  // measure 6
0010
0100
0001
0000
0010
1000
0100
0000
,  // measure 7
0012
0000
1003
0000
1000
0100
0010
0100
,  // measure 8
0012
0000
0103
0000
1000
0001
1000
0000
,  // measure 9
2010
0000
3100
0000
0001
0010
1000
0000
,  // measure 10
0100
0010
1000
0000
0100
0001
0010
0000
,  // measure 11
2100
0000
3001
0000
0001
0010
0100
0000
,  // measure 12
0001
0100
0002
0000
1000
0000
0103
0000
,  // measure 13
1000
0010
0200
0000
0010
0000
0301
0000
,  // measure 14
0100
0010
1000
0000
0001
0010
0100
0000
,  // measure 15
0010
0100
1000
0100
0120
0000
0031
0000
,  // measure 16
1000
1000
0100
0000
0001
0001
0110
0000
,  // measure 17
0001
0100
0001
1000
0020
0000
0130
0000
,  // measure 18
1000
0000
1010
0000
0001
0100
0101
0000
,  // measure 19
0100
1000
0001
0010
2000
0000
3010
0000
,  // measure 20
0001
0001
0100
0000
0010
0010
1000
0000
,  // measure 21
0100
0010
1000
0010
0200
0000
0301
0000
,  // measure 22
1000
0000
1001
0000
0001
1000
0110
0000
,  // measure 23
0100
1000
0001
0100
0002
0000
2003
0000
,  // measure 24
0000
0000
0000
0000
0000
0000
3001
0010
,  // measure 25
0001
1000
0200
0000
0310
0000
0100
0010
,  // measure 26
0110
0000
0001
1000
1001
0000
1000
0010
,  // measure 27
0100
1000
0210
0000
0310
0000
1000
0010
,  // measure 28
1000
0210
0301
2002
,  // measure 29
3003
0000
0001
0001
0010
0000
1000
1000
,  // measure 30
0110
0000
1000
0010
1000
0001
0200
0000
,  // measure 31
0310
0000
0001
0000
0101
0000
1000
0010
,  // measure 32
1010
0000
0010
0001
1000
0100
0002
0000
,  // measure 33
0103
0000
1000
1000
0010
0000
0100
0100
,  // measure 34
0001
0000
0010
0100
0001
0100
0020
0000
,  // measure 35
1030
0000
0001
0000
1001
0000
1000
0001
,  // measure 36
0110
0000
0010
0001
1000
0010
1000
0000
,  // measure 37
0100
0020
0000
0130
,  // measure 38
0110
0000
1001
0100
0001
0000
0000
0000
;
