#TITLE:Calibraciones;
#SUBTITLE:;
#ARTIST:Aparato Raro;
#TITLETRANSLIT:;
#SUBTITLETRANSLIT:;
#ARTISTTRANSLIT:;
#GENRE:Synth Pop;
#CREDIT:OpenITG3;
#BANNER:Calibraciones-bn.png;
#BACKGROUND:Calibraciones-bg.png;
#LYRICSPATH:;
#CDTITLE:;
#MUSIC:Calibraciones.ogg;
#OFFSET:-0.682591;
#SAMPLESTART:46.018002;
#SAMPLELENGTH:12.000000;
#SELECTABLE:YES;
#BPMS:0.000000=150.873993
,16.000000=146.395004
,55.000000=150.259995
,86.000000=147.037994
,112.000000=150.759995
,144.000000=152.362000
,176.000000=148.477997
,191.000000=151.281006
,223.000000=148.098007
,256.000000=150.899002
,263.000000=152.701004
,319.000000=149.098999
;
#STOPS:
;
#BGCHANGES:;
#KEYSOUNDS:;
#ATTACKS:;

//---------------dance-single - ----------------
#NOTES:
     dance-single:
     :
     Easy:
     4:
     0.339891,0.369481,0.167946,0.223928,0.000000,340.000000,316.000000,24.000000,32.000000,0.000000,0.000000,0.339891,0.369481,0.167946,0.223928,0.000000,340.000000,316.000000,24.000000,32.000000,0.000000,0.000000:
// measure 0
0000
0000
0000
0000
,  // measure 1
0000
0000
0000
0000
,  // measure 2
0000
0000
0000
0000
,  // measure 3
0000
0000
0000
0000
,  // measure 4
1000
0020
0030
0100
,  // measure 5
0001
2000
3000
0100
,  // measure 6
0010
0000
0002
0000
0000
0003
1000
0000
,  // measure 7
0010
0200
0010
0010
,  // measure 8
0310
0000
0001
0100
,  // measure 9
0001
0000
0010
0001
,  // measure 10
1000
0000
0010
1000
,  // measure 11
0100
1001
1001
0110
,  // measure 12
0000
0000
1000
0000
0001
0000
0100
0100
,  // measure 13
0000
0001
0010
0100
,  // measure 14
0000
0000
0010
0000
1000
0000
0001
0001
,  // measure 15
0000
0100
1000
0101
,  // measure 16
0001
0000
0000
0000
2000
0000
0010
0010
,  // measure 17
3010
0000
0000
0000
0002
0000
0100
0100
,  // measure 18
0103
0000
0000
0000
0020
0000
1000
1000
,  // measure 19
1030
1010
1001
0001
,  // measure 20
0000
0110
0000
0001
,  // measure 21
0100
0000
0010
0000
1000
0000
0001
0001
,  // measure 22
0001
1000
0000
0010
,  // measure 23
0100
0000
0010
0000
0001
0000
1000
1000
,  // measure 24
1000
0010
0010
0001
,  // measure 25
0001
0000
1000
0000
0010
0000
0100
0100
,  // measure 26
0100
1000
1000
0010
,  // measure 27
0100
0001
1000
0000
,  // measure 28
1000
0100
1000
0100
,  // measure 29
0020
0001
0200
0330
,  // measure 30
0001
0010
0100
1000
,  // measure 31
0100
0000
0010
0010
0100
0000
0001
0001
,  // measure 32
0010
0001
0010
0001
,  // measure 33
0200
0010
2000
3300
,  // measure 34
1000
0010
0001
0100
,  // measure 35
0001
0000
0100
0100
0100
0000
0010
0010
,  // measure 36
0010
0100
0001
0100
,  // measure 37
2000
0001
0200
3300
,  // measure 38
0001
0100
0010
1000
,  // measure 39
0100
1001
0100
1001
,  // measure 40
0010
1000
0001
0100
,  // measure 41
0002
0100
2000
3003
,  // measure 42
1000
0001
1000
0100
,  // measure 43
0001
0110
1001
0110
,  // measure 44
0100
0000
0100
0001
,  // measure 45
0100
0000
1000
0100
,  // measure 46
0010
0000
1000
0010
,  // measure 47
0001
0110
0110
1001
,  // measure 48
0000
0000
0010
0000
0100
0000
0001
0001
,  // measure 49
0000
0100
1000
0001
,  // measure 50
0000
0000
1000
0000
0010
0000
0100
0100
,  // measure 51
0000
0001
0010
0101
,  // measure 52
0100
0000
0000
0000
0020
0000
1000
1000
,  // measure 53
1030
0000
0000
0000
0200
0000
0001
0001
,  // measure 54
0301
0000
0000
0000
2000
0000
0010
0010
,  // measure 55
3010
1010
0110
0100
,  // measure 56
0000
1001
0000
0100
,  // measure 57
0001
0000
1000
0000
0010
0000
0100
0100
,  // measure 58
0100
0010
0000
1000
,  // measure 59
0001
0000
1000
0000
0100
0000
0010
0010
,  // measure 60
0010
1000
1000
0100
,  // measure 61
0100
0000
0010
0000
1000
0000
0001
0001
,  // measure 62
0001
0010
0010
1000
,  // measure 63
0001
0100
0010
0000
,  // measure 64
0010
0001
0010
0001
,  // measure 65
2000
0100
0002
3003
,  // measure 66
0100
1000
0001
0010
,  // measure 67
0001
0000
1000
1000
0001
0000
0100
0100
,  // measure 68
1000
0100
1000
0100
,  // measure 69
0002
1000
0020
0033
,  // measure 70
0010
1000
0100
0001
,  // measure 71
0100
0000
0001
0001
0001
0000
1000
1000
,  // measure 72
1000
0001
0100
0001
,  // measure 73
0020
0100
0002
0033
,  // measure 74
0100
0001
1000
0010
,  // measure 75
0001
0110
0001
0110
,  // measure 76
1000
0010
0100
0001
,  // measure 77
0200
0001
0020
0330
,  // measure 78
0010
0100
0010
0001
,  // measure 79
0100
1001
0110
0110
,  // measure 80
0001
2000
3000
0100
,  // measure 81
0010
0002
0003
0100
,  // measure 82
1000
0000
0020
0000
0000
0030
0001
0000
,  // measure 83
1000
0100
1000
0001
,  // measure 84
0100
0002
0003
1000
,  // measure 85
0010
0200
0300
1000
,  // measure 86
0001
0000
0020
0000
0000
0030
0100
0000
,  // measure 87
0001
1000
1000
0100
,  // measure 88
0010
0000
0000
0000
;

//---------------dance-single - ----------------
#NOTES:
     dance-single:
     :
     Medium:
     6:
     0.417866,0.431062,0.244921,0.167946,0.000000,418.000000,383.000000,35.000000,24.000000,0.000000,0.000000,0.417866,0.431062,0.244921,0.167946,0.000000,418.000000,383.000000,35.000000,24.000000,0.000000,0.000000:
// measure 0
0000
0000
0000
0000
,  // measure 1
0000
0000
0000
0000
,  // measure 2
0000
0000
0000
0000
,  // measure 3
0000
0000
0000
0000
,  // measure 4
1000
0000
0020
0000
0030
0001
0100
0000
,  // measure 5
0001
0000
2000
0000
3000
0010
0100
0000
,  // measure 6
0010
0000
0002
0000
0003
0100
1000
0000
,  // measure 7
0010
0000
1001
0000
0100
0010
0100
0010
,  // measure 8
0100
1000
0001
0100
,  // measure 9
0001
0100
0010
0001
,  // measure 10
1000
0100
0010
1000
,  // measure 11
0101
0011
1001
0110
,  // measure 12
0000
0000
1000
0000
0001
0000
0100
0100
,  // measure 13
0000
0010
0001
0000
0010
0000
0100
1000
,  // measure 14
0000
0000
0010
0000
1000
0000
0001
0001
,  // measure 15
0000
0000
0100
0000
1000
0000
0010
0001
,  // measure 16
0010
0000
0010
2000
0000
0000
0001
0001
,  // measure 17
3001
0000
0100
0002
0000
0000
1000
1000
,  // measure 18
1003
0000
0001
0020
0000
0000
0100
0100
,  // measure 19
0130
0000
1001
0000
0011
0000
1000
0001
,  // measure 20
1000
0110
1000
0001
,  // measure 21
0100
0000
0010
0000
1001
0000
0001
0001
,  // measure 22
0001
1000
0001
0010
,  // measure 23
0100
0000
0010
0000
0101
0000
1000
1000
,  // measure 24
1000
0100
0100
0001
,  // measure 25
0001
0000
1000
0000
0011
0000
0100
0100
,  // measure 26
0100
0000
1000
0001
1000
0000
0010
0000
,  // measure 27
0100
0000
0001
1000
0010
0000
1001
0000
,  // measure 28
1000
0100
0001
0100
,  // measure 29
2000
0000
0010
0010
0010
0000
3001
0000
,  // measure 30
0010
1000
0010
0001
,  // measure 31
1010
0000
1000
0100
1000
0000
0001
0010
,  // measure 32
0001
1000
0010
0100
,  // measure 33
0002
0000
0010
0010
0010
0000
1003
0000
,  // measure 34
0100
0010
1000
0100
,  // measure 35
0001
0000
0010
1000
0010
0000
0100
0001
,  // measure 36
0100
0001
0001
1000
,  // measure 37
0200
0000
0010
0010
0010
0000
0301
0000
,  // measure 38
1000
0100
0010
0001
,  // measure 39
0110
1001
0101
1001
,  // measure 40
0010
1000
0001
0100
,  // measure 41
0002
0000
1000
1000
1000
0000
0103
0000
,  // measure 42
1000
0001
1000
0100
,  // measure 43
0001
0100
0001
1000
0001
0000
2000
0000
,  // measure 44
3001
0100
0010
1000
,  // measure 45
0010
1000
0001
0010
,  // measure 46
0100
1000
0001
0100
,  // measure 47
1010
0011
0110
1001
,  // measure 48
0000
0000
0100
0000
0010
0000
1000
1000
,  // measure 49
0000
0001
0010
0000
0001
0000
1000
0100
,  // measure 50
0000
0000
0001
0000
0100
0000
0010
0010
,  // measure 51
0000
0000
1000
0000
0100
0000
0001
0010
,  // measure 52
0001
0000
0001
0200
0000
0000
0010
0010
,  // measure 53
0310
0000
1000
0020
0000
0000
0100
0100
,  // measure 54
0130
0000
0010
0002
0000
0000
1000
1000
,  // measure 55
1003
0000
0110
0000
0011
0000
0100
0010
,  // measure 56
0100
1001
0100
0010
,  // measure 57
1000
0000
0001
0000
0110
0000
0010
0010
,  // measure 58
0010
0100
0010
0001
,  // measure 59
1000
0000
0001
0000
1010
0000
0100
0100
,  // measure 60
0100
1000
1000
0010
,  // measure 61
0010
0000
0100
0000
0011
0000
1000
1000
,  // measure 62
1000
0000
0100
0010
0100
0000
0001
0000
,  // measure 63
1000
0000
0010
0100
0001
0000
0110
0000
,  // measure 64
0100
1000
0010
1000
,  // measure 65
0200
0000
0001
0001
0001
0000
0310
0000
,  // measure 66
0001
0100
0001
0010
,  // measure 67
0101
0000
0100
1000
0100
0000
0010
0001
,  // measure 68
0010
0100
0001
1000
,  // measure 69
0020
0000
0001
0001
0001
0000
0130
0000
,  // measure 70
1000
0001
0100
1000
,  // measure 71
0010
0000
0001
0100
0001
0000
1000
0010
,  // measure 72
1000
0010
0010
0100
,  // measure 73
2000
0000
0001
0001
0001
0000
3010
0000
,  // measure 74
0100
1000
0001
0010
,  // measure 75
1001
0110
1010
0110
,  // measure 76
0001
0100
0010
1000
,  // measure 77
0020
0000
0100
0100
0100
0000
1030
0000
,  // measure 78
0100
0010
0100
1000
,  // measure 79
0010
1000
0010
0100
0010
0000
0100
0000
,  // measure 80
0010
0000
2000
0000
3000
0100
0001
0000
,  // measure 81
0100
0000
0020
0000
0030
1000
0001
0000
,  // measure 82
1000
0000
0200
0000
0300
0001
0010
0000
,  // measure 83
1000
0000
0110
0000
0001
1000
0001
1000
,  // measure 84
0100
0000
0020
0000
0030
0100
0001
0000
,  // measure 85
0100
0000
2000
0000
3000
0010
0001
0000
,  // measure 86
0010
0000
0200
0000
0300
0001
1000
0000
,  // measure 87
0010
0000
1100
0000
0001
0010
0001
0010
,  // measure 88
0100
0000
0000
0000
;

//---------------dance-single - ----------------
#NOTES:
     dance-single:
     :
     Hard:
     8:
     0.539827,0.523432,0.251919,0.160948,0.006998,540.000000,504.000000,36.000000,23.000000,0.000000,0.000000,0.539827,0.523432,0.251919,0.160948,0.006998,540.000000,504.000000,36.000000,23.000000,0.000000,0.000000:
// measure 0
0000
0000
0000
0000
,  // measure 1
0000
0000
0000
0000
,  // measure 2
0000
0000
0000
0000
,  // measure 3
0000
0000
0000
0000
,  // measure 4
1000
0100
0020
0000
0030
0001
0100
0000
,  // measure 5
0001
0010
2000
0000
3000
0010
0100
0000
,  // measure 6
0010
1000
0002
0000
0003
0100
1000
0000
,  // measure 7
0001
0100
0010
1000
0100
0001
0100
1000
,  // measure 8
0100
1000
0000
0101
0000
0010
0000
1010
,  // measure 9
0000
1000
0100
1000
0000
0010
0001
0100
,  // measure 10
0000
1010
0000
0100
0000
1001
0000
1000
,  // measure 11
0100
0010
0001
0100
0001
0010
1000
0100
,  // measure 12
0000
0010
0001
0100
0010
1000
1000
0200
,  // measure 13
0000
0310
0001
0100
0010
0100
0010
0000
,  // measure 14
0000
1000
0100
1000
0001
0100
0010
2000
,  // measure 15
0000
3100
0010
0100
0001
1000
0010
0001
,  // measure 16
0100
0000
1000
0010
0200
0000
0001
0001
,  // measure 17
0301
0000
0010
0001
2000
0000
0100
0100
,  // measure 18
3100
0000
0001
0100
0020
0000
1000
1000
,  // measure 19
1030
0000
0001
0100
0010
0100
0010
1000
,  // measure 20
0100
0000
0001
1000
0100
0000
0110
0000
,  // measure 21
1000
0010
0100
0001
0000
0000
0010
1000
,  // measure 22
0100
0000
1000
0100
0001
0000
1100
0000
,  // measure 23
0100
0001
0010
0100
0000
0000
0001
0010
,  // measure 24
0100
0000
1000
0001
0100
0000
1001
0000
,  // measure 25
0001
0010
0100
1000
1000
0000
0001
0100
,  // measure 26
0001
0000
1000
0010
1000
0000
0011
0000
,  // measure 27
0100
0010
1000
0100
0010
0000
0110
0010
,  // measure 28
0110
0000
1000
0100
0010
0100
1000
0000
,  // measure 29
0002
0000
0010
0000
0100
0100
0103
0000
,  // measure 30
1000
0010
1000
0000
0010
0100
0001
0000
,  // measure 31
1000
0100
0001
0100
1000
0000
1001
0000
,  // measure 32
0100
0010
1000
0000
0010
0001
0100
0000
,  // measure 33
1000
0001
0100
0001
0010
0000
0011
0000
,  // measure 34
0100
0000
0010
0001
1000
0100
1000
0010
,  // measure 35
0100
0001
0010
0000
1010
0000
0101
0000
,  // measure 36
1000
0000
0001
0010
0001
0100
0010
0000
,  // measure 37
2000
0000
0100
0000
0001
0001
3001
0000
,  // measure 38
1000
0010
0100
0000
0010
1000
0001
0000
,  // measure 39
0100
0001
1001
0000
0100
1000
1001
0000
,  // measure 40
0010
0000
1000
0010
0001
0010
1000
0000
,  // measure 41
0100
0010
1000
0100
0001
0000
1100
0000
,  // measure 42
0001
0010
0100
0000
1000
0010
0100
0001
,  // measure 43
0010
0100
1000
0010
0001
0000
1001
0000
,  // measure 44
1000
0010
0000
1100
0000
0001
0000
0011
,  // measure 45
0000
0010
1000
0010
0000
0001
0100
1000
,  // measure 46
0000
0011
0000
1000
0000
0110
0000
0010
,  // measure 47
1000
0001
0100
1000
0100
0001
0010
1000
,  // measure 48
0000
0001
0100
1000
0001
0010
0010
2000
,  // measure 49
0000
3001
0100
1000
0001
1000
0001
0000
,  // measure 50
0000
0010
1000
0010
0100
1000
0001
0020
,  // measure 51
0000
1030
0001
1000
0100
0010
0001
0100
,  // measure 52
1000
0000
0010
0001
2000
0000
0100
0100
,  // measure 53
3100
0000
0001
0100
0020
0000
1000
1000
,  // measure 54
1030
0000
0100
1000
0002
0000
0010
0010
,  // measure 55
0013
0000
0100
1000
0001
1000
0001
0010
,  // measure 56
1000
0000
0100
0010
1000
0000
1001
0000
,  // measure 57
0010
0001
1000
0100
0000
0000
0001
0010
,  // measure 58
1000
0000
0010
1000
0100
0000
1010
0000
,  // measure 59
1000
0100
0001
1000
0000
0000
0100
0001
,  // measure 60
1000
0000
0010
0100
1000
0000
0110
0000
,  // measure 61
0100
0001
1000
0010
0010
0000
0100
1000
,  // measure 62
0100
0000
0010
0001
0010
0000
0101
0000
,  // measure 63
1000
0001
0010
1000
0001
0000
1001
0001
,  // measure 64
1001
0000
0010
1000
0001
1000
0010
0000
,  // measure 65
0200
0000
0001
0000
1000
1000
1300
0000
,  // measure 66
0010
0001
0010
0000
0001
1000
0100
0000
,  // measure 67
0010
1000
0100
1000
0010
0000
0110
0000
,  // measure 68
1000
0001
0010
0000
0001
0100
1000
0000
,  // measure 69
0010
0100
1000
0100
0001
0000
0101
0000
,  // measure 70
1000
0000
0001
0100
0010
1000
0010
0001
,  // measure 71
1000
0100
0001
0000
0011
0000
1100
0000
,  // measure 72
0010
0000
0100
0001
0100
1000
0001
0000
,  // measure 73
0020
0000
1000
0000
0100
0100
0130
0000
,  // measure 74
0010
0001
1000
0000
0001
0010
0100
0000
,  // measure 75
1000
0100
0110
0000
1000
0010
0110
0000
,  // measure 76
0001
0000
0010
0001
0100
0001
0010
0000
,  // measure 77
1000
0001
0010
1000
0100
0000
1010
0000
,  // measure 78
0100
0001
1000
0000
0010
0001
1000
0100
,  // measure 79
0001
1000
0010
0001
0100
0000
1001
0000
,  // measure 80
0001
0010
2000
0000
3000
0100
0010
0000
,  // measure 81
0100
1000
0002
0000
0003
1000
0010
0000
,  // measure 82
1000
0001
0200
0000
0300
0010
0001
0000
,  // measure 83
0100
0010
1000
0001
0010
0100
0010
1000
,  // measure 84
0010
1000
0200
0000
0300
0001
1000
0000
,  // measure 85
0001
0100
0020
0000
0030
0100
1000
0000
,  // measure 86
0100
0010
0002
0000
0003
1000
0010
0000
,  // measure 87
0001
0000
1000
0000
0100
0000
0010
0000
1000
0000
0001
0000
0010
1000
0010
1000
,  // measure 88
0010
0000
0000
0000
;

//---------------dance-single - ----------------
#NOTES:
     dance-single:
     :
     Challenge:
     10:
     0.723768,0.769753,0.398872,0.160948,0.167946,724.000000,667.000000,57.000000,23.000000,0.000000,0.000000,0.723768,0.769753,0.398872,0.160948,0.167946,724.000000,667.000000,57.000000,23.000000,0.000000,0.000000:
// measure 0
0000
0000
0000
0000
,  // measure 1
0000
0000
0000
0000
,  // measure 2
0000
0000
0000
0000
,  // measure 3
0000
0000
0000
0000
,  // measure 4
0100
0100
0021
0000
0030
0001
0100
0010
,  // measure 5
0100
0100
2010
0000
3000
0100
1000
0010
,  // measure 6
0100
0100
1002
0000
0003
1000
0100
0001
,  // measure 7
0100
0000
0100
0000
1000
0000
1000
0000
0010
0100
0001
1000
0010
0100
0001
1000
,  // measure 8
0100
0100
0010
0010
1000
1000
0001
0001
,  // measure 9
0020
0130
2000
3001
0200
0310
0002
1003
,  // measure 10
0100
0100
0010
0010
0001
0001
1000
1000
,  // measure 11
0010
0000
0000
0100
0001
0100
0001
0000
0000
0001
1000
0001
1000
0000
0000
0100
0000
0000
1001
0000
0000
1001
0000
0000
,  // measure 12
0100
0000
0000
0010
0000
0000
0010
0000
0000
0001
0000
0000
0001
0000
0000
1000
0000
0000
1000
0000
0000
0100
0010
0100
,  // measure 13
0010
1000
1000
0001
0001
0100
0220
0330
,  // measure 14
0000
0000
0000
0001
0000
0000
0001
0000
0000
1000
0000
0000
1000
0000
0000
0100
0000
0000
0010
0000
0000
1000
0100
1000
,  // measure 15
0100
0000
0000
0010
0100
0010
0100
0000
0000
0001
1000
0001
1000
0000
0000
0100
0000
0000
0110
0000
0000
0110
0000
0000
,  // measure 16
1000
0100
1000
0100
0010
0100
0010
0100
,  // measure 17
0001
0010
0001
0010
0001
1000
0001
1000
,  // measure 18
0100
0001
0100
0001
1000
1000
0001
0001
,  // measure 19
0100
0000
0000
0010
1000
0010
1000
0000
0000
0100
0001
0100
0001
0000
0000
1000
0000
0000
0110
0000
0000
0110
0000
0000
,  // measure 20
0001
1000
0100
0010
0100
0010
0001
0010
,  // measure 21
0100
0010
0100
1000
0200
0000
0310
1000
,  // measure 22
0100
0010
0100
1000
0001
0100
0001
0010
,  // measure 23
1000
0100
1000
0010
0000
0000
0010
0001
,  // measure 24
0100
0010
0100
0001
1000
0001
0100
1000
,  // measure 25
0100
0001
0001
0010
0100
0000
0010
1000
,  // measure 26
0100
0010
0100
0001
0100
1000
0010
0100
,  // measure 27
0001
0000
0010
0000
0100
0000
0010
0000
1000
0000
0001
0000
0100
1000
0010
0100
,  // measure 28
1000
0100
0001
0001
0100
1000
0001
0001
,  // measure 29
0010
0100
0010
1000
0110
0000
1001
0000
,  // measure 30
0100
0010
0010
1000
1000
0100
0010
0100
,  // measure 31
0001
0001
0100
1000
0110
0000
1010
1000
,  // measure 32
0100
0010
0100
1000
0001
0001
0010
0100
,  // measure 33
0100
1000
1000
0010
0011
0000
1100
0000
,  // measure 34
0001
1000
0100
0100
0010
0001
0010
1000
,  // measure 35
1000
0010
0001
0100
0110
0000
1001
0001
,  // measure 36
0101
1000
0010
0010
0100
0001
0001
0010
,  // measure 37
0010
1000
0100
1000
0110
0000
0101
0000
,  // measure 38
0001
0010
0100
1000
1000
0100
0010
0010
,  // measure 39
0001
0100
1001
0001
0100
0001
1001
1000
,  // measure 40
0100
0010
0010
1000
1000
0100
0010
0001
,  // measure 41
0001
1000
0010
0100
0101
0000
1001
0000
,  // measure 42
0010
0100
0001
1000
0100
0010
0100
1000
,  // measure 43
0100
0100
1001
0000
0010
0010
1001
0000
,  // measure 44
0010
0001
0010
0001
0100
1000
0100
1000
,  // measure 45
0200
0310
2000
3001
0020
0130
0002
1003
,  // measure 46
0010
0100
0010
0100
0001
1000
0001
1000
,  // measure 47
0100
0000
0000
0010
0001
0010
0001
0000
0000
0001
1000
0001
1000
0000
0000
0010
0000
0000
1001
0000
0000
1001
0000
0000
,  // measure 48
0010
0000
0000
0100
0000
0000
0100
0000
0000
0001
0000
0000
0001
0000
0000
1000
0000
0000
1000
0000
0000
0010
0100
0010
,  // measure 49
0100
1000
1000
0001
0001
0010
0220
0330
,  // measure 50
0000
0000
0000
0001
0000
0000
0001
0000
0000
1000
0000
0000
1000
0000
0000
0010
0000
0000
0100
0000
0000
1000
0010
1000
,  // measure 51
0010
0000
0000
0100
0010
0100
0010
0000
0000
0001
1000
0001
1000
0000
0000
0010
0000
0000
0110
0000
0000
0110
0000
0000
,  // measure 52
1000
0010
1000
0010
0100
0010
0100
0010
,  // measure 53
0001
0100
0001
0100
0001
1000
0001
1000
,  // measure 54
0010
0001
0010
0001
1000
1000
0001
0001
,  // measure 55
0010
0000
0000
0100
1000
0100
1000
0000
0000
0010
0001
0010
0001
0000
0000
1000
0000
0000
0110
0000
0000
0110
0000
0000
,  // measure 56
0001
1000
0010
0100
0010
0100
0001
0100
,  // measure 57
0010
0100
0010
1000
0020
0000
0130
1000
,  // measure 58
0010
0100
0010
1000
0001
0010
0001
0100
,  // measure 59
1000
0010
1000
0100
0000
0000
0100
0001
,  // measure 60
0010
0100
0010
0001
1000
0001
0010
1000
,  // measure 61
0010
0001
0001
0100
0010
0000
0100
1000
,  // measure 62
0010
0100
0010
0001
0010
1000
0100
0010
,  // measure 63
0001
0000
0100
0000
0010
0000
0100
0000
1000
0000
0001
0000
0010
1000
0001
0010
,  // measure 64
0100
0010
0001
0001
0010
1000
0001
0001
,  // measure 65
0100
0010
0100
1000
0110
0000
1001
0000
,  // measure 66
0010
0100
0100
1000
1000
0010
0100
0010
,  // measure 67
0001
0001
0010
1000
0110
0000
1100
1000
,  // measure 68
0010
0100
0010
1000
0001
0001
0100
0010
,  // measure 69
0010
1000
1000
0100
0101
0000
1010
0000
,  // measure 70
0001
1000
0010
0010
0100
0001
0100
1000
,  // measure 71
1000
0100
0001
0010
0110
0000
1001
0001
,  // measure 72
0011
1000
0100
0100
0010
0001
0001
0100
,  // measure 73
0100
1000
0010
1000
0110
0000
0011
0000
,  // measure 74
0001
0100
0010
1000
1000
0010
0100
0100
,  // measure 75
0001
0010
1001
0001
0010
0001
1001
1000
,  // measure 76
0010
0100
0100
1000
1000
0010
0100
0001
,  // measure 77
0001
1000
0100
0010
0011
0000
1001
0000
,  // measure 78
0100
0010
0001
1000
0010
0100
0010
1000
,  // measure 79
0010
0010
1001
0000
0100
0100
1001
0000
,  // measure 80
0001
0001
1200
0000
0300
1000
0001
0100
,  // measure 81
0001
0001
0120
0000
0030
0001
0010
0100
,  // measure 82
0001
0001
2010
0000
3000
0010
0001
1000
,  // measure 83
0001
0000
0001
0000
0010
0000
0010
0000
0100
0001
1000
0010
0100
0001
1000
0010
,  // measure 84
0100
0010
0201
0000
0300
0001
0010
0100
,  // measure 85
0010
0010
2100
0000
3000
0010
1000
0100
,  // measure 86
0010
0010
1002
0000
0003
1000
0010
0001
,  // measure 87
0010
0000
0010
0000
1000
0000
1000
0000
0100
0010
0001
1000
0100
0010
0001
0010
,  // measure 88
0100
0000
0000
0000
;
