#VERSION:0.83;
#TITLE:Boom Boom Boom Boom!;
#SUBTITLE:Eurobeat Mix;
#ARTIST:Vengaboys;
#TITLETRANSLIT:;
#SUBTITLETRANSLIT:;
#ARTISTTRANSLIT:;
#GENRE:;
#ORIGIN:;
#CREDIT:;
#BANNER:BBBBEM.png;
#BACKGROUND:BBBBEM bg.png;
#PREVIEWVID:;
#JACKET:;
#CDIMAGE:;
#DISCIMAGE:;
#LYRICSPATH:;
#CDTITLE:Magna Trick title!.png;
#MUSIC:BBBBEM.ogg;
#OFFSET:-0.044047;
#SAMPLESTART:39.334000;
#SAMPLELENGTH:12.459000;
#SELECTABLE:YES;
#BPMS:0.000=154.000,
37.000=77.000,
38.000=154.000,
155.000=308.000,
160.500=154.000,
191.000=1232.000,
199.000=154.000,
200.500=77.000,
216.000=154.000,
241.000=308.000,
246.000=154.000;
#STOPS:100.000=0.195,
100.500=0.195,
101.000=0.195,
101.500=0.195,
130.000=0.195,
130.500=0.195,
131.000=0.195,
131.500=0.195,
155.000=0.390,
157.000=0.390,
159.000=0.292,
199.000=0.195,
199.500=0.195,
200.000=0.195,
241.000=0.390,
243.000=0.390,
245.000=0.195;
#DELAYS:;
#WARPS:;
#TIMESIGNATURES:0.000=4=4;
#TICKCOUNTS:0.000=4;
#COMBOS:0.000=1;
#SPEEDS:0.000=1.000=0.000=0;
#SCROLLS:0.000=1.000;
#FAKES:;
#LABELS:0.000=Song Start;
#BGCHANGES:;
#KEYSOUNDS:;
#ATTACKS:
;

//---------------dance-single - Magna Trick----------------
#NOTEDATA:;
#CHARTNAME:Magna Trick;
#STEPSTYPE:dance-single;
#DESCRIPTION:Magna Trick;
#CHARTSTYLE:;
#DIFFICULTY:Beginner;
#METER:3;
#RADARVALUES:0.193651,0.345255,0.078356,0.125369,0.007836,173.000000,163.000000,10.000000,16.000000,0.000000,0.000000,0.000000,0.000000,0.000000,0.193651,0.345255,0.078356,0.125369,0.007836,173.000000,163.000000,10.000000,16.000000,0.000000,0.000000,0.000000,0.000000,0.000000;
#CREDIT:Magna Trick;
#NOTES:
0000
0000
0000
0000
,
0000
0000
0000
0000
,
1000
0000
0000
0000
,
0001
0000
0000
0000
,
0010
0000
0000
0000
,
0001
0000
0000
0000
,
1000
0000
0000
0000
,
0010
0000
0000
0000
,
1000
0000
0000
0000
,
0001
0000
0000
0001
0000
0000
0000
0000
1000
0000
0000
0000
0001
0000
0000
0000
,
0000
1000
0000
0001
,
0001
0000
0000
0000
,
1000
0000
0001
0000
,
0100
0100
0000
0000
,
0010
0000
1000
0000
,
0010
0000
0000
0000
,
1000
0000
0100
0000
,
0000
0000
0000
0010
,
0000
0010
0000
0001
,
0001
0001
0000
0100
,
0000
0000
0100
0000
0000
0000
0000
0020
,
0000
0000
0000
0000
0000
0030
1000
0000
,
0000
1000
0000
0010
,
0010
0010
0000
0100
,
0000
0100
0000
0110
,
0010
0010
0010
0010
0000
0000
0100
0000
,
0100
1000
0000
0001
,
0000
1000
0000
0001
,
0000
0001
1000
1000
,
1000
1000
0000
0001
,
0000
1000
0000
0100
,
0000
0010
0000
0010
,
0001
0000
0010
0000
0001
0001
0001
0001
,
0000
1000
0000
0001
,
0000
0100
0000
0010
,
0000
0100
0000
0100
,
0001
0001
0001
0001
,
0000
0010
0000
0100
,
0000
1000
0000
1100
,
0000
0101
0000
1100
,
0000
0000
0001
2000
,
3000
0001
0000
2000
,
3000
0001
0000
2000
,
3000
0001
0000
2000
,
3000
0001
0000
2000
,
3000
1001
0000
0002
,
0000
0000
0000
0000
0000
0000
0000
0000
0000
0000
0000
0000
0000
0000
0000
0000
0000
0000
0000
0000
0000
0000
0000
0000
0000
0000
0000
0000
0000
0000
0000
0000
0000
0000
0000
0000
0000
0000
0000
0000
0000
0000
0000
0000
0000
0000
0000
0000
0000
0000
0000
0000
0000
0000
0000
0000
0000
0000
0000
0000
0000
0000
0000
0000
0000
0000
0000
0000
0000
0000
0000
0000
0000
0003
0000
0000
0000
0000
0000
0000
0000
0000
0000
0000
0000
0000
0000
0000
0000
0000
0000
0000
0000
0000
0000
0000
,
0000
0100
0110
0020
,
0000
0000
0000
0000
,
0000
0000
0000
0000
0000
0000
1030
1000
,
1000
1000
0000
0010
0000
0100
0000
0010
,
0000
0100
0000
1000
0000
0001
0100
0100
,
0100
0100
0000
0010
0000
0100
0000
0010
,
0000
0100
0000
0001
1000
0100
0010
0010
,
0010
0010
0000
0001
,
1000
0001
0000
1000
,
0000
0010
0000
0100
,
0000
1000
0001
0001
,
0001
0001
0000
0010
,
0000
0100
0000
1000
,
0000
0202
0303
2200
,
3300
0000
0202
0303
2002
0000
3003
0000
,
0000
0001
0000
1000
,
0000
0010
0000
1000
,
0000
0100
0000
0010
,
0000
0001
0000
1000
,
0000
0001
0000
1000
,
0000
0010
0000
0100
,
0000
0001
0000
0001
,
0000
1000
0000
1000
,
0000
0001
0000
0010
,
0000
0100
0000
1000
,
0000
0001
0000
0100
,
0000
0000
0000
0000
0010
0000
0000
0010
0000
0000
0000
0000
0000
0000
0000
0000
;

//---------------dance-single - Magna Trick----------------
#NOTEDATA:;
#CHARTNAME:Magna Trick;
#STEPSTYPE:dance-single;
#DESCRIPTION:Magna Trick;
#CHARTSTYLE:;
#DIFFICULTY:Easy;
#METER:7;
#RADARVALUES:0.261932,0.460340,0.148876,0.195889,0.078356,234.000000,215.000000,19.000000,25.000000,0.000000,0.000000,0.000000,0.000000,0.000000,0.261932,0.460340,0.148876,0.195889,0.078356,234.000000,215.000000,19.000000,25.000000,0.000000,0.000000,0.000000,0.000000,0.000000;
#CREDIT:Magna Trick;
#NOTES:
0000
0000
0000
0000
,
0000
0000
0000
0000
,
0001
0000
0000
1000
0000
0000
0000
0000
0000
0000
0000
0000
0000
0000
0000
0000
,
0100
0000
0000
0010
0000
0000
0000
0000
0000
0000
0000
0000
0000
0000
0000
0000
,
0001
0000
0000
1000
0000
0000
0000
0000
0000
0000
0000
0000
0000
0000
0000
0000
,
0010
0000
0000
0100
0000
0000
0000
0000
0000
0000
0000
0000
0000
0000
0000
0000
,
0001
0000
0000
1000
0000
0000
0000
0000
0000
0000
0000
0000
0000
0000
0000
0000
,
0100
0000
0000
0010
0000
0000
0000
0000
0000
0000
0000
0000
0000
0000
0000
0000
,
0001
0000
0000
1000
0000
0000
0000
0000
0000
0000
0000
0000
0000
0000
0000
0000
,
0010
0000
0000
0010
0000
0000
0000
0000
1001
0000
0000
0000
0000
0000
0000
0000
,
0001
0000
1000
1000
,
0001
0000
0200
0000
0000
0300
0000
0000
,
0010
1000
0001
0001
,
1000
1000
0100
0000
,
0010
0000
0001
0001
,
0010
0200
0000
0300
,
1000
0001
1000
0000
,
0020
0000
0000
0030
1001
0000
0100
0000
,
0000
0100
0000
0010
,
1000
0001
0100
0010
,
0000
0010
0000
0001
,
1000
0100
0000
0010
,
0000
0010
0000
0001
,
0010
1000
0100
0010
,
0000
0010
0000
0001
,
1000
1000
1000
1001
0000
0000
0010
0000
,
1000
0010
0000
0100
,
0001
1000
0000
0100
,
1000
0001
0010
0010
,
0010
0110
0000
0001
,
0100
0010
0000
1000
,
0100
0010
0000
0001
,
1000
0000
0001
0000
0100
0100
0100
0110
,
0000
0001
0010
1000
,
0000
1000
0010
0001
,
0000
0100
0010
1000
,
0001
0001
0001
1001
,
0000
1000
0100
0010
,
0000
0001
0100
2020
,
0000
3030
0202
0000
0000
0303
2002
0000
,
0000
3003
0000
0020
,
0030
0000
0001
0001
0001
0000
0020
0000
,
0030
0000
0001
0001
0001
0000
0020
0000
,
0030
0000
0001
0001
0001
0000
0020
0000
,
0030
0000
0001
0001
0001
0000
0020
0000
,
0030
0000
0011
0001
0001
0000
0020
0000
,
0230
2300
3002
0013
,
0001
0100
0110
2000
,
0000
0000
0000
0000
,
0000
0000
0000
0000
0000
0000
3001
0001
,
0001
1001
0000
1000
0010
1000
0000
0001
,
0100
0010
0000
1000
0001
1000
0100
0100
,
0100
0110
0000
0010
0001
1000
0000
0100
,
0010
1000
0000
0001
0100
0010
1000
1000
,
1000
1001
0000
1000
,
0100
0010
0000
0001
,
0100
0010
0000
0010
,
1000
0001
1000
1000
,
1000
1001
0000
0100
,
0010
0001
0000
0001
,
0010
0220
0330
2200
,
3300
0000
0202
0303
1001
0000
0000
0000
,
0000
0000
0000
0000
1000
0000
0000
0010
0000
0000
0000
0000
0000
0000
0000
0000
,
0000
0000
0000
0000
0100
0000
0000
0001
0000
0000
0000
0000
0000
0000
0000
0000
,
0000
0000
0000
0000
0001
0000
0000
0010
0000
0000
0000
0000
0000
0000
0000
0000
,
0000
0000
0000
0000
0100
0000
0000
1000
0000
0000
0000
0000
0000
0000
0000
0000
,
0000
0000
0000
0000
1000
0000
0000
0001
0000
0000
0000
0000
0000
0000
0000
0000
,
0000
0000
0000
0000
0100
0000
0000
0010
0000
0000
0000
0000
0000
0000
0000
0000
,
0000
0000
0000
0000
1000
0000
0000
0010
0000
0000
0000
0000
0000
0000
0000
0000
,
0000
0000
0000
0000
0001
0000
0000
0010
0000
0000
0000
0000
0000
0000
0000
0000
,
0000
0000
0000
0000
0100
0000
0000
0010
0000
0000
0000
0000
0000
0000
0000
0000
,
0000
0000
0000
0000
0001
0000
0000
0100
0000
0000
0000
0000
0000
0000
0000
0000
,
0000
0000
0000
0000
1000
0000
0000
0010
0000
0000
0000
0000
0000
0000
0000
0000
,
0000
0000
0000
0000
0001
0000
0000
1000
0000
0000
0000
0000
0000
0000
0000
0000
;

//---------------dance-single - Magna Trick----------------
#NOTEDATA:;
#CHARTNAME:Magna Trick;
#STEPSTYPE:dance-single;
#DESCRIPTION:Magna Trick;
#CHARTSTYLE:;
#DIFFICULTY:Medium;
#METER:12;
#RADARVALUES:0.528342,0.719282,0.493641,0.289916,0.097945,472.000000,409.000000,63.000000,37.000000,0.000000,1.000000,0.000000,0.000000,0.000000,0.528342,0.719282,0.493641,0.289916,0.097945,472.000000,409.000000,63.000000,37.000000,0.000000,1.000000,0.000000,0.000000,0.000000;
#CREDIT:Magna Trick;
#NOTES:
0000
0000
0000
0000
,
1010
0000
0000
1000
1000
0001
0001
1000
,
0001
0000
0000
1000
0000
0000
0010
0000
0010
0000
0100
0000
0100
0000
0010
0000
,
0100
0000
0000
0010
0000
0000
1000
0000
1000
0000
0100
0000
0100
0000
0010
0000
,
0001
0000
0000
0001
0000
0000
0001
0000
0001
0000
0010
0000
0010
0000
0100
0000
,
1000
0000
0000
1000
0000
0000
0100
0000
0100
0000
0010
0000
0010
0000
0001
0000
,
1000
0000
0000
0100
0000
0000
0010
0000
0010
0000
0001
0000
0001
0000
0100
0000
,
0010
0000
0000
1000
0000
0000
0001
0000
0001
0000
1000
0000
1000
0000
0010
0000
,
0100
0000
0000
0001
0000
0000
1000
0000
0001
0000
1000
0000
0001
0000
0100
0000
,
0010
0000
0000
0110
0000
0000
0000
0000
1001
0000
0000
0000
0000
0000
0010
0000
,
1000
0010
1000
0000
0001
0100
0001
0100
,
0010
0000
2000
0000
3002
0000
0003
0001
,
0010
0001
0010
0000
0001
0100
0001
0000
,
1000
0000
0010
0000
0200
0000
0300
1000
,
0100
1000
0100
0000
0001
0010
0001
0010
,
0001
0000
0200
0000
0320
0000
0030
1000
,
0001
1000
0001
0100
0010
1000
0000
0000
,
0002
0000
0000
0003
1000
0000
0210
0000
,
0301
0000
0210
0000
1300
0000
0100
0001
,
0100
0001
0100
0001
0100
0000
2010
0000
,
3100
0000
2010
0000
3001
0000
0000
1000
,
0000
0001
1000
0000
0200
0000
0312
0000
,
1003
0000
0012
0000
0103
0000
0010
1000
,
0010
1000
0010
1000
0001
0000
2001
0000
,
3100
0000
0000
0000
1002
0000
0000
0000
0013
0000
0000
0000
0220
0000
0000
0330
,
1001
1001
1001
1001
0000
0010
1000
0010
,
1000
0010
1000
0000
0000
0001
0100
0001
,
0100
0001
0100
0000
0010
0000
1000
0001
,
1000
0001
1000
0000
0110
0000
0110
0000
,
0110
0000
0110
0000
0001
0000
0010
0001
,
0010
0001
0010
0000
0001
0000
1000
0010
,
1000
0010
1000
0000
0001
0000
0100
0010
,
0100
0001
1000
0000
0101
0101
0101
0101
,
0000
0010
1000
0010
1000
0100
1000
0000
,
0000
0001
0010
0001
0010
0001
0100
0000
,
0010
0000
1000
0001
1000
0001
0010
0000
,
1100
1100
1100
1100
,
0000
0010
0100
0010
0100
0001
1000
0000
,
0000
1000
0100
1000
0100
0010
0202
0000
,
0303
2200
3300
0210
,
0300
0001
1000
0000
0020
0000
2030
0000
,
3000
0000
0100
0100
0100
0000
2000
0000
,
3000
0000
0100
0100
0100
0000
2000
0000
,
3000
0000
0100
0100
0100
0000
2000
0000
,
3000
0000
0100
0100
0100
0000
2000
0000
,
3000
0000
1100
0100
0100
0000
1000
0010
,
1000
0100
1000
0010
0100
0000
2000
0000
,
3000
0000
1100
0100
1100
0000
2002
0000
,
0000
0000
0000
0000
,
0000
0000
0000
0000
3003
0000
0011
0011
,
0011
0000
0011
0000
0000
1000
0010
0000
0100
0000
0101
0000
0000
0001
0010
0000
,
0001
0000
1001
0000
0000
1000
0010
0000
1000
0000
1001
0000
0110
0000
0110
0000
,
0110
0000
0110
0000
0000
0001
0100
0000
0010
0000
1010
0000
0000
1000
0100
0000
,
0010
0011
0000
1001
0010
0110
1001
1001
,
1001
0000
1001
0000
0000
0001
0100
0001
,
0100
0001
0100
0000
0010
0000
1000
0100
,
1000
0100
1000
0000
0010
0000
0100
0001
,
1000
0010
0100
0000
0011
0000
0011
0000
,
0011
0000
0011
0000
1000
0000
0100
0010
,
0001
1000
0010
0000
0100
0000
0001
0100
,
0001
0100
0202
0000
0303
0000
2020
0000
,
3030
0000
0202
0303
1001
0001
0001
1000
,
1000
0000
0001
0000
1000
0000
0000
0001
0000
0000
0100
0000
0100
0000
0010
0000
,
0010
0000
0100
0000
0010
0000
0000
0100
0000
0000
0001
0000
0001
0000
0010
0000
,
0010
0000
0100
0000
1000
0000
0000
1000
0000
0000
1000
0000
1000
0000
0100
0000
,
0100
0000
0010
0000
0001
0000
0000
0001
0000
0000
0010
0000
0010
0000
0100
0000
,
0100
0000
1000
0000
0001
0000
0000
0010
0000
0000
0100
0000
0100
0000
1000
0000
,
1000
0000
0010
0000
0100
0000
0000
0001
0000
0000
1000
0000
1000
0000
0001
0000
,
0001
0000
0100
0000
0010
0000
0000
1000
0000
0000
0001
0000
1000
0000
0001
0000
,
1000
0000
0010
0000
0100
0000
0000
0110
0000
0000
1000
0000
1000
0000
0001
0000
,
0001
0000
1000
0000
0001
0000
0000
1000
0000
0000
0010
0000
0010
0000
0100
0000
,
0100
0000
0010
0000
0100
0000
0000
0010
0000
0000
1000
0000
1000
0000
0100
0000
,
0100
0000
0010
0000
0001
0000
0000
0001
0000
0000
0001
0000
0001
0000
0010
0000
,
0010
0000
0100
0000
1000
0000
0000
1000
0000
0000
0000
0000
0000
0000
0000
0000
;

//---------------dance-single - Magna Trick----------------
#NOTEDATA:;
#CHARTNAME:Magna Trick;
#STEPSTYPE:dance-single;
#DESCRIPTION:Magna Trick;
#CHARTSTYLE:;
#DIFFICULTY:Hard;
#METER:15;
#RADARVALUES:0.653711,0.949452,0.423121,0.242903,0.427039,584.000000,530.000000,54.000000,31.000000,0.000000,1.000000,0.000000,0.000000,0.000000,0.653711,0.949452,0.423121,0.242903,0.427039,584.000000,530.000000,54.000000,31.000000,0.000000,1.000000,0.000000,0.000000,0.000000;
#CREDIT:Magna Trick;
#NOTES:
0000
0000
0000
0000
,
0101
0000
0000
0001
0001
1000
1000
0001
,
1000
0000
0000
0001
0000
0000
0100
0010
0100
0000
0010
0000
0010
0000
0100
0000
,
0010
0000
0000
0100
0000
0000
0001
1000
0001
0000
0010
0000
0010
0000
0100
0000
,
1000
0000
0000
1000
0000
0000
1000
0100
1000
0000
0100
0000
0100
0000
0010
0000
,
0001
0000
0000
0001
0000
0000
0010
0100
0010
0000
0100
0000
0100
0000
1000
0000
,
0001
0000
0000
0010
0000
0000
0100
1000
0100
0000
1000
0000
1000
0000
0010
0000
,
0100
0000
0000
0001
0000
0000
1000
0100
1000
0000
0001
0000
0001
0000
0100
0000
,
0010
0000
0000
1000
0000
0000
0001
1000
0001
0000
1000
0001
1000
0000
0010
0100
,
0001
0000
0000
0000
0000
0000
0110
0000
0000
0000
0001
1000
0100
0010
0001
0100
0010
0000
0000
0000
0000
0000
0000
0000
0010
0000
0000
0000
0100
0000
0000
0000
,
0001
0000
0100
0001
1000
0000
0100
0000
1000
0000
0010
0100
0001
0000
0010
0000
,
0100
0000
1000
0000
0100
0010
0001
1000
0100
0010
0001
0000
0000
0000
1000
0000
,
0100
0000
1000
0010
0100
0000
0001
0000
1000
0000
0010
0100
0001
0000
0010
0000
,
0100
0000
1000
0001
0010
0000
0100
0000
0020
0000
0000
0000
0030
0000
0001
0000
,
0010
0000
0001
0010
0100
0000
1000
0000
0001
0000
0100
0000
1000
0000
0100
0000
,
0001
0000
1000
0000
0010
0100
0001
1000
0010
0100
0001
0000
0000
0000
1000
0000
,
1000
0000
0001
0100
1000
0000
0001
0000
0010
0000
1000
0000
0000
0000
0100
0000
,
1000
0010
0100
0001
1000
0100
0010
0001
0100
0000
0000
0000
0020
0000
0000
0000
,
1030
0000
0001
1000
0020
0000
0000
0000
1030
0000
0001
0000
0010
0000
1000
0000
,
0010
0000
0001
0100
0010
0000
1000
0000
0001
0000
0000
0000
0200
0000
0000
0000
,
0310
1000
0200
0000
0310
0001
0000
0001
,
0100
0000
1000
0000
0010
0000
0000
0000
0002
0000
0013
0100
2000
0000
0000
0000
,
3001
0010
2000
0000
3010
0001
0100
1000
,
0100
0000
0010
1000
0100
0000
0001
0000
0200
0000
0000
0000
2300
0000
0000
0000
,
3010
0000
0100
0000
0001
0010
0100
0000
1000
0000
0001
1000
0220
0000
0000
0330
,
1001
0000
1001
0000
1001
0000
1001
0000
0000
0000
0100
0001
1000
0000
0100
0000
,
0001
0000
0100
0000
0010
0000
0000
0001
1000
0000
0100
0000
0010
0000
1000
0000
,
0010
0000
0001
0000
0010
0000
0000
0100
0000
0000
1000
0000
0010
0000
1000
0000
,
0100
1000
0001
0000
0110
0000
0110
0000
,
0110
0000
0000
0000
0110
0000
0000
0000
1000
0000
0010
1000
0100
0000
1000
0000
,
0001
0000
0010
0000
0100
0000
0000
1000
0001
0000
0100
0000
0001
0000
0010
0000
,
0100
0000
0010
0000
0001
0000
0000
0001
0000
0000
0100
0010
1000
0000
0100
0000
,
0010
0001
0100
0000
1010
1010
1010
1010
,
0000
0000
0100
0010
1000
0000
0100
0000
0001
0000
0010
0000
0001
0000
0000
0001
,
1000
0000
0010
0000
0100
0000
0001
0000
0100
0000
1000
0000
0010
0000
0000
0100
,
0000
0000
1000
0100
0001
0000
0010
0000
0001
0000
1000
0000
0100
0000
0000
0000
,
0011
0011
0011
0011
,
0000
0000
0100
0001
0010
0000
0100
0000
0010
0000
0001
0000
0100
0000
0000
0100
,
0001
0001
0010
0001
0010
0100
2020
0000
,
3030
0022
0033
0120
,
0030
0000
1000
0001
1000
0000
0010
0000
0200
0000
0000
0000
0302
0000
0000
0000
,
0003
0000
0010
0010
0010
0000
0002
0000
,
0003
0000
0010
0010
0010
0000
0002
0000
,
0003
0000
0010
0010
0010
0000
0002
0000
,
0003
0000
0010
0010
0010
0000
0002
0000
,
0003
0000
0011
0010
0010
0000
0001
0100
,
0001
0010
0001
0100
0010
0000
0002
0000
,
0003
0000
0011
0010
0011
0000
2002
0000
,
0000
0000
0000
0000
,
0000
0000
0000
0000
3003
0000
1100
1100
,
1100
0000
1100
0000
0000
0001
0100
0010
0100
0001
1010
0000
0000
1000
0100
1000
,
0010
0000
0100
0000
1001
0000
0000
1000
0000
0000
0001
0000
0100
0000
0010
0000
1000
0000
0100
0000
1001
0000
0000
0000
0110
0000
0000
0000
0110
0000
0000
0000
,
0110
0000
0110
0000
0000
1000
0010
0001
0100
0010
0101
0000
0000
0001
0010
1000
,
0100
0000
0010
0000
1100
0000
0000
0010
0000
0000
0001
0000
1001
0000
1000
0000
0100
0000
0010
0000
0110
0000
0000
0000
1001
0000
0000
0000
1001
0000
0000
0000
,
1001
0000
0000
0000
1001
0000
0000
0000
0000
0000
0010
0100
0001
0000
0010
0000
,
1000
0000
0100
0000
1000
0000
0000
1000
0001
0000
0100
0000
0010
0000
1000
0000
,
0010
0000
0001
0000
0100
0000
0000
0010
0000
0000
0001
0010
1000
0000
0100
0000
,
1000
0001
0010
0000
1100
0000
1100
0000
,
1100
0000
0000
0000
1100
0000
0000
0000
0000
0000
0010
1000
0100
0000
0010
0000
,
0100
0000
1000
0000
0010
0000
0000
0010
1000
0000
1000
0000
0100
0000
1000
0000
,
0100
0010
0202
0000
0303
0000
2200
0000
,
3300
0000
0210
0000
1301
1000
1000
0001
,
0001
0000
1000
0000
0001
0000
0000
1000
0000
0000
0010
0100
0010
0000
0100
0000
,
0100
0000
0010
0000
0100
0000
0000
0010
0000
0000
1000
0001
1000
0000
0100
0000
,
0100
0000
0010
0000
0001
0000
0000
0001
0000
0000
0001
0010
0001
0000
0010
0000
,
0010
0000
0100
0000
1000
0000
0000
1000
0000
0000
0100
0010
0100
0000
0010
0000
,
0010
0000
0001
0000
1000
0000
0000
0100
0000
0000
0010
0001
0010
0000
0001
0000
,
0001
0000
0100
0000
0010
0000
0000
1000
0000
0000
0001
0010
0001
0000
1000
0000
,
1000
0000
0010
0000
0100
0000
0000
0001
0000
0000
1000
0001
1000
0000
0001
1000
,
0001
0000
0100
0010
1000
0000
0000
0110
0000
0000
0001
0000
0001
0000
1000
0000
,
1000
0000
0001
0000
1000
0000
0000
0001
0000
0000
0100
0010
0100
0000
0010
0000
,
0010
0000
0100
0000
0010
0000
0000
0100
0000
0000
0001
1000
0001
0000
0010
0000
,
0010
0000
0100
0000
1000
0000
0000
1000
0000
0000
1000
0100
1000
0000
0100
0000
,
0100
0000
0010
0000
0001
0000
0000
0001
0000
0000
0000
0000
0000
0000
0000
0000
;
