#TITLE:Bang;
#SUBTITLE:;
#ARTIST:Rene de la Vega;
#TITLETRANSLIT:;
#SUBTITLETRANSLIT:;
#ARTISTTRANSLIT:;
#CREDIT:;
#BANNER:Bang-bn.png;
#BACKGROUND:Bang-bg.png;
#LYRICSPATH:;
#CDTITLE:cd.png;
#MUSIC:Bang.mp3;
#OFFSET:-5.780;
#SAMPLESTART:52.290;
#SAMPLELENGTH:12.000;
#SELECTABLE:YES;
#BPMS:0.000=164.980;
#STOPS:;
#BGCHANGES:;

//---------------dance-single - ----------------
#NOTES:
     dance-single:
     :
     Hard:
     8:
     0.613,0.648,0.539,0.199,0.000: // measure 1
1000
0010
0100
0001
,  // measure 2
1000
0001
1000
0100
,  // measure 3
1000
0010
0100
0010
,  // measure 4
1000
0010
1000
0000
0001
0100
0001
0000
,  // measure 5
0100
1000
0001
0000
1000
0010
0100
0000
,  // measure 6
0001
1000
0010
0000
0100
0001
0010
0000
,  // measure 7
0100
1000
0100
0000
1000
0100
0010
0000
,  // measure 8
0001
1000
0010
0000
1000
0001
0100
0010
,  // measure 9
1001
0000
0010
1000
0010
0000
0100
0001
,  // measure 10
0100
0000
0010
1000
0001
0000
0010
0001
,  // measure 11
0010
0000
0100
1000
0100
0000
1000
0000
,  // measure 12
0001
1000
0010
0000
0100
0001
1000
0010
,  // measure 13
0100
0000
0010
1000
1001
0000
0010
0100
,  // measure 14
1001
0000
0100
0010
0011
0000
0100
1000
,  // measure 15
1100
0000
0001
1000
1010
0000
0001
1000
,  // measure 16
0010
0100
0000
0101
0000
1010
0000
0001
,  // measure 17
2000
0001
0010
3001
,  // measure 18
0002
1000
0100
1003
,  // measure 19
0010
1000
0010
0000
0100
0001
0100
0000
,  // measure 20
0010
1000
0001
0100
0010
1000
0001
1000
,  // measure 21
0010
1000
0001
0000
0100
0010
1000
0000
,  // measure 22
0001
0010
0100
0000
1000
0010
0100
0000
,  // measure 23
2002
0000
3003
0220
0000
0330
2002
0000
,  // measure 24
3003
0110
0000
1001
0000
0110
0000
0010
,  // measure 25
0200
0010
0010
0310
,  // measure 26
2000
0001
0001
3001
,  // measure 27
1000
0001
1000
0000
0010
0100
0010
0000
,  // measure 28
0011
0000
1100
0000
0001
1000
0010
0100
,  // measure 29
0001
1000
0010
0100
0001
1000
0100
0010
,  // measure 30
0001
1000
0010
0100
0001
1000
0010
0000
,  // measure 31
0220
0000
0330
2002
0000
3003
0022
0000
,  // measure 32
0033
1100
0000
1100
0000
1001
0000
0010
,  // measure 33
0110
0000
0110
0000
0110
0000
0010
0100
,  // measure 34
0001
1000
0010
0100
0001
1000
0100
1000
,  // measure 35
0011
0011
1100
1100
,  // measure 36
1000
0001
0100
0010
1000
0001
0100
0000
,  // measure 37
1001
0000
1001
0000
1001
0000
0001
1000
,  // measure 38
0010
0100
0001
1000
0010
0010
0010
0000
,  // measure 39
1000
0001
0100
0010
1000
0001
0010
0100
,  // measure 40
0000
1000
0000
0001
0001
1000
0001
0000
,  // measure 41
1001
0000
0110
0000
1001
0000
0010
1000
,  // measure 42
0001
0100
0010
1000
0001
0001
1000
1000
,  // measure 43
0001
1000
0010
0100
0001
1000
0100
0010
,  // measure 44
0001
1000
0010
0100
0010
0100
0010
0000
,  // measure 45
0110
0000
1001
0000
0110
0000
0010
1000
,  // measure 46
0001
0100
0010
1000
0001
0001
0010
0010
,  // measure 47
0100
1000
0001
1000
0010
0100
0001
1000
,  // measure 48
0000
0010
0000
0010
0010
0010
0010
0000
,  // measure 49
1001
0000
0110
0000
1001
0000
0001
1000
,  // measure 50
0001
1000
0010
0100
0001
0100
0010
0000
,  // measure 51
1000
0001
1000
1001
,  // measure 52
0010
0100
0001
1000
0100
0010
0001
0000
,  // measure 53
0011
0000
1100
0000
0011
0000
0100
1000
,  // measure 54
0010
0100
0001
1000
0100
0010
0001
0000
,  // measure 55
2000
3010
0200
0301
,  // measure 56
1000
0010
0000
0010
0000
0010
0000
0010
,  // measure 57
1001
0000
0110
0000
1001
0000
0010
1000
,  // measure 58
0001
0100
0010
1000
0001
0001
1000
1000
,  // measure 59
1001
0000
0110
0000
1001
0000
0010
0100
,  // measure 60
0001
1000
0010
0100
0001
0100
0100
0000
,  // measure 61
0110
0000
0110
0000
0110
0000
0010
0100
,  // measure 62
0001
0010
0100
0010
0001
0001
1000
1000
,  // measure 63
0001
0000
0010
0000
0100
1000
0001
1000
,  // measure 64
0010
0100
0001
1000
0010
0100
0010
0000
,  // measure 65
1001
0000
0110
0000
2001
0000
3002
2000
,  // measure 66
0000
3003
0000
0000
;

//---------------dance-single - ----------------
#NOTES:
     dance-single:
     :
     Easy:
     4:
     0.330,0.339,0.218,0.114,0.000: // measure 1
1000
0000
0000
0000
,  // measure 2
0001
0000
0000
0000
,  // measure 3
1000
1000
1000
0000
,  // measure 4
0001
0001
0001
0000
,  // measure 5
1000
0001
1000
0000
,  // measure 6
0010
0100
0010
0000
,  // measure 7
0100
0001
0100
0000
,  // measure 8
1000
0001
1000
0000
,  // measure 9
0001
0001
0001
0000
,  // measure 10
1000
1000
1000
0000
,  // measure 11
0001
0001
0001
0000
,  // measure 12
0100
0100
0100
0000
,  // measure 13
0010
0010
0010
0000
,  // measure 14
0100
0100
0100
0000
,  // measure 15
0001
0001
0001
0000
,  // measure 16
1000
1000
1000
0000
,  // measure 17
0002
1000
0100
1003
,  // measure 18
2000
0010
0001
3010
,  // measure 19
0100
0100
0010
0010
,  // measure 20
0100
0100
0010
0010
,  // measure 21
2000
0000
3002
0000
,  // measure 22
0203
0000
0310
0000
,  // measure 23
1001
0000
0000
0000
,  // measure 24
0100
0000
0100
0000
,  // measure 25
0010
0010
0010
0000
,  // measure 26
0100
0100
0100
0000
,  // measure 27
0001
1000
0010
0100
,  // measure 28
1001
0000
0001
0001
,  // measure 29
1000
1000
0001
0001
,  // measure 30
0100
0100
0010
0010
,  // measure 31
1001
0000
0100
0000
,  // measure 32
0010
0000
0001
0000
,  // measure 33
1000
1000
2000
3000
,  // measure 34
0001
0001
1000
1000
,  // measure 35
0001
0100
0010
1000
,  // measure 36
0001
0010
0100
1001
,  // measure 37
0001
0001
0002
0003
,  // measure 38
1000
1000
0001
1000
,  // measure 39
0010
0100
0010
0100
,  // measure 40
0010
0000
1001
0110
,  // measure 41
0002
1000
1003
1000
,  // measure 42
0001
0100
0010
0100
,  // measure 43
0020
0100
0100
0130
,  // measure 44
0200
0010
0010
0310
,  // measure 45
2000
0001
3001
1000
,  // measure 46
0001
1000
0001
0100
,  // measure 47
0010
0010
0100
0010
,  // measure 48
0100
0000
0010
0010
,  // measure 49
1001
0110
1001
0000
,  // measure 50
0001
0001
0001
0000
,  // measure 51
0110
1001
0110
0000
,  // measure 52
1000
1000
1000
0000
,  // measure 53
0101
1010
0101
0000
,  // measure 54
0100
0100
0100
0000
,  // measure 55
1010
0101
1010
0000
,  // measure 56
0001
0001
0001
0000
,  // measure 57
1000
0001
1001
0000
,  // measure 58
0001
0001
1000
0001
,  // measure 59
1001
0001
0001
0001
,  // measure 60
1001
1000
1000
1000
,  // measure 61
0010
0100
0110
0000
,  // measure 62
0100
0010
0100
0010
,  // measure 63
1000
0001
1000
0001
,  // measure 64
1001
0000
0001
1000
,  // measure 65
0001
1000
0001
2000
,  // measure 66
0000
3000
0000
0000
;

//---------------dance-single - ----------------
#NOTES:
     dance-single:
     :
     Medium:
     5:
     0.338,0.339,0.142,0.104,0.000: // measure 1
1000
0000
0001
0000
,  // measure 2
1000
0001
1000
0000
,  // measure 3
0010
0000
0100
0000
,  // measure 4
0010
0100
0010
0000
,  // measure 5
1000
1000
1000
0000
,  // measure 6
0001
0001
0001
0000
,  // measure 7
1000
1000
0001
0001
,  // measure 8
1000
0000
0001
1000
,  // measure 9
0001
0000
1000
0001
,  // measure 10
1000
0000
0010
0100
,  // measure 11
0010
0000
1000
0001
,  // measure 12
0010
0000
0100
1000
,  // measure 13
1001
0000
0001
0100
,  // measure 14
1001
0000
0010
0100
,  // measure 15
1001
0000
0001
1000
,  // measure 16
1001
0000
1001
0000
,  // measure 17
2000
0000
0000
0000
,  // measure 18
0000
0001
0001
0001
,  // measure 19
3002
0000
0000
0000
0000
0000
0000
0003
,  // measure 20
2000
0000
3020
0000
,  // measure 21
0230
0000
0320
0000
,  // measure 22
0230
0000
0301
0000
,  // measure 23
1001
0000
0000
0110
0000
0000
1001
0000
,  // measure 24
0000
0001
0000
0001
0000
0001
0000
1000
,  // measure 25
0001
1000
0010
1000
,  // measure 26
0001
0100
0010
1000
,  // measure 27
0001
1000
0010
0000
0100
0000
0001
0000
,  // measure 28
1001
0000
0001
0001
,  // measure 29
1000
1000
0001
0001
,  // measure 30
0100
0010
0100
0010
,  // measure 31
0110
0000
0000
1001
0000
0000
0010
0000
,  // measure 32
0000
0100
0000
0100
0000
0100
0000
0100
,  // measure 33
0010
0000
0010
0000
0010
0000
0100
0010
,  // measure 34
0000
0100
0000
0000
0100
0000
0100
0000
,  // measure 35
0001
0000
1000
0000
0010
0000
1000
0001
,  // measure 36
0000
1000
0000
0001
1000
0000
0010
0000
,  // measure 37
0100
0000
0100
0000
0100
0000
0001
1000
,  // measure 38
0000
0001
0000
0000
1000
0000
0001
0000
,  // measure 39
1000
1000
0001
0001
,  // measure 40
2000
0000
3000
0000
0001
0001
0001
0000
,  // measure 41
1000
0001
1001
0000
,  // measure 42
0001
0001
1000
1000
,  // measure 43
0010
0000
0100
0000
0010
0000
0100
0010
,  // measure 44
0000
0010
0000
0100
0010
0100
0010
0000
,  // measure 45
1000
1000
1001
0000
,  // measure 46
0001
0001
1000
0001
,  // measure 47
1000
0000
0010
0000
0100
0010
0100
0010
,  // measure 48
0000
0010
0000
0100
0010
0000
0100
0000
,  // measure 49
0001
1000
0001
0000
,  // measure 50
1000
0001
1000
0000
,  // measure 51
0010
0010
0010
0000
,  // measure 52
0100
0100
0100
0000
,  // measure 53
0010
0010
1001
0000
,  // measure 54
0100
0100
1001
0000
,  // measure 55
0001
0001
0001
0000
,  // measure 56
1000
0010
1000
0000
,  // measure 57
0100
0000
0100
0000
0100
0000
0010
0100
,  // measure 58
0000
0010
0000
0000
0010
0000
0010
0000
,  // measure 59
1000
0000
0001
0000
0100
0000
0001
1000
,  // measure 60
0000
0001
0000
1000
0001
0000
0100
0000
,  // measure 61
0010
0000
0010
0000
0010
0000
1000
0001
,  // measure 62
0000
1000
0000
0000
0001
0000
1000
0000
,  // measure 63
0001
0001
1000
1000
,  // measure 64
0002
0000
0003
0000
1000
1000
1000
0000
,  // measure 65
0001
0000
1000
0000
0001
0000
2000
0002
,  // measure 66
0000
3003
0000
0000
;
