#TITLE:Bailando Solo;
#SUBTITLE:;
#ARTIST:Los Bunkers;
#TITLETRANSLIT:;
#SUBTITLETRANSLIT:;
#ARTISTTRANSLIT:;
#GENRE:Rock;
#CREDIT:OpenITG3;
#BANNER:Bailando Solo-bn.png;
#BACKGROUND:Bailando Solo-bg.png;
#LYRICSPATH:;
#CDTITLE:;
#MUSIC:Bailando Solo.ogg;
#OFFSET:-0.979976;
#SAMPLESTART:50.379002;
#SAMPLELENGTH:12.000000;
#SELECTABLE:YES;
#BPMS:0.000000=115.993286
;
#STOPS:
;
#BGCHANGES:;
#KEYSOUNDS:;
#ATTACKS:;

//---------------dance-single - ----------------
#NOTES:
     dance-single:
     :
     Beginner:
     2:
     0.151221,0.207730,0.111426,0.031836,0.000000,133.000000,119.000000,14.000000,4.000000,0.000000,0.000000,0.151221,0.207730,0.111426,0.031836,0.000000,133.000000,119.000000,14.000000,4.000000,0.000000,0.000000:
// measure 0
0000
0000
0000
0000
,  // measure 1
0000
0000
0000
0000
,  // measure 2
0000
0000
0000
0000
,  // measure 3
0000
0000
0000
0000
,  // measure 4
1000
0000
1000
0000
,  // measure 5
0001
0000
0001
0000
,  // measure 6
0010
0000
0010
0000
,  // measure 7
0100
0000
0100
0000
,  // measure 8
1001
0000
0100
0000
,  // measure 9
0100
0000
0001
0001
,  // measure 10
0001
0000
1000
0000
,  // measure 11
0100
0000
0010
0000
,  // measure 12
1001
0000
0001
0000
,  // measure 13
0100
0000
1000
1000
,  // measure 14
1000
0000
0010
0000
,  // measure 15
0100
0000
0001
0000
,  // measure 16
0110
0000
1000
0000
,  // measure 17
0100
0000
0010
0010
,  // measure 18
0010
0000
0001
0000
,  // measure 19
0100
0000
1000
0000
,  // measure 20
0110
0000
1000
0000
,  // measure 21
0010
0000
0100
0100
,  // measure 22
0100
0000
0001
0000
,  // measure 23
0001
0000
1000
0000
,  // measure 24
1001
0000
1001
0000
,  // measure 25
0110
0000
0110
0000
,  // measure 26
1000
0000
1000
0000
,  // measure 27
0001
0000
0001
0000
,  // measure 28
0200
0000
0300
0000
,  // measure 29
0020
0000
0030
0000
,  // measure 30
0010
0000
0001
0000
,  // measure 31
0100
0100
0100
0100
,  // measure 32
0100
0000
0010
0000
,  // measure 33
1000
0000
0001
0000
,  // measure 34
0100
0000
0100
0000
,  // measure 35
0010
0000
0100
0000
,  // measure 36
0002
0000
0003
0000
,  // measure 37
2000
0000
3000
0000
,  // measure 38
1000
0000
0001
0000
,  // measure 39
0010
0010
0010
0010
,  // measure 40
0010
0000
1000
0000
,  // measure 41
0100
0000
0010
0000
,  // measure 42
0001
0000
0010
0000
,  // measure 43
0100
0000
1000
0000
,  // measure 44
1001
0000
1000
0000
,  // measure 45
1001
0000
0001
0000
,  // measure 46
0100
0100
0100
0000
,  // measure 47
0001
0001
0001
0000
,  // measure 48
0010
0000
0100
0000
,  // measure 49
1000
1000
1000
0000
,  // measure 50
0100
0000
0010
0000
,  // measure 51
0001
0001
0001
0000
,  // measure 52
1001
0000
1001
0000
,  // measure 53
0110
0000
0110
0000
,  // measure 54
0010
0010
0010
0000
,  // measure 55
1000
1000
1000
0000
,  // measure 56
0001
0000
0001
0000
,  // measure 57
0100
0000
0100
0000
,  // measure 58
0010
0000
0000
0000
;

//---------------dance-single - ----------------
#NOTES:
     dance-single:
     :
     Easy:
     3:
     0.216030,0.300054,0.254688,0.119385,0.000000,190.000000,158.000000,32.000000,15.000000,0.000000,0.000000,0.216030,0.300054,0.254688,0.119385,0.000000,190.000000,158.000000,32.000000,15.000000,0.000000,0.000000:
0000
0000
0000
0000
,
0000
0000
0000
0000
,
0000
0000
0000
0000
,
0000
0000
0000
0000
,
1000
0000
1000
0000
,
0001
0000
0001
1000
,
0010
0000
0010
0000
,
0100
0000
0100
0010
,
1001
0000
0100
0000
,
0100
1000
0001
0010
,
0001
0000
1000
0000
,
0100
0000
0010
0100
,
1001
0000
0001
0000
,
0100
0010
1000
0100
,
0010
0000
1000
0000
,
0100
0000
0001
1000
,
0110
0000
1000
0000
,
0100
0010
0001
0100
,
1000
0000
0001
0000
,
0100
0000
1000
0001
,
0110
0000
1000
0000
,
0010
0001
0100
0001
,
1000
0000
0101
0000
,
0001
0000
1010
0100
,
1001
0000
0110
0000
,
1000
0010
0010
0100
,
0002
2003
3200
0300
,
1001
0000
0001
1000
,
0020
0230
2300
3000
,
0220
0330
0001
0100
,
0110
0000
1000
0010
,
0100
0001
0010
0100
,
1001
0000
0110
0000
,
1000
0010
0001
0100
,
0002
0203
2300
3000
,
0110
0000
0100
0020
,
2030
3200
0302
0003
,
1100
0000
0101
0000
,
0010
0100
0001
1000
,
0010
0110
0110
1001
,
1001
0000
1000
0000
,
0100
1000
0010
0000
,
0001
0000
0010
0000
,
0100
0001
1000
0000
,
1001
0000
1000
0000
,
0010
0100
0001
0000
,
1000
0100
1000
0100
,
0001
0100
1000
0100
,
0110
0000
0100
0001
,
0010
0100
1000
0001
,
1100
0000
0110
0000
,
0101
0000
0110
0110
,
1001
0000
0100
1000
,
0010
0100
0001
1000
,
0110
0000
0011
0000
,
1100
0000
1000
0100
,
0011
0000
0001
1000
,
0100
0000
0100
0001
,
1000
0000
0000
0000
;

//---------------dance-single - ----------------
#NOTES:
     dance-single:
     :
     Medium:
     4:
     0.327456,0.346216,0.501417,0.485499,0.000000,288.000000,225.000000,63.000000,61.000000,0.000000,0.000000,0.327456,0.346216,0.501417,0.485499,0.000000,288.000000,225.000000,63.000000,61.000000,0.000000,0.000000:
0000
0000
0000
0000
,
0000
0000
0000
0000
,
0000
0000
0000
0000
,
0000
0000
0000
0000
,
1000
1010
0100
0101
,
0001
1001
0010
1000
,
0110
0001
0110
1000
,
0101
0001
0100
0010
,
1001
2000
0100
3010
,
0100
0002
0010
1003
,
2002
3003
2020
3030
,
0202
0303
0010
0100
,
1001
0020
0001
0130
,
1000
0200
0001
0310
,
0022
0033
2200
3300
,
0202
0303
0001
1000
,
0110
0020
1000
0130
,
0001
2000
0010
3100
,
0012
1003
2010
3001
,
0102
0013
1000
0001
,
0110
0002
0100
0013
,
0100
0020
0100
1030
,
2010
3100
0012
0103
,
2001
0000
3010
0000
0010
0001
0100
0000
,
1001
0000
1000
0000
0100
0010
0100
0000
,
1000
0000
0010
0000
0010
0001
0100
0000
,
0002
2003
3200
0310
,
1001
0100
0001
1100
,
0020
0230
2300
3001
,
0210
0000
0310
0000
0001
1000
0100
0000
,
0220
0330
2002
3003
,
0100
0000
0100
0000
0001
1000
0100
0000
,
1001
0100
1000
1100
,
0001
0011
0001
0110
,
0002
0203
0320
1030
,
1001
0000
0100
0000
0010
1000
0100
0000
,
2000
3200
0302
0013
,
1000
0110
0001
0110
,
1000
1000
0010
0000
0001
0001
0100
0000
,
0020
0000
2030
0000
3100
0010
0001
0000
,
1001
0100
1010
1000
,
0101
0010
0110
1000
,
0001
0100
0020
0000
2030
0000
3200
0000
,
0310
0001
0200
0000
2300
0000
3020
0000
,
0031
0102
1003
2010
,
3100
0102
0013
2000
,
3010
0001
0200
0000
0310
0000
1001
0000
,
1000
0001
0100
0000
1000
0010
0100
0000
,
0011
0100
1010
0100
,
1001
0100
0110
1000
,
0102
0013
0120
1030
,
0101
0000
1001
0000
1000
0001
1000
0000
,
1001
0010
0101
1000
,
0110
0100
1001
1000
,
0120
1030
1002
0103
,
2010
0000
3001
0000
1000
0010
0100
0000
,
0011
1000
0101
1000
,
0110
0001
1100
0001
,
1010
0000
0000
0000
;

//---------------dance-single - ----------------
#NOTES:
     dance-single:
     :
     Hard:
     7:
     0.457074,0.484703,0.461622,0.278565,0.083569,402.000000,344.000000,58.000000,35.000000,0.000000,0.000000,0.457074,0.484703,0.461622,0.278565,0.083569,402.000000,344.000000,58.000000,35.000000,0.000000,0.000000:
0000
0000
0000
0000
,
0000
0000
0000
0000
,
0000
0000
0000
0000
,
0000
0000
0000
0000
,
1000
0100
0020
0000
0130
0010
0002
0000
,
0013
0100
1000
0000
0010
0100
0010
1000
,
0210
0000
0000
0310
0000
0000
0100
0000
1002
0000
0000
1003
0000
0000
0100
0000
,
2001
0000
0000
3001
0000
0000
0100
0000
0010
0000
0001
0000
0100
0000
0010
0000
,
1001
0000
0100
0000
0010
0001
0010
0000
,
0100
0000
1010
0000
1000
0010
0100
0001
,
2001
0000
0000
3010
0000
0000
0100
0000
1020
0000
0000
1030
0000
0000
0001
0000
,
0120
0000
0000
0130
0000
0000
1000
0000
0010
0000
0100
0000
0001
0000
0010
0000
,
1100
0000
1000
0000
0010
0100
0001
0000
,
1000
0000
0110
0000
0010
0100
0010
1000
,
0102
0000
0000
0013
0000
0000
0100
0000
1020
0000
0000
1030
0000
0000
0001
0000
,
2001
0000
0000
3001
0000
0000
0010
0000
1000
0000
0001
0000
0100
0000
0001
0000
,
0110
0000
1000
0000
0010
0100
0001
0000
,
0010
0000
0110
0000
1000
0010
1001
0000
,
0012
0000
0000
1003
0000
0000
0100
0000
2010
0000
0000
3010
0000
0000
1000
0000
,
0102
0000
0000
0013
0000
0000
0100
0000
0010
0000
0001
0000
0100
0000
1000
0000
,
0110
0000
1000
0000
0100
1000
0010
0000
,
0010
0001
0010
0000
0100
1000
0010
0000
,
2010
0000
0000
0100
3000
0000
1000
0000
0012
0000
0000
0010
0003
0000
0100
0000
,
2001
0000
0000
3100
0000
0000
0010
0000
0011
0000
1001
0000
1100
0000
1001
0000
,
0100
0000
1001
0000
0100
0010
0100
0000
,
1000
0100
0010
0000
0010
0001
0100
0010
,
1010
0000
0100
0000
0011
0001
0100
0000
,
1001
1000
0100
0000
0010
0001
0010
0100
,
2001
3010
1002
0103
,
0010
1000
0010
0100
0001
1000
0100
0010
,
0002
0000
1003
0010
0200
0000
0310
0001
,
2000
0000
3010
0000
0001
0001
0100
0100
,
1001
0000
1100
0000
0010
0100
0110
0000
,
0001
1000
1001
0000
0010
0100
1010
0000
,
0001
0100
0010
1000
0100
1000
0010
0000
,
0101
0001
0100
0000
1010
1000
0100
0000
,
2010
3100
0012
0013
,
1000
0001
1000
0100
0001
0100
1000
0000
,
0020
0000
0130
0001
2000
0000
3100
0010
,
0002
0000
0013
0100
0010
1000
0110
0000
,
1000
0100
0010
0001
1000
0100
1000
0001
,
0010
0100
0010
0001
0100
0010
1000
0100
,
1000
0100
0010
0100
0001
0010
0100
1000
,
0010
0001
0100
0001
0010
0100
0010
1000
,
0001
1000
0010
0100
0001
1000
0100
0010
,
0100
0010
1000
0100
0010
0001
0100
0010
,
1000
0001
0100
0010
1000
0100
0001
0100
,
1000
0001
0100
0010
1000
0010
0100
1000
,
0011
0000
0101
0000
0010
1000
0100
1000
,
0020
0000
0130
0001
0010
0100
1000
0100
,
0012
0000
0000
0013
0000
0000
0100
0000
0120
0000
0000
1030
0000
0000
0001
0000
,
2001
0000
0000
3100
0000
0000
0100
0000
0011
0000
1001
0000
0101
0000
1001
0000
,
0200
0000
0310
0000
1000
0010
1000
0001
,
0110
0000
0100
1000
1001
0000
1000
0001
,
0120
0000
0000
0100
0030
0000
1000
0000
2010
0000
0000
3001
0000
0000
0100
0000
,
1002
0000
0000
0103
0000
0000
1000
0000
0010
0000
0100
0000
0001
0000
0010
0000
,
0011
0000
0100
0000
1000
0010
1000
0000
,
0010
0100
0001
0000
0010
0100
1000
0010
,
0001
0000
0000
0000
;
