#TITLE:Artemisa;
#SUBTITLE:;
#ARTIST:Destripando la Historia;
#TITLETRANSLIT:;
#SUBTITLETRANSLIT:;
#ARTISTTRANSLIT:;
#GENRE:;
#CREDIT:Magna Trick;
#BANNER:Artemisa.png;
#BACKGROUND:Artemisa bg.png;
#LYRICSPATH:;
#CDTITLE:Magna Trick title!.png;
#MUSIC:Artemisa.mp3;
#OFFSET:-0.231000;
#SAMPLESTART:39.000000;
#SAMPLELENGTH:21.943001;
#SELECTABLE:YES;
#BPMS:0.000000=175.000000
,169.000000=87.500000
,170.000000=175.000000
,309.000000=87.500000
,326.000000=175.000000
,387.000000=87.500000
,388.000000=175.000000
;
#STOPS:107.000000=0.343000,
168.000000=0.343000,
184.000000=0.343000,
247.000000=0.343000,
308.000000=0.343000,
386.000000=0.343000
;
#BGCHANGES:13.000=Artemisa.mp4=1.000=0=0=1=====,
99999=-nosongbg-=1.000=0=0=0 // don't automatically add -songbackground-
;
#KEYSOUNDS:;
#ATTACKS:;

//---------------dance-single - Magna Trick----------------
#NOTES:
     dance-single:
     :
     Beginner:
     5:
     0.249807,0.466697,0.200562,0.125351,0.000000,279.000000,247.000000,32.000000,20.000000,0.000000,0.000000,0.249807,0.466697,0.200562,0.125351,0.000000,279.000000,247.000000,32.000000,20.000000,0.000000,0.000000:
0000
0000
0000
0000
,
0000
0000
0000
0000
,
0000
0000
0000
0000
,
0000
0000
0000
0000
,
0000
0000
0000
0000
,
0000
0000
0000
0000
,
0000
0000
0000
0000
,
0000
0000
0000
0000
,
0000
0000
0000
0000
,
0000
0000
0000
0000
,
0000
0000
0000
0000
,
0000
0001
0000
1000
,
0000
0001
0000
1000
,
0000
0100
0000
1000
,
0000
0100
0000
0010
,
0000
0010
0000
0100
,
0000
1000
0000
0001
,
0000
1000
0000
0010
,
0000
0100
0000
0010
,
0010
0000
0100
0000
,
0001
0000
0100
0010
,
0010
0100
0000
0001
,
0000
1000
0001
1000
,
0001
0000
1000
0000
,
0100
0000
1000
1000
,
0100
0010
0000
0010
,
0000
0001
0001
0001
,
1000
0001
0000
1000
,
0000
0001
0000
0001
,
0001
2000
0000
3010
,
0100
0000
0000
0002
0000
0000
2003
0000
,
3000
0001
0000
1000
,
0000
0001
0000
0010
,
0000
0011
0000
0011
,
0000
0011
0000
0011
,
0000
1000
0000
0010
,
0000
0100
0000
0010
,
0000
2000
0000
3001
,
0020
0000
0000
0230
0000
0000
1300
0000
,
1001
1001
0000
0000
,
0110
0000
1010
0000
,
0101
0101
0000
0000
,
1001
0000
0001
1000
0001
0000
1000
0000
,
0000
0001
0000
1000
,
0000
0010
0000
1000
,
0000
0001
0010
0010
,
0010
0100
1000
0000
,
0001
0000
1000
0000
,
0010
0000
1000
0000
,
0001
0000
0100
0000
,
0001
0000
1000
0000
,
0100
0000
1000
0000
,
0001
0000
0010
0000
,
0001
0000
1000
0001
,
1000
0000
0010
0000
,
0010
0000
1000
1000
,
0001
0000
0001
0000
,
1000
0100
0100
0010
,
0001
0000
0001
0000
,
0100
0000
0010
0010
,
1000
0001
0000
1000
,
0000
0100
0010
0100
,
0010
0001
0000
1000
,
0000
0001
0000
0100
,
0000
0020
0000
1030
,
0200
0000
0000
0320
0000
0000
0031
0000
,
0000
1000
0000
0001
,
0000
1000
0000
0010
,
0000
0110
0000
0110
,
0000
0110
0000
0110
,
0000
1000
0000
0001
,
0000
1000
0000
0010
,
0000
0200
0000
0301
,
2000
0000
0000
3200
0000
0000
0310
0000
,
0110
0110
0000
0011
,
1100
0000
1010
0000
,
1001
1001
1001
0110
,
0110
0000
1000
0001
0000
1000
0000
0001
,
0000
1000
0000
0001
0000
1000
0000
0001
,
0000
1000
0000
0001
0001
0000
1000
0000
,
0001
0100
0010
1000
,
0001
1000
0001
1000
0010
0000
0010
0000
,
0000
1000
0000
0001
,
0000
1000
0000
0200
,
0000
0000
0310
0000
0200
0000
0000
2300
,
0000
3001
0000
0001
,
0000
1000
0000
0010
,
0000
0100
0000
1001
,
0000
1001
0000
1001
,
0000
1001
0000
1000
,
0000
0001
0000
0010
,
0000
0100
0000
0020
,
0000
0000
0031
0000
2000
0000
0000
3020
,
0000
0130
0101
0101
,
0000
1000
0100
0000
,
0100
0000
0010
0010
,
0001
0000
1000
0000
1001
0000
0100
0010
,
0001
0000
1000
0001
,
0001
0000
1000
0010
,
0010
0000
0100
0000
,
0001
0001
0001
0001
,
1000
0000
0100
0100
,
0100
0000
0010
0010
,
0010
0000
0001
0001
,
1000
1000
1000
1000
,
0002
0000
0000
0000
,
2003
0000
0000
3000
0000
0000
0000
0000
;

//---------------dance-single - Magna Trick----------------
#NOTES:
     dance-single:
     :
     Easy:
     9:
     0.342029,0.566704,0.275772,0.125351,0.000000,382.000000,338.000000,44.000000,20.000000,0.000000,0.000000,0.342029,0.566704,0.275772,0.125351,0.000000,382.000000,338.000000,44.000000,20.000000,0.000000,0.000000:
0000
0000
0000
0000
,
0000
0000
0000
0000
,
0000
0000
0000
0000
,
0000
0000
0000
0000
,
0000
0000
0000
0000
,
0000
0000
0000
0000
,
0000
0000
0000
0000
,
0000
0000
0000
0000
,
0000
0000
0000
0000
,
0000
0000
0000
0000
,
0000
0000
0000
0000
,
0000
1000
0000
0001
,
0100
1000
0000
0001
,
0010
0010
0000
0001
,
1000
0010
0000
0100
,
0010
0100
0000
0010
,
1000
0001
0000
1000
,
0100
0001
0000
0100
,
1000
0010
0000
0100
,
0100
0000
0010
1000
,
0001
0000
0010
0100
,
0100
0010
0001
1000
,
0001
0001
1000
0001
,
1000
0100
0001
0100
,
0010
1000
0001
0001
,
0010
0100
1000
0100
,
0010
0011
0101
0011
,
0001
1000
0100
1000
,
0100
0010
0001
1000
,
1000
0002
0000
0103
,
0010
0000
0000
2000
0000
0000
3002
0000
,
0003
1000
0100
0001
,
0100
1000
0001
0100
,
0010
1100
0000
1100
,
0000
1100
0000
1100
,
0000
0001
1000
0100
,
0010
0010
0001
0100
,
1000
0002
0000
1003
,
0200
0000
0000
0320
0000
0000
0031
0000
,
1001
1001
0000
0010
,
0110
0000
0101
0000
,
1010
1010
1000
0001
,
1001
0000
1000
0001
1000
0000
0001
0000
,
0000
1000
0000
0001
,
1000
0100
0010
0000
,
0001
1000
0100
0100
,
0100
0010
0001
0100
,
0010
1000
0001
0010
,
0100
0010
0000
0100
,
1000
0001
0010
0100
,
1000
0001
0000
0100
,
0010
1000
0001
0010
,
0100
1000
0000
0100
,
1000
0001
0100
0010
,
1000
0100
0100
1000
,
0100
0010
0001
0001
,
1000
0010
1000
0001
,
0001
0010
0010
0100
,
1000
0010
1000
0001
,
0010
0001
0100
0100
,
0001
1000
0100
0001
,
0100
0010
0100
0010
,
0100
1000
0001
1000
,
0000
1000
0010
0010
,
1000
0200
0000
0301
,
0020
0000
0000
0230
0000
0000
1300
0000
,
0000
0001
0100
1000
,
0100
0001
1000
0100
,
0010
0110
0000
0110
,
0000
0110
0000
0110
,
0000
0001
1000
1000
,
0001
0001
1000
0100
,
0001
0020
0000
1030
,
0002
0000
0000
0023
0000
0000
0130
0000
,
0110
0110
0000
1100
,
0011
0000
0101
0000
,
1001
1001
1001
0110
,
0110
0000
0001
1000
0001
1000
1000
1000
,
0001
0001
0001
0001
1000
1000
1000
1000
,
0001
0001
0001
0001
0100
0100
0100
0100
,
0010
0010
0010
0010
0100
0100
0100
0001
,
1000
0001
1000
0001
0100
0000
0100
0000
,
0010
1000
0000
1000
,
0100
0001
0100
0020
,
0000
0000
0130
0000
0020
0000
0000
0032
,
0000
1003
0000
1000
,
0010
0001
0010
0100
,
0010
0010
1000
1001
,
0000
1001
0000
1001
,
0000
1001
0000
0001
,
0010
1000
0010
0100
,
0010
0010
0001
0200
,
0000
0000
1300
0000
0002
0000
0000
0203
,
0000
0310
1010
1010
,
0000
0001
0010
0001
,
0010
0001
0100
0100
,
1000
0000
0001
0000
1001
0000
0010
0100
,
1000
0001
0001
1000
,
1000
0000
0001
0100
,
0100
0000
0010
0000
,
1001
1001
1001
1001
,
0001
0000
0010
0010
,
0010
0000
0100
0100
,
0100
0000
1000
1000
,
0101
1001
0101
1001
,
2100
0000
0000
0000
,
3002
0000
0000
0003
0000
0000
0000
0000
;

//---------------dance-single - Magna Trick----------------
#NOTES:
     dance-single:
     :
     Medium:
     12:
     0.432461,0.766717,0.288307,0.131619,0.109682,483.000000,437.000000,46.000000,21.000000,0.000000,0.000000,0.432461,0.766717,0.288307,0.131619,0.109682,483.000000,437.000000,46.000000,21.000000,0.000000,0.000000:
0000
0000
0000
0000
,
0000
0000
0000
0000
,
0000
0000
0000
0000
,
0000
0000
0000
0000
,
0000
0000
0000
0000
,
0000
0000
0000
0000
,
0000
0000
0000
0000
,
0000
0000
0000
0000
,
0000
0000
0000
0000
,
0000
0000
0000
0000
,
0000
0000
0000
0000
,
0000
0000
0001
1000
0001
0000
1000
0000
,
0010
0001
0010
1000
,
0100
1000
0100
0000
0000
0000
1000
0000
,
0001
0000
0100
0000
0010
0000
0100
0001
,
0100
0010
0000
0100
,
0001
1000
0100
0001
,
0100
1000
0100
0000
0000
0000
0010
0000
,
0001
0000
0100
0000
0010
1000
0010
1000
,
0010
0000
0100
0001
,
1000
0010
0100
0010
,
0010
0000
0100
0000
0001
0100
0001
0000
,
1000
0100
1000
0000
0001
0000
1000
0000
,
0001
0010
1000
0010
,
0100
0000
1000
0000
0100
0010
0100
0000
,
0010
0001
0010
0000
0001
0000
0010
0000
,
0100
1100
1010
1100
,
1000
0001
0010
0001
,
0010
0000
0100
0000
1000
0100
0001
0000
,
0001
2000
0000
3010
,
0100
0000
0000
0002
0000
0000
2003
0000
,
3000
0001
0010
1000
,
0010
0000
0001
0000
1000
0000
0010
1000
,
0100
0011
0000
0011
,
0000
0011
0000
0011
,
0000
1000
0001
0010
,
0100
0000
0100
0000
1000
0000
0010
1000
,
0001
2000
0000
3001
,
0020
0000
0000
0230
0000
0000
1300
0000
,
1001
1001
0001
0100
,
0110
0001
1010
1000
,
0101
0101
0001
1000
,
1001
0000
0000
0000
0001
1000
0001
1000
0100
0000
0100
0000
0000
0000
0010
0000
,
0001
0000
0001
1000
0001
1000
0000
0100
,
0010
0100
0010
0100
0010
0001
0000
1000
,
1000
0000
0000
1000
0000
0000
0001
0000
0000
0000
0000
0000
0010
0000
0000
0000
0001
0000
0000
0000
0010
0000
0000
0000
,
0011
0100
1000
0010
,
0100
0000
0001
0000
1000
0000
0001
0100
,
0010
0100
0001
0000
0000
0000
0010
0000
,
0001
0000
1000
0000
0100
0010
0100
0010
,
0001
1000
0000
0010
,
0100
0000
0001
0000
1000
0000
0100
1000
,
0010
0001
0000
0010
,
0001
0000
1000
0000
0010
1000
0100
0000
,
0001
0010
0010
0001
,
0010
0000
0100
0000
1000
0001
1000
0000
,
0001
0000
0100
0000
0001
0000
1000
0010
,
1000
0000
0100
0010
0100
0000
0010
0001
,
1000
0100
0001
1000
,
0100
0000
1000
0000
0010
1000
0010
0000
,
1000
0001
0010
1000
,
0010
0000
0100
1000
0010
0000
0110
0000
,
0010
1000
0001
0000
1000
0000
0001
0000
,
0100
0000
0001
0000
0100
0001
0100
0000
,
0001
0020
0000
1030
,
0200
0000
0000
0320
0000
0000
0031
0000
,
0000
0000
1000
0100
0010
0000
0001
0000
,
0010
0000
1000
0000
0001
1000
0010
0000
,
0100
0110
0000
0110
,
0000
0110
0000
0110
,
0000
0000
1000
0100
0001
0000
0001
0000
,
1000
0000
1000
0000
0001
1000
0010
0000
,
1000
0200
0000
0301
,
2000
0000
0000
3200
0000
0000
0310
0000
,
0110
0110
0001
0011
,
1100
0010
1010
0100
,
1001
1001
1001
0110
,
0110
0000
0000
0000
1000
0001
1000
0001
0100
0000
0000
0001
0100
0001
0100
0010
,
0000
0100
0000
0001
0000
0100
0010
1000
0000
0000
0000
0010
1000
0010
1000
0010
,
0000
1000
0000
0100
0000
0010
0100
0010
0000
0000
0000
0100
0010
0100
0010
0100
,
0000
0010
0000
0001
0000
0100
0010
0100
0000
0000
0000
0010
1000
0010
0010
2000
,
0000
3100
0010
0001
1000
0010
1000
0000
0010
0000
0000
0000
0010
0000
0000
0000
,
0100
0010
1000
0000
0000
0000
0001
0000
,
0010
0001
1000
0000
0010
0000
0200
0000
,
0000
0000
0310
0000
0200
0000
0301
2000
,
0000
3001
0000
0001
,
0100
1000
0100
0010
,
0100
0001
0100
0000
0001
0000
1001
0000
,
0000
1001
0000
1001
,
0000
1001
0000
1000
,
0100
0001
0100
0010
,
0100
1000
0100
0000
1000
0000
0020
0000
,
0000
0000
0031
0000
2000
0000
0000
3020
,
0000
0130
0101
0101
,
0000
0000
1000
0001
0100
0000
1000
0000
,
0100
0001
1000
0000
0010
0000
0010
0000
,
0001
0000
0000
0000
1000
0000
0000
0000
1001
0000
0000
0000
0100
0010
0100
0010
,
0001
0001
0000
1000
0100
0000
0010
0100
,
0010
0100
0000
1000
0001
1000
0001
1000
,
0010
0100
0000
0010
0100
0010
0100
0000
,
1001
1100
1001
0101
,
1000
1000
0000
0001
0100
0001
0100
0001
,
0100
0010
0000
1000
0010
1000
0010
1000
,
0010
0100
0000
0001
0001
0001
1000
0000
,
1010
1001
0011
1001
,
0120
0000
0000
0000
,
2030
0000
0000
3000
0000
0000
0000
0000
;

//---------------dance-single - Magna Trick----------------
#NOTES:
     dance-single:
     :
     Hard:
     14:
     0.668837,0.800053,0.382320,0.150421,0.244434,747.000000,686.000000,61.000000,24.000000,0.000000,1.000000,0.668837,0.800053,0.382320,0.150421,0.244434,747.000000,686.000000,61.000000,24.000000,0.000000,1.000000:
// measure 0
0000
0000
0000
0000
,  // measure 1
0000
0000
0000
0000
,  // measure 2
0000
0000
0000
0000
,  // measure 3
0000
0000
1000
1000
0000
0001
0100
0001
,  // measure 4
1000
0100
1000
0010
0000
1000
0010
1000
,  // measure 5
0001
0010
0001
0100
0000
0010
0010
0010
,  // measure 6
1000
0001
1000
0000
1010
0000
0000
0000
0011
0000
0000
0000
0101
0000
0000
0000
,  // measure 7
1100
0000
0110
0010
0000
1000
0010
1000
,  // measure 8
0001
0010
0001
0100
0000
0001
0100
0001
,  // measure 9
1000
0000
0100
0000
1000
0000
0010
0000
0000
0000
0100
0010
0100
0000
0100
0000
,  // measure 10
0100
0000
0000
0100
0000
0000
0010
0000
1000
0000
0001
0000
0100
0000
0010
0000
1000
0000
0001
0000
0000
0000
0000
0000
,  // measure 11
1001
0000
0010
1000
0010
1000
0001
0100
,  // measure 12
0010
1000
0100
0010
0100
1000
0001
0010
,  // measure 13
0100
0000
1000
0000
0100
0000
1000
0000
0010
0000
0100
0001
0100
0000
0010
0000
,  // measure 14
1000
0100
0010
0001
0010
1000
0010
0001
,  // measure 15
0100
0000
0010
1000
0010
0000
0100
0000
1000
0000
0100
0000
1000
0000
0001
0000
,  // measure 16
0010
0000
1000
0000
0100
0000
0010
0000
0100
0000
0010
0001
0010
0000
1000
0000
,  // measure 17
0010
0000
0001
0000
0010
0000
0100
0000
1000
0000
0001
1000
0001
0000
0100
0000
,  // measure 18
0010
2000
0000
3010
0010
1000
0010
1000
,  // measure 19
0001
0000
0101
0001
0100
0000
0001
1000
,  // measure 20
0100
0000
0010
0001
0100
0001
0010
0100
,  // measure 21
0010
0001
0000
0100
0001
0100
0001
1000
,  // measure 22
0100
1000
0010
0100
0010
0100
0110
0000
,  // measure 23
1010
0000
0010
1000
0100
0000
0010
0001
,  // measure 24
0100
0000
1000
0100
0001
0100
1000
0100
,  // measure 25
0010
1000
0000
0001
0001
0010
0100
1000
,  // measure 26
0001
0000
0000
1000
0000
0000
0100
0000
0010
0000
0001
0000
1000
0000
0100
0000
0010
0000
0001
0000
0000
0000
0000
0000
,  // measure 27
1000
0000
0001
1000
0010
1000
0001
0010
,  // measure 28
0000
0100
0000
1000
0000
0100
0010
0002
,  // measure 29
0000
0003
2000
0000
0000
0000
3010
0000
,  // measure 30
0200
0000
0000
0000
0301
0000
0002
0000
0000
0000
1003
0100
1000
0000
0001
0010
,  // measure 31
0001
0000
0010
0100
0010
0100
1000
0010
,  // measure 32
0000
0100
0000
0001
1000
0001
0010
1000
,  // measure 33
0000
0011
0100
0011
,  // measure 34
0100
0000
0100
0000
0011
0000
0000
0000
0100
0010
0100
0000
0011
0000
0000
0000
,  // measure 35
0001
0000
1000
0100
0001
0100
0010
0100
,  // measure 36
0000
1000
0000
0100
0000
1000
0010
1000
,  // measure 37
0001
2000
0000
3001
,  // measure 38
0020
0000
0100
0230
0000
0000
1300
0000
,  // measure 39
1001
0100
1001
0000
0001
0000
0100
0010
,  // measure 40
0110
0000
0001
0000
1010
0010
1000
0000
,  // measure 41
0101
0000
0101
0000
1100
0100
1000
0000
,  // measure 42
1001
0000
0000
0000
0000
0000
0000
0000
0001
0000
0010
0100
1000
0000
0001
0000
0100
0000
0000
0000
0100
0000
0000
0000
0000
0000
0000
0000
0010
0000
0000
0000
,  // measure 43
1000
1000
0001
1000
0001
0010
0000
0100
,  // measure 44
0010
0000
0100
0000
1000
0000
0100
0000
0010
0000
0001
0000
0000
0000
1000
0100
,  // measure 45
1000
0000
0000
0000
0000
0000
1000
0000
0000
0000
0000
0000
0100
0000
0000
0010
0000
0000
0100
0000
0000
0010
0000
0000
0001
0000
0000
0000
0010
0000
0000
0000
0100
0000
0000
0000
1000
0000
0000
0000
0001
0000
0000
0000
0010
0000
0000
0000
,  // measure 46
1001
0000
0100
1000
0001
0000
0010
0000
,  // measure 47
0100
0010
0001
0000
1000
0000
0001
0100
,  // measure 48
0010
0100
0001
0000
0100
0000
0010
1000
,  // measure 49
0001
1000
0000
0100
0100
0010
0100
0010
,  // measure 50
0001
0100
1000
0000
0100
0010
1000
0010
,  // measure 51
0100
0001
0000
1000
0100
0010
0100
1000
,  // measure 52
0001
0011
0000
0000
0100
0010
0001
1000
,  // measure 53
0010
0100
0000
1000
0100
0001
0100
0010
,  // measure 54
1010
0000
0010
1000
0010
0000
1000
0010
,  // measure 55
1000
0000
0100
1000
1000
0001
1000
0001
,  // measure 56
0001
0001
0000
0100
0001
0010
1000
0010
,  // measure 57
1000
0001
0100
0010
0100
0010
0010
0001
,  // measure 58
1000
0000
0100
1000
0001
1000
1010
0000
,  // measure 59
0110
0000
0001
0100
0010
1000
0010
0100
,  // measure 60
0001
0010
0000
0100
0010
0001
1000
0100
,  // measure 61
0010
0000
0001
0000
0100
0010
0100
0010
1000
0001
1000
0001
0100
0000
0000
0000
,  // measure 62
0010
0000
1000
0001
1000
0001
0010
0100
,  // measure 63
0000
1000
0000
0010
0100
0001
0100
0010
,  // measure 64
0000
0020
0000
1030
,  // measure 65
0200
0000
0000
0000
0010
0000
0320
0000
0000
0000
0031
1000
0001
0000
1000
0001
,  // measure 66
1000
0000
0100
0010
0001
1000
0001
1000
,  // measure 67
0000
0010
0000
1000
0001
1000
0010
0100
,  // measure 68
0001
0110
0001
0110
,  // measure 69
0001
0000
0001
0000
0110
0000
0000
0000
0001
0010
0001
0000
0110
0000
0000
0000
,  // measure 70
0001
0000
1000
0100
0001
0100
1000
0010
,  // measure 71
0000
0100
0000
0001
1000
0001
0010
0100
,  // measure 72
1000
0200
0000
0310
,  // measure 73
0002
0000
0100
0203
0000
0000
0310
0000
,  // measure 74
0110
0000
0110
0000
0001
0000
0011
0001
,  // measure 75
1000
0000
0010
0000
1010
1000
0100
0000
,  // measure 76
1001
0000
1001
0000
0001
1000
0110
0000
,  // measure 77
0110
0000
0000
0000
1000
0010
0100
0001
1000
0000
0000
0001
0100
0001
0100
0010
,  // measure 78
0000
0100
0000
0001
0000
0100
0010
1000
0000
0000
0000
0010
1000
0010
1000
0010
,  // measure 79
0000
1000
0000
0100
0000
0010
0100
0010
0000
0000
0000
0100
0010
0100
0010
0100
,  // measure 80
0000
0010
0000
0001
0000
0100
0010
0100
0000
0000
0000
0010
1000
0010
0010
2000
,  // measure 81
0000
3100
0010
0001
1000
0010
1000
0000
0010
0000
0000
0000
0010
0000
0001
0000
,  // measure 82
0100
0010
2000
0000
0000
3100
0000
0010
,  // measure 83
0001
1000
0100
0001
0010
0000
0200
0000
,  // measure 84
0000
0000
0310
0000
0002
0000
1003
2000
,  // measure 85
0000
0000
3001
0010
0001
0000
1000
0100
1000
0000
0000
0000
1000
0000
0010
0000
,  // measure 86
0100
0010
1000
0100
0010
0100
0010
0001
,  // measure 87
0100
0001
0100
0010
1000
0000
1001
0000
,  // measure 88
0100
0000
1001
0000
0100
0100
1001
0000
,  // measure 89
0100
0010
0100
0000
1001
0000
0000
0000
0001
0000
0000
0000
1000
0000
0100
0000
,  // measure 90
1000
0100
0001
0100
0000
1000
0000
0010
,  // measure 91
0100
1000
0100
0001
1000
0000
0020
0000
,  // measure 92
0000
0000
0031
0000
2000
0000
0010
3020
,  // measure 93
0000
0130
0101
0101
,  // measure 94
0001
0000
1001
0001
0011
0000
1100
0000
,  // measure 95
1100
1000
1001
0000
0110
0000
0110
0000
,  // measure 96
0011
0000
0000
0000
1100
0000
0000
0000
1001
0000
0000
0000
0100
1000
0100
0010
,  // measure 97
0001
0001
0000
1000
0100
1000
0010
0100
,  // measure 98
0010
0000
1000
0000
0000
0000
1000
0010
1000
0000
0100
0000
0010
0000
1000
0000
,  // measure 99
0010
0000
0001
0000
0000
0000
0010
0100
0010
0000
0100
0000
1000
0001
1000
0000
,  // measure 100
1001
1100
1001
0101
,  // measure 101
0010
1000
0000
0001
0100
1000
0100
0001
,  // measure 102
0100
0000
0010
0000
0000
0000
0100
0010
0100
0000
0010
0000
1000
0000
0010
0000
,  // measure 103
1000
0000
0100
0000
0000
0000
0001
0010
0001
0000
0001
0000
0100
0010
1000
0000
,  // measure 104
1010
0000
1000
0100
0010
0000
0001
0100
0010
0000
1000
0100
0010
0000
0001
1000
,  // measure 105
0120
0000
0000
0000
,  // measure 106
2031
0000
0000
3000
0000
0000
0000
0000
;
