#TITLE:A Stroke Of Luck -2015 Remix-;
#SUBTITLE:Un Golpe de Suerte;
#ARTIST:Luis Jara;
#TITLETRANSLIT:;
#SUBTITLETRANSLIT:;
#ARTISTTRANSLIT:;
#GENRE:;
#CREDIT:;
#BANNER:A Stroke Of Luck -2015 Remix-.png;
#BACKGROUND:A Stroke Of Luck -2015 Remix- bg.png;
#LYRICSPATH:;
#CDTITLE:Magna Trick title!.png;
#MUSIC:A Stroke Of Luck -2015 Remix-.ogg;
#OFFSET:0.411844;
#SAMPLESTART:56.952999;
#SAMPLELENGTH:16.875000;
#SELECTABLE:YES;
#BPMS:0.000000=128.000000
;
#STOPS:
;
#BGCHANGES:0.063=A Stroke Of Luck -2015 Remix-.mp4=1.000=0=0=1=====,
99999=-nosongbg-=1.000=0=0=0 // don't automatically add -songbackground-
;
#KEYSOUNDS:;
#ATTACKS:;

//---------------dance-single - Magna Trick----------------
#NOTES:
     dance-single:
     Magna Trick:
     Beginner:
     1:
     0.112258,0.180397,0.025349,0.101394,0.000000,93.000000,90.000000,3.000000,12.000000,0.000000,0.000000,0.112258,0.180397,0.025349,0.101394,0.000000,93.000000,90.000000,3.000000,12.000000,0.000000,0.000000:
0000
1000
0000
0000
,
0000
0002
0000
0000
,
0000
0000
0000
0000
,
0000
0003
0000
0100
,
0000
0000
0000
0000
,
0000
0010
0000
0000
,
0000
0000
1000
0000
,
0000
0000
0000
0000
,
0000
0000
0001
0000
,
0000
0000
0000
0000
,
0000
0000
1000
0000
,
0000
0000
0000
0000
,
0000
0000
0100
0000
,
0000
0000
1000
0000
,
0001
0000
1000
0000
,
0001
0000
1000
0000
,
0001
0000
1000
0000
,
0001
0000
0100
0000
,
0010
0000
0100
0000
,
0010
0200
0000
0000
,
0000
0000
0000
0000
,
0000
0301
0000
1000
,
0000
0001
0000
0000
,
0000
2000
0000
0000
,
0000
3000
0000
0000
,
0000
0010
0000
1000
,
0000
0001
0000
0000
,
0000
0002
0000
0000
,
0000
0000
0000
1003
,
0000
0200
0000
0000
,
0000
0300
0000
1000
,
0000
0001
0000
1000
,
0000
0001
0000
0010
,
0000
0100
0000
0010
,
0000
0001
0000
1000
,
0000
1000
0000
0001
,
0000
0002
0000
0003
,
0000
1000
0000
0010
,
0000
0000
1001
0000
0000
1001
0000
0000
,
0000
0010
0010
0000
,
0000
1000
0000
0001
,
0000
1000
0000
0001
,
0000
1000
0020
0030
,
1000
0000
0001
0000
,
0010
0000
0001
0000
,
1000
2000
3000
0000
,
0000
0002
0000
0000
,
0000
1003
0000
1000
,
0000
0001
0000
0000
,
0000
1000
0000
0000
,
0000
0010
0000
0000
,
0000
0000
0000
0000
0000
0000
0000
2000
,
0000
3000
0000
0100
0000
0100
0000
0100
,
0000
0000
0000
0001
0000
0001
0000
0001
,
0000
0000
0000
1000
0000
1000
0000
1000
,
0000
0000
0000
0010
0000
0010
0000
0010
,
0000
0000
0000
1000
0000
1000
0000
1000
,
0000
0000
0000
0001
0000
0001
0000
0001
,
0000
0000
0000
0000
,
0000
1000
0000
0001
,
0000
0100
2002
0000
,
3003
0000
0000
0000
;

//---------------dance-single - Magna Trick----------------
#NOTES:
     dance-single:
     Magna Trick:
     Easy:
     3:
     0.179854,0.231939,0.016899,0.109844,0.000000,149.000000,147.000000,2.000000,13.000000,0.000000,0.000000,0.179854,0.231939,0.016899,0.109844,0.000000,149.000000,147.000000,2.000000,13.000000,0.000000,0.000000:
0000
0001
0000
0000
,
0000
2000
0000
0000
,
0000
0002
0000
0000
,
0000
0000
3003
0010
0000
0000
0010
0000
,
0000
0000
0000
1000
0000
1000
0000
0001
,
0000
0001
1000
0000
0010
0000
0000
0000
,
0010
0000
1000
0000
,
1000
0000
0001
0000
,
0001
0000
0100
0000
,
0100
0000
1000
0000
,
1000
0000
0010
0000
,
0010
0000
0001
0000
,
0001
0000
0100
0000
,
0100
0010
0010
0000
,
1000
0000
0001
0000
,
1000
0000
0001
0000
,
0100
0000
0100
0000
,
0010
0000
0010
0000
,
1000
0000
1000
0000
,
0001
0002
0000
2000
,
0000
0000
0000
0000
,
3003
0110
0000
0010
,
0010
1000
0000
0001
,
0000
1000
1000
0000
,
0100
0000
0010
0000
,
0001
0001
0000
1000
,
0100
1000
0000
0010
,
0100
0020
0000
0000
,
1030
1000
0000
0000
0000
0000
0001
0000
,
1000
0020
0000
0230
,
0000
0310
0000
0000
0000
0000
1000
0000
,
0000
1000
0000
0001
0000
0000
0000
1000
,
0000
1000
0000
0000
0000
0000
0010
0000
,
0000
1000
0000
1000
0000
0000
0000
0000
,
0000
0000
0000
0100
,
0000
0010
0000
0001
0000
0010
0000
0100
,
0000
1000
0000
0000
0000
0000
0000
0000
,
0000
1000
0001
0100
,
0010
0010
0100
0000
0000
1000
0000
0000
,
0000
0000
0001
0010
0100
0000
1000
0000
,
0000
0010
0000
0010
0000
0000
1000
0000
,
0000
0001
0000
0000
0000
0000
0010
0000
,
0000
0100
0000
0200
0000
0300
0000
0000
,
1000
0000
0001
0000
,
0100
0010
0000
0010
0000
1000
0000
0000
,
1000
0002
0000
0000
0003
0000
1000
1000
,
0000
0200
0000
0000
0000
0000
0000
0300
,
0000
0000
0010
0000
0000
0010
0000
0010
,
0000
0001
0000
0000
0100
0000
0000
0000
,
0010
0000
0100
0000
,
0001
0000
1000
0000
,
0001
0000
0000
0000
1000
0000
0000
0100
,
0200
0000
0300
0010
0000
0010
0000
0010
,
0000
0000
0000
0001
0000
0001
0000
0001
,
0000
0000
0000
1000
0000
1000
0000
1000
,
0000
0000
0000
0100
0000
0100
0000
0100
,
0000
0000
0000
0010
0000
0010
0000
0010
,
0000
0000
0000
0001
0000
0001
0000
0001
,
0000
0000
1000
0001
,
0000
1000
0000
1000
0000
0100
0000
0010
,
0000
0001
0000
0000
2002
0000
0000
0000
,
3003
0000
0000
0000
;

//---------------dance-single - Magna Trick----------------
#NOTES:
     dance-single:
     Magna Trick:
     Medium:
     6:
     0.286076,0.335023,0.050697,0.135192,0.004225,237.000000,231.000000,6.000000,16.000000,0.000000,0.000000,0.286076,0.335023,0.050697,0.135192,0.004225,237.000000,231.000000,6.000000,16.000000,0.000000,0.000000:
0000
0000
1000
0000
0001
0000
0010
0100
,
0010
0002
0000
0000
,
0000
2000
0000
0000
,
0000
3003
0000
0010
0100
0010
0100
0000
,
0000
0000
0001
1000
1000
0001
0001
1000
,
1000
0100
0010
0000
0100
0000
1000
0000
,
1000
0000
0001
1000
0100
0000
0000
0000
,
0010
0000
0010
1000
,
1000
0000
0001
0100
0001
0000
0000
0000
,
1000
0001
1000
0100
,
0010
0001
0000
0001
,
1000
0010
0000
0010
,
1000
0000
0001
1000
0001
0000
0100
0000
,
0010
0001
1000
0010
,
0100
0000
0001
0100
0001
0000
1000
0000
,
0010
1000
0100
0010
,
0001
0000
1000
0010
1000
0000
0001
0000
,
0100
0010
0100
0001
,
0100
0001
1000
0001
,
1000
0001
0010
0001
,
0010
0001
1000
0010
,
0100
0101
0010
0000
,
0010
1000
0000
1000
,
0100
0010
0020
0000
,
0031
0000
1000
0000
,
0001
1000
1000
0001
,
0001
0010
0000
0010
,
0001
0100
2000
0000
,
3100
0100
0000
0000
0000
0000
0001
0000
,
0010
0001
0020
0000
0000
0130
2000
0000
,
0000
3020
0000
0000
0000
0030
0001
0000
,
1000
0001
0000
2000
0000
0000
3000
0010
,
1000
0020
0000
0000
0030
0100
0010
0000
,
0100
0001
0000
2000
0000
0000
3000
0000
,
0100
0000
0010
0001
,
1000
0001
0000
1000
0000
1000
0000
0100
,
0010
0002
0000
0000
1003
0000
0000
0000
,
1000
0000
0001
0001
1000
1000
0000
0010
,
0010
1000
1100
0000
0000
0011
0000
0000
,
0000
0000
1001
0010
0100
0000
0001
0000
,
0100
0010
0000
0100
0000
0001
0100
0000
,
0001
1000
0000
0000
0000
1000
0100
0000
,
1000
0100
0000
0020
0000
0030
0000
0000
,
0001
0000
0000
0000
1000
0000
0001
1000
,
0001
1000
0000
0100
0100
0100
0010
0000
,
0010
0020
0000
0000
0031
0000
1000
0001
,
0000
2000
0000
0000
0000
0000
3000
0000
,
0000
0000
1000
0001
0000
1000
0000
0100
,
0100
0010
0000
0000
0100
0000
0000
0000
,
0100
0000
0100
0000
,
0010
0000
0010
0000
,
0001
0000
0000
0000
1000
0000
0000
0001
,
0001
0100
1000
0010
0000
0010
0000
0010
,
0000
1000
0000
0001
0000
0001
0000
0001
,
0000
0010
0000
0100
0000
0100
0000
0100
,
0000
1000
0000
0001
0100
0001
0000
0001
,
0000
1000
0000
0100
0000
0100
0000
0100
,
0000
1000
0000
0010
0000
0010
0000
0010
,
0000
1001
0010
0100
,
0010
0000
0000
1000
0000
0000
0001
0000
1000
0000
0001
0000
0000
0000
0100
0000
,
0010
0100
0001
0000
0220
0000
0000
0000
,
0330
0000
0000
0000
;

//---------------dance-single - Magna Trick----------------
#NOTES:
     dance-single:
     Magna Trick:
     Hard:
     12:
     0.468345,0.618504,0.481622,0.439375,0.253485,388.000000,331.000000,57.000000,52.000000,0.000000,0.000000,0.468345,0.618504,0.481622,0.439375,0.253485,388.000000,331.000000,57.000000,52.000000,0.000000,0.000000:
0000
0000
0000
0000
1000
0000
0000
0000
0010
0000
0000
1000
0000
0001
0000
0000
,
0100
0000
0000
0000
0220
0000
0000
0000
0000
0000
0000
0000
0330
1000
0010
0100
,
0001
1000
0010
0100
0002
0000
0000
0000
0000
0000
0000
0000
0000
0000
0000
0000
,
0000
0000
0000
0000
0003
0000
1100
0000
0000
1010
0000
0000
1001
0000
0000
0000
,
0000
0000
0000
0000
0000
0001
0010
0001
0000
0100
0001
0100
0000
1000
0100
1000
,
0000
0010
0000
0001
1000
0000
0000
0000
0010
0000
0000
0000
1000
0000
0000
0000
,
0011
0000
0000
0101
0000
0000
1001
0000
0000
0000
0000
0000
0001
0000
1000
0000
,
0100
0020
0000
0000
0000
0000
0031
0000
,
1100
0000
0000
0101
0000
0000
0110
0000
0000
0000
0000
0000
0001
0010
0100
1000
,
0001
0010
0100
0000
1000
0000
0000
0000
0010
0000
0100
0000
0001
0000
0100
0000
,
0000
0101
0000
0001
0000
1000
0100
0001
,
0100
0000
2000
0000
0000
0000
0000
0000
0000
0000
0000
3000
0010
0000
0000
0000
,
1010
0000
0000
0011
0000
0000
0110
0000
0100
0001
0000
0000
1000
0010
0000
0000
,
0001
1000
0000
0000
0010
0000
1000
0000
0100
0000
1000
0000
0001
0000
0000
0000
,
0101
0000
0000
0011
0000
0000
1001
0000
0000
0000
0000
0000
1000
0000
0100
0000
,
0010
0002
0000
0000
0000
0000
0103
0000
,
1010
0000
0000
1100
0000
0000
1001
0000
0000
0000
0000
0000
0000
0000
0000
0000
,
0010
0000
1000
0001
0010
1000
0001
0000
,
0101
0000
0000
1100
0000
0000
0110
0000
0000
0000
0000
0000
0001
0000
0010
0000
,
0100
2000
0000
0000
0000
3200
0000
0320
,
0032
0203
0300
2000
0000
3020
0000
0032
,
1003
0100
0010
0000
0001
1000
0000
0010
,
0100
2000
0000
3000
0100
0000
0001
0010
,
0100
0200
0000
0320
0000
0000
0000
0031
,
0001
0002
0000
0000
0000
0000
0003
1000
,
0010
1000
0010
0000
0001
0100
0000
0010
,
0100
2000
0000
0000
3001
0000
0010
0100
,
0010
0200
0000
2300
0000
0010
0010
0000
,
0001
3200
0000
0000
0000
0000
0310
0010
,
0010
0000
0020
0000
0000
0000
0000
0000
0000
0000
0031
0100
1000
0000
0000
0010
,
0100
2002
0000
0000
3003
0010
1000
0010
,
0001
2000
0000
3020
0000
0000
0000
0100
,
0130
0200
0000
0000
0301
0000
1000
0100
,
0001
0002
0000
0203
0000
0300
1000
0000
,
0101
0000
0000
0110
0000
0000
1010
0000
0000
0000
1000
0000
0001
0000
1000
0000
,
0001
0020
0000
0100
0030
0200
0000
1300
,
0001
0000
0100
0000
0010
0000
0000
0000
1000
0000
0000
0001
0000
0000
0000
0000
,
0000
0000
0010
0001
0010
0001
0000
0100
,
1000
0100
2002
0000
3003
0202
0000
0000
,
0303
0000
0000
0000
1010
0000
0100
0000
1001
0000
0000
0000
0001
0010
0001
0000
,
1000
0100
1000
0000
0001
0000
0010
0000
0101
0000
0100
0000
0010
0000
1000
0000
,
0001
0010
0010
0000
0000
0100
1000
0100
,
0001
0002
0000
0013
0200
0000
0310
0000
,
0101
0000
0000
0110
0000
0000
1100
0000
0000
0000
0001
0000
1000
0000
0010
0000
,
0010
0020
0000
1030
0100
0100
0002
0000
,
0013
0000
0200
0000
0000
0000
0000
0000
0310
0000
0000
0001
1000
0000
1000
0000
,
0000
0000
0002
0000
0000
0000
0000
0000
1000
1000
0000
1000
0003
0000
0100
0000
,
0010
0100
0000
0000
0001
0000
0100
0000
1000
0000
0020
0000
0000
0000
0130
1000
,
0100
1000
0001
0100
0010
0000
0000
0000
1000
0000
0000
0000
0000
0000
0001
0000
,
0001
0002
0023
0000
0000
0030
0000
0100
,
1000
0002
0000
0100
0100
0100
0100
0103
,
0000
0000
0000
0010
0000
0000
0000
0000
0000
0000
0000
0000
0000
0000
0001
1000
,
0000
0100
0010
0100
0010
0000
0101
0000
0000
0000
0101
0000
0000
0000
0101
0000
,
0001
1000
0000
0001
0000
0000
0110
0000
0000
0000
0110
0000
0000
0000
0110
1000
,
0100
0010
0001
1000
0100
0000
1100
0000
0000
0000
1100
0000
0110
0000
0000
0000
,
0101
0000
0000
1100
0000
0000
1001
0000
0010
0000
0200
0000
0000
0000
0302
0000
,
0000
0003
0000
1010
0100
1010
0000
1010
,
1000
0001
0000
1000
0000
0000
0110
0000
0000
0000
0110
0001
1000
0100
0010
0000
,
0001
0000
1000
0001
0000
0000
0000
0000
1000
0000
0000
0000
0011
0000
0000
0000
,
1100
0000
0000
1010
0000
0000
1001
0000
0100
0000
0020
0000
0000
0000
1030
0100
,
0010
0001
0100
0010
2000
0000
3000
0000
0220
0000
0000
0000
0000
0000
0000
0000
,
0330
0000
0000
0000
;
