#TITLE:Bboom Bboom;
#SUBTITLE:;
#ARTIST:MOMOLAND;
#TITLETRANSLIT:;
#SUBTITLETRANSLIT:;
#ARTISTTRANSLIT:;
#GENRE:;
#CREDIT:;
#BANNER:;
#BACKGROUND:Bboom Bboom.png;
#LYRICSPATH:;
#CDTITLE:;
#MUSIC:Bboom Bboom.mp3;
#OFFSET:1.699999;
#SAMPLESTART:67.699997;
#SAMPLELENGTH:12.000000;
#LASTBEATHINT:1.470231;
#SELECTABLE:YES;
#DISPLAYBPM:126.000000;
#BPMS:0.000000=126.019989
;
#STOPS:
;
#BGCHANGES:2.000=Bboom Bboom.avi=1.000=0=0=1=====,
99999=-nosongbg-=1.000=0=0=0 // don't automatically add -songbackground-
;
#KEYSOUNDS:;
#ATTACKS:;

//---------------dance-single - ----------------
#NOTES:
     dance-single:
     :
     Hard:
     11:
     0.479391,0.499886,0.238277,0.109210,0.089354,338.000000,314.000000,24.000000,11.000000,0.000000,0.000000,0.479391,0.499886,0.238277,0.109210,0.089354,338.000000,314.000000,24.000000,11.000000,0.000000,0.000000:
0000
0000
0000
0000
,
0000
0000
0000
0000
,
0000
0000
0000
0000
,
0000
0000
0000
0000
,
0000
0000
0000
0000
1000
0100
1000
0010
,
0100
0001
0000
0001
0100
0010
1000
0100
,
0010
0000
0000
0010
0010
0001
1000
0001
,
0100
0010
0000
0010
1000
0001
0100
0001
,
0010
0001
0001
1000
1001
0000
1001
0000
,
0010
1000
0000
1000
0010
0100
0001
0010
,
0100
0000
0000
0100
0100
1000
0001
1000
,
0010
0000
0000
0010
0000
0000
0000
1000
0000
0000
0100
0000
0100
0010
0000
0000
,
0001
0000
1000
0000
0110
0000
0110
1000
,
1000
0000
0001
0100
0001
0100
0010
1000
,
2000
0000
0001
0001
3001
0000
0000
1000
,
0001
0100
1000
0100
0010
0100
0001
1000
,
0200
0000
0010
0010
0310
0001
0100
0001
,
1000
0000
0100
0000
1000
0000
0010
0000
1000
0000
0000
1000
0000
0000
0100
0000
,
0010
0001
0000
0000
0100
0001
0000
0000
1000
0000
0001
0000
1000
0000
0100
0000
,
0001
0100
1000
1000
1000
0000
0000
0010
,
0001
1000
0100
0010
0002
0000
0003
0000
,
1100
0000
1100
0000
0001
0010
0001
0100
,
0101
0000
0101
0000
1000
0100
1000
0010
,
1010
0000
1010
0000
0010
0100
0010
0100
,
0001
1000
0000
0000
0001
1000
0000
0000
0001
1000
0000
0000
0001
0000
0000
0000
,
2000
0000
3200
0000
0302
0000
0003
0010
,
0001
0000
1000
0000
0001
0000
0100
0001
0000
0000
0010
0000
0010
0000
0001
0000
,
1000
0100
0010
0010
0010
0000
0000
0001
,
1000
2000
3020
0230
,
0301
0010
0001
0010
0001
0010
0001
0010
,
0100
1000
0100
1000
0100
1000
1000
1000
,
0000
0100
0100
0010
0010
0001
0001
0001
,
0000
1000
1000
0100
0001
0100
1000
0010
,
0100
0010
0100
0010
0100
0010
0100
0010
,
1000
0001
1000
0001
1000
0001
1000
0001
,
1000
0100
0010
0001
0010
0100
1000
0001
,
0110
0000
0000
0000
0100
0010
1000
0001
,
0010
0000
0100
0100
0100
0100
0100
0100
,
0100
0000
0000
0100
0000
0000
0000
0000
1000
0000
0001
0000
1000
0000
0100
0000
,
0010
0000
0001
0001
0001
0001
0001
0001
,
1001
0000
0000
0000
0010
0100
0001
1000
,
0100
0000
0010
0010
0010
0010
0010
0010
,
0010
0000
0000
0010
0000
0000
0010
0000
0001
0000
0001
0000
1000
0000
1000
0000
,
0110
0000
0000
0110
0000
0000
1000
0000
0001
0000
0001
0000
1000
0000
1000
0000
,
0110
0000
0000
0110
0000
0000
1000
0000
0000
1000
0000
0000
1001
0000
0000
0000
,
0010
1000
0000
1000
0010
0100
0001
0010
,
0100
0000
0000
0100
0100
1000
0001
1000
,
0010
0100
0000
0100
0001
1000
0010
1000
,
0100
1000
1000
0001
1001
0000
1001
0000
,
0100
0001
0000
0001
0100
0010
1000
0100
,
0010
0000
0000
0100
0010
0010
0100
0100
,
0011
0000
0000
0011
0000
0000
0000
0000
0100
0000
0100
0000
0010
0000
0010
0000
,
1100
0000
0000
1100
0000
0000
0001
0000
0000
0100
0000
0000
2002
0000
0000
0000
,
3003
0000
0000
0000
;

//---------------dance-single - ----------------
#NOTES:
     dance-single:
     :
     Challenge:
     14:
     0.568745,0.762984,0.019856,0.208493,0.387201,401.000000,399.000000,2.000000,21.000000,0.000000,0.000000,0.568745,0.762984,0.019856,0.208493,0.387201,401.000000,399.000000,2.000000,21.000000,0.000000,0.000000:
0000
0000
0000
0000
,
0000
0000
0000
0000
,
0000
0000
0000
0000
,
0000
0000
0000
0000
,
0000
0000
0000
0000
0000
0000
0000
0000
1000
0000
1000
0000
0001
0000
0100
0010
,
0100
0000
0001
0000
0000
0000
0001
0000
0100
0000
0100
0000
1000
0000
1000
0100
,
2000
0000
0000
0000
0000
0000
3100
0000
0001
0000
0001
0000
0010
0000
0010
0100
,
0010
0010
0000
0010
1000
0001
0100
1000
,
0100
0000
0010
0100
0010
0000
0100
0000
0011
0000
0000
0000
0011
0000
0001
0010
,
0001
0000
1000
0000
0000
0000
1000
0000
0010
0000
0001
0000
0010
0000
1000
0001
,
0200
0000
0000
0301
1000
0100
1000
0001
,
0100
0000
0000
0010
0000
0000
0000
1000
0000
0000
0001
0000
0001
0100
0000
0000
,
0002
0000
0000
1003
0100
0000
0100
0000
0010
0001
1000
0000
0010
0000
1000
0000
,
0001
0000
0010
0000
0001
0000
0100
0000
0010
0000
1000
0000
0100
0000
0010
0001
,
2000
0000
0010
0010
3010
0000
0000
0010
,
0100
0000
1000
0000
0001
0000
0010
0000
0001
0000
0100
0000
0001
0000
0100
0010
,
2000
0000
0100
0100
3100
0001
1000
0001
,
0100
0000
0100
0000
1000
0000
1000
0010
0100
0000
0000
0100
0000
0000
0100
0000
,
0010
1000
0000
0000
0100
0001
0000
0000
1000
0000
0001
0000
0100
0000
1000
0000
,
0001
0000
0100
0000
0010
0100
0010
0100
0020
0000
0000
0000
0000
0000
0130
0000
,
0001
0010
0100
1000
2000
0000
3000
0000
,
1000
0000
0100
0000
1000
0000
0010
0000
0100
0000
0010
0100
0001
0000
0010
0100
,
0001
0000
0010
0000
0001
0000
0100
0000
0001
0000
0010
0100
1000
0000
0010
0100
,
1000
0000
0001
0000
1000
0000
0001
0000
0010
0000
0001
0100
1000
0000
0100
0000
,
0001
0100
0000
0000
0100
1000
0000
0000
1000
0010
0000
0000
0001
0000
0000
0000
,
0020
0100
0032
1000
0203
0010
0300
0010
,
0100
0000
1000
0000
0001
0000
0100
1000
0000
0000
0100
0000
0100
0000
0001
0000
,
0001
0000
0001
0000
0010
0000
0010
0100
0020
0000
0000
0000
0000
0000
1030
0000
,
0010
0001
0200
0000
2300
0000
3200
0000
,
0301
0000
1000
0000
0100
0000
0010
0000
0100
0000
1000
0000
0010
0000
0100
1000
,
0001
0000
0100
0000
0001
0000
0010
0000
0001
0000
0100
0000
0010
0000
0001
1000
,
0100
0000
0010
0000
0001
0000
1000
0000
0010
0000
0100
0000
0001
0000
0010
0100
,
0001
0000
1000
0000
0010
0000
0100
0000
0001
0000
0100
0000
0010
0000
0100
1000
,
0001
0000
0010
0000
0100
1000
0001
0000
0010
0100
0001
0000
0100
0010
1000
0000
,
1000
0100
1000
0000
0001
0010
0001
0000
1000
0100
1000
0000
0001
0100
0001
0000
,
1000
0100
1000
0100
0010
0001
0010
0001
0010
0100
1000
0001
0100
0010
0100
0010
,
0200
0000
0000
0000
0300
0000
0000
0000
0001
0000
0100
0000
1000
0000
0010
0100
,
0002
0000
0000
0000
0103
0000
0001
0100
1000
0000
0100
0001
0010
0000
0100
1000
,
0100
0000
0000
0100
0000
0000
0000
0000
1000
0000
0010
0000
0001
0000
0100
0010
,
2000
0000
0000
0000
3001
0000
0100
0010
0100
0000
0100
0001
0100
0000
0100
1000
,
0200
0000
0000
0000
0300
0000
0000
0000
0010
0000
0100
0000
1000
0000
0010
0100
,
0002
0000
0000
0000
0013
0000
1000
0010
0001
0000
1000
0100
0001
0000
0100
1000
,
0010
0000
0000
0010
0000
0000
0010
0000
1000
0000
0100
0000
0001
0000
0010
0000
,
0100
0000
0010
0100
0000
0000
1000
0000
0001
0000
0100
0000
1000
0000
0010
0000
,
0001
0000
0100
0001
0000
0001
1000
0000
0001
0010
0100
1000
0010
0000
0100
0000
,
0010
0000
1000
0000
0000
0000
1000
0000
0100
0000
0010
0000
0001
0000
0010
0100
,
2000
0000
0000
0000
0000
0000
3100
0000
1000
0000
1000
0000
0001
0000
0100
1000
,
0100
0100
0000
0100
0001
1000
0100
0001
,
0100
0000
1000
0001
0100
0000
0001
0000
1000
0000
0000
0000
1000
0000
0100
1000
,
0001
0000
0001
0000
0000
0000
0001
0000
1000
0000
0100
0000
0010
0000
0100
1000
,
0100
0000
0000
0100
0010
0100
1000
0010
,
0001
0000
1000
0100
0000
0000
0000
0000
0001
0000
0100
0010
0100
0000
0010
0000
,
0100
0000
0100
0001
0000
0001
0010
0000
0010
0100
0000
0100
2000
0000
0000
0000
,
3000
0000
0000
0000
;

//---------------dance-single - ----------------
#NOTES:
     dance-single:
     :
     Medium:
     9:
     0.391455,0.420956,0.238277,0.109210,0.024821,276.000000,252.000000,24.000000,11.000000,0.000000,0.000000,0.391455,0.420956,0.238277,0.109210,0.024821,276.000000,252.000000,24.000000,11.000000,0.000000,0.000000:
0000
0000
0000
0000
,
0000
0000
0000
0000
,
0000
0000
0000
0000
,
0000
0000
0000
0000
,
0000
0000
0000
0000
0010
1000
0010
1000
,
0010
1000
0000
0001
0100
0001
0100
0001
,
0100
0000
0000
0001
0010
0001
0010
0001
,
0010
0001
0000
1000
0100
1000
0100
1000
,
0100
0100
1001
1001
,
0001
0000
0000
0010
0001
1000
0100
0010
,
0001
0000
0000
1000
0100
0000
0010
0000
,
0001
1000
0001
1000
,
0100
0010
1001
1001
,
0010
0000
0100
1000
0100
1000
0010
0100
,
0002
0000
0100
0000
0103
0000
0000
0010
,
0100
0000
0010
0001
0010
0001
0100
0010
,
2000
0010
3010
1000
,
0010
0000
0000
0000
0010
0000
0000
0000
0010
0000
0000
0010
0000
0000
0000
0000
,
1100
0101
0110
0110
,
0100
0000
1000
0100
1000
0000
0000
0001
,
0100
0010
0200
0000
0300
0000
0000
0000
,
0110
0000
0110
0000
1000
0001
1000
0000
,
0110
0000
0110
0000
0001
1000
0001
0000
,
1001
0000
1001
0000
0010
0100
0010
0000
,
1000
0100
0010
0011
,
0020
0000
2030
0000
3200
0000
0300
0001
,
0100
0100
0100
0010
,
0010
1000
0001
0000
1000
0001
0100
0000
,
0010
0020
0032
2003
,
3100
0001
0100
0000
0010
1000
0010
0000
,
1000
0100
1000
0000
0001
0010
0001
0000
,
1000
1100
0001
0101
,
0010
1000
0100
0001
,
1000
0001
1000
0000
0001
1000
0001
0000
,
0010
0100
0010
0000
0100
0010
0100
0000
,
0010
1000
0001
0100
0001
1000
0010
0100
,
0100
0000
0000
0000
1000
0100
1000
0000
,
0011
0000
1000
0100
1000
0100
1000
0100
,
1000
0000
0000
0000
0010
0100
0010
0000
,
1001
0000
0001
0100
0001
0100
0001
0100
,
0001
0000
0000
0000
0001
1000
0100
0000
,
1100
0000
0001
1000
0001
1000
0001
1000
,
0001
0000
0000
0001
0100
0010
0100
0000
,
0010
0000
0000
0010
0000
0000
0000
0000
0100
0000
0010
0000
0100
0000
0000
0000
,
0010
0000
0000
0010
0000
0000
0000
0000
0010
0000
0000
0000
0110
0000
0000
0000
,
0100
0001
0000
1000
0010
1000
0010
1000
,
0010
0000
0000
1000
0100
1000
0100
1000
,
0100
1000
0000
0001
0010
0001
0010
0001
,
0010
0010
1001
1001
,
1000
0100
0000
1000
0001
1000
0001
1000
,
0001
0000
0000
0000
0010
0100
0010
0000
,
0100
0000
0000
0100
0000
0000
0000
0000
0010
0000
0100
0000
0010
0000
0000
0000
,
0100
0000
0000
0100
0000
0000
0000
0000
0100
0000
0000
0000
0220
0000
0000
0000
,
0330
0000
0000
0000
;

//---------------dance-single - ----------------
#NOTES:
     dance-single:
     :
     Easy:
     6:
     0.246787,0.368337,0.198564,0.109210,0.000000,174.000000,154.000000,20.000000,11.000000,0.000000,0.000000,0.246787,0.368337,0.198564,0.109210,0.000000,174.000000,154.000000,20.000000,11.000000,0.000000,0.000000:
0000
0000
0000
0000
,
0000
0000
0000
0000
,
0000
0000
0000
0000
,
0000
0000
0000
0000
,
0000
0000
0100
0100
,
0100
0000
0010
0010
,
0010
0000
0100
0100
,
0100
0000
0010
0010
,
0010
0010
1001
1001
,
1000
0000
1000
0010
,
1000
0000
0001
0100
,
0001
0000
1000
0001
,
0010
0100
1001
1001
,
0100
0100
0010
0010
,
2000
0000
3000
0000
,
0010
0010
0100
0100
,
0002
0000
0003
0001
,
0100
0100
0100
0000
,
1000
0001
0100
0110
,
0010
1000
0010
0000
,
0010
0010
0010
0000
,
0110
1001
0100
0100
,
1001
0110
0010
0010
,
0110
1001
0100
0100
,
0001
0001
0001
1100
,
0200
0000
0010
0000
0020
0000
0000
0330
,
0010
0010
0010
0000
,
0100
1000
0001
0010
,
0100
0001
0010
0100
,
2002
0000
0000
3003
,
0001
0001
1000
0000
,
0001
0001
1000
1000
,
0100
0100
0010
0010
,
0001
0010
0100
1000
,
0001
0010
0100
1000
,
0220
0000
0000
0000
,
0330
0000
0000
0000
,
0100
0001
0001
0001
,
0001
0000
0100
0100
,
0100
0010
0010
0010
,
0020
0030
1000
1000
,
1000
0001
0010
0100
,
1000
0000
0010
0010
,
0110
0000
0100
0100
,
0110
0000
0000
0110
,
0010
0000
0100
0100
,
0100
0000
0010
0010
,
0010
0000
0100
0100
,
0100
0100
1001
1001
,
0001
0000
1000
1000
,
1000
0000
0100
0100
,
0010
0000
0100
0100
,
0010
0000
0010
0220
,
0330
0000
0000
0000
;

//---------------dance-single - ----------------
#NOTES:
     dance-single:
     :
     Beginner:
     3:
     0.165943,0.236788,0.158852,0.168780,0.000000,117.000000,101.000000,16.000000,17.000000,0.000000,0.000000,0.165943,0.236788,0.158852,0.168780,0.000000,117.000000,101.000000,16.000000,17.000000,0.000000,0.000000:
// measure 0
0000
0000
0000
0000
,  // measure 1
0000
0000
0000
0000
,  // measure 2
0000
0000
0000
0000
,  // measure 3
0000
0000
0000
0000
,  // measure 4
0000
0000
0000
0000
,  // measure 5
1000
0000
0010
0010
,  // measure 6
0010
0000
0001
0000
,  // measure 7
0001
0000
0010
0000
,  // measure 8
0010
0000
1001
1001
,  // measure 9
1000
0000
0001
0001
,  // measure 10
0001
0000
0001
0000
,  // measure 11
1000
0000
1000
0000
,  // measure 12
0010
0000
1001
1001
,  // measure 13
1000
0000
1000
0000
,  // measure 14
0002
0000
0000
0003
,  // measure 15
0001
0000
0001
0000
,  // measure 16
2000
0000
0000
3000
,  // measure 17
1000
0000
0001
0000
,  // measure 18
0010
0000
0100
0000
,  // measure 19
0001
0001
0001
0000
,  // measure 20
1000
1000
1000
0000
,  // measure 21
0010
0010
0000
0000
,  // measure 22
0100
0100
0000
0000
,  // measure 23
0001
0001
0000
0000
,  // measure 24
1000
0000
1000
1001
,  // measure 25
2000
0000
0000
0000
0000
0000
0000
3000
,  // measure 26
0001
0000
0001
0000
,  // measure 27
1000
0000
0100
0000
,  // measure 28
1000
0000
0001
0000
,  // measure 29
0220
0000
0000
0330
,  // measure 30
2002
0000
0000
3003
,  // measure 31
0100
0000
0010
0000
,  // measure 32
1000
0000
0001
0000
,  // measure 33
0220
0000
0000
0330
,  // measure 34
2002
0000
0000
3003
,  // measure 35
2002
0000
0000
0000
,  // measure 36
3003
0000
0000
0000
,  // measure 37
1000
0000
0100
0100
,  // measure 38
0100
0000
0001
0000
,  // measure 39
1000
0000
1000
1000
,  // measure 40
2000
3000
0010
0000
,  // measure 41
0010
0000
0100
0100
,  // measure 42
0200
0300
0010
0000
,  // measure 43
1001
0000
0100
0000
,  // measure 44
1001
0000
1001
0000
,  // measure 45
0001
0000
0100
0100
,  // measure 46
0100
0000
1000
0000
,  // measure 47
1000
0000
0100
0000
,  // measure 48
0100
0000
1001
1001
,  // measure 49
0100
0000
0010
0010
,  // measure 50
0010
0000
1000
1000
,  // measure 51
1000
0000
0001
0001
,  // measure 52
0001
0000
0000
2002
,  // measure 53
3003
0000
0000
0000
;
