#VERSION:0.83;
#TITLE:BAAM;
#SUBTITLE:;
#ARTIST:MOMOLAND;
#TITLETRANSLIT:;
#SUBTITLETRANSLIT:;
#ARTISTTRANSLIT:;
#GENRE:;
#ORIGIN:;
#CREDIT:;
#BANNER:;
#BACKGROUND:;
#PREVIEWVID:;
#JACKET:BAAM-jacket.png;
#CDIMAGE:;
#DISCIMAGE:;
#LYRICSPATH:;
#CDTITLE:;
#MUSIC:BAAM.mp3;
#OFFSET:1.619999;
#SAMPLESTART:67.349998;
#SAMPLELENGTH:12.000000;
#SELECTABLE:YES;
#BPMS:0.000=127.010;
#STOPS:;
#DELAYS:;
#WARPS:;
#TIMESIGNATURES:0.000=4=4;
#TICKCOUNTS:0.000=4;
#COMBOS:0.000=1;
#SPEEDS:0.000=1.000=0.000=0;
#SCROLLS:0.000=1.000;
#FAKES:;
#LABELS:0.000=Song Start;
#BGCHANGES:3.000=BAAM.mp4=1.000=0=0=1=====,
99999=-nosongbg-=1.000=0=0=0 // don't automatically add -songbackground-
;
#KEYSOUNDS:;
#ATTACKS:
;

//---------------dance-single - ----------------
#NOTEDATA:;
#CHARTNAME:;
#STEPSTYPE:dance-single;
#DESCRIPTION:;
#CHARTSTYLE:;
#DIFFICULTY:Hard;
#METER:12;
#RADARVALUES:0.475478,0.548550,0.189974,0.144380,0.041794,438.000000,413.000000,25.000000,19.000000,0.000000,0.000000,0.000000,0.000000,0.000000,0.475478,0.548550,0.189974,0.144380,0.041794,438.000000,413.000000,25.000000,19.000000,0.000000,0.000000,0.000000,0.000000,0.000000;
#CREDIT:;
#DISPLAYBPM:127.000000;
#NOTES:
0000
0000
0000
0000
,
0000
0000
0000
0000
,
0000
0000
0000
0000
,
0000
0000
0000
0000
,
0000
0000
0000
0000
,
2000
0000
3100
0010
0100
1000
0000
1000
,
0002
0000
0103
0010
0100
0001
0000
0001
,
0200
0000
0310
1000
0100
0010
0010
0010
,
0100
1001
0100
1001
,
0120
0000
0130
0001
0010
1000
0010
0001
,
0210
0000
0301
1000
0010
0001
0010
1000
,
1002
0000
1003
0100
0010
0001
0001
0001
,
1000
0110
0001
0110
,
1000
0000
0100
0000
0010
0001
0010
0000
,
0001
0100
0001
0100
0010
1000
0010
1000
,
0001
0000
1000
0000
0001
1000
0100
1000
,
0001
0100
0000
1000
0001
0100
0000
0000
,
0001
0000
0101
0000
0010
1000
0100
0000
,
0010
0100
0010
0001
0010
0100
1000
0100
,
0010
0000
0010
0000
0010
0001
0100
0010
,
1000
0100
0000
0000
0100
0010
0001
0020
,
0000
0100
0100
0130
1000
0010
0100
0020
,
0000
1000
1000
1030
0100
0010
0001
0010
,
0000
0100
1000
0100
0000
0010
0001
0010
,
0001
0100
0010
0000
1000
0100
0010
0000
0001
0100
0010
0000
1001
0000
2000
0000
,
0000
3100
0000
0100
0010
0001
0001
0001
,
0000
1000
0000
0000
0000
0100
0010
0100
,
0000
0010
0001
0010
0100
0010
0100
0010
,
0000
0010
1000
0100
0010
0000
0010
0000
,
1000
0100
1000
0100
0001
0100
0001
0100
,
0001
0010
0001
0010
0001
1000
1000
0000
,
0001
0100
0001
0100
1000
0100
1000
0100
,
1000
0000
0000
2000
0010
0010
3010
0000
,
0100
0001
0010
0100
1000
0010
0000
0000
,
1000
0010
0100
0001
0010
0100
0000
0000
,
1000
0010
0001
0010
1000
0100
0001
0100
,
2000
0000
0000
0000
3001
0001
0010
0001
,
0100
0010
0010
0010
0010
1000
0010
1000
,
0100
0010
0010
0010
0010
0000
0010
0010
,
0001
0010
0100
1000
0010
0100
0000
0100
,
0000
0100
0100
0001
0001
0010
0100
1000
,
0110
0100
0001
0001
0001
1000
0010
1000
,
0110
0100
0010
0001
1000
0100
0000
0000
,
0100
1000
0001
0100
0010
1000
0000
0100
,
0000
0100
0001
0100
0000
0100
1000
0100
,
1000
0100
0000
0000
0010
0001
0000
0000
0100
0000
0000
0000
0000
0000
0100
0000
,
0010
1000
0100
0010
0001
0010
0001
0100
,
0010
0000
0000
0010
0000
0000
1000
0000
0100
0000
0000
0100
0000
0000
0200
0000
,
1000
0010
0001
0310
,
0001
0000
0000
0000
0010
1000
0000
0000
0100
0000
0000
0000
0000
0000
0100
1000
,
0010
0100
0001
0001
1000
0010
1000
0100
,
0011
0000
0000
0110
0000
0000
0011
0000
1100
0000
0000
1001
0000
0000
0200
0000
,
1000
0000
0010
0000
0301
0100
0010
1000
,
0010
0100
0100
0100
0100
0001
0100
0001
,
0010
0100
0100
0100
0100
0000
0100
0100
,
1000
0100
0010
0001
0100
0010
0000
0010
,
0000
0010
0010
1000
1000
0100
0010
0001
,
0110
0010
1000
1000
1000
0001
0100
0001
,
0110
0010
0100
1000
0001
0010
0000
0000
,
0010
0001
1000
0010
0100
0001
0000
0010
,
0000
0010
1000
0010
0000
0010
0001
0100
,
0002
0000
0013
0100
0010
0001
0000
0001
,
2000
0000
3010
0100
0010
1000
0000
1000
,
0020
0000
0130
0001
0010
0100
0100
0100
,
0010
1001
0010
1001
,
0210
0000
0310
1000
0100
0001
0100
1000
,
0120
0000
1030
0001
0100
1000
0100
0001
,
2001
0000
3001
0010
0100
1000
1000
1000
,
0001
0110
1000
0110
;

//---------------dance-single - ----------------
#NOTEDATA:;
#CHARTNAME:;
#STEPSTYPE:dance-single;
#DESCRIPTION:;
#CHARTSTYLE:;
#DIFFICULTY:Medium;
#METER:10;
#RADARVALUES:0.370178,0.365700,0.106385,0.144380,0.015198,341.000000,327.000000,14.000000,19.000000,0.000000,0.000000,0.000000,0.000000,0.000000,0.370178,0.365700,0.106385,0.144380,0.015198,341.000000,327.000000,14.000000,19.000000,0.000000,0.000000,0.000000,0.000000,0.000000;
#CREDIT:;
#DISPLAYBPM:127.000000;
#NOTES:
0000
0000
0000
0000
,
0000
0000
0000
0000
,
0000
0000
0000
0000
,
0000
0000
0000
0000
,
0000
0000
0000
0000
,
2000
0000
0000
3010
0100
0010
0000
0100
,
0002
0000
0000
0013
0100
0010
0000
0100
,
2000
0000
0000
3100
0010
0001
0010
0001
,
0100
0110
0100
0110
,
0002
0000
0000
0103
0010
0100
0000
0010
,
2000
0000
0000
3100
0010
0100
0000
0010
,
0002
0000
0000
0013
0100
1000
0100
1000
,
0010
0110
0001
0110
,
1000
0000
1000
0000
0010
0100
0010
0000
,
1000
0100
1000
0000
0010
1000
0010
0000
,
0100
0000
0100
0000
0010
0100
0001
0000
,
0001
0100
0000
0000
1000
0100
0000
0000
,
0010
0000
0010
0000
0001
1000
0001
0000
,
0010
1000
0010
0000
0001
0010
0001
0000
,
1000
0000
1000
0000
0001
1000
0100
0000
,
0100
1000
0000
0000
0100
0010
0100
2000
,
0000
0100
3100
0000
0010
0001
0100
0020
,
0000
0100
0130
0000
0001
0100
0010
1000
,
0000
0001
0100
0010
0000
0010
1000
0100
,
0001
0000
0001
0000
0001
0100
1000
0000
,
1000
0000
1000
0100
0010
0001
0001
0100
,
0000
0010
0000
0000
0000
0100
0010
0100
,
0010
0000
0110
0000
0100
0010
0100
0000
,
0010
1000
0100
0000
0010
0000
0110
0000
,
1000
0100
0001
0000
1000
0100
0001
0000
,
1000
0100
0001
0000
1000
1000
1000
0000
,
0001
0100
1000
0000
0001
0100
1000
0000
,
0020
0000
0000
1030
0100
1000
0100
0000
,
0100
0001
0010
0000
0001
0000
1010
0000
,
1000
0010
0100
0000
0001
0000
1100
0000
,
1000
0010
0100
0000
0001
0100
0010
0000
,
2000
0000
0002
3003
,
0100
0000
0010
1000
0010
0000
1000
0000
,
1000
0000
0001
0100
0001
0000
0010
0100
,
1000
0000
0010
0100
0001
1000
0000
1000
,
0000
1000
0100
0000
0001
0100
1000
0000
,
1010
0000
0100
0001
0100
0000
0010
1000
,
1000
0000
0100
1000
0010
0100
0000
0000
,
0100
0100
0001
0000
0010
0010
0100
0100
,
0000
0010
0000
0100
0000
1000
0000
0001
,
0100
0000
0100
0000
0010
0000
0000
0100
,
0010
0000
0100
0010
1000
0000
0010
0100
,
0001
0000
0000
0001
0000
0000
0010
0000
0100
0000
0000
0100
0000
0000
2000
0000
,
0000
0000
0000
3000
,
0010
0000
0010
0000
0100
0000
0000
0010
,
0100
0000
0010
0100
0001
0000
0100
0010
,
1000
0000
0000
1000
0000
0000
0100
0000
0010
0000
0000
0010
0000
0000
0002
0000
,
0000
0000
0000
0003
,
0010
0000
0100
0001
0100
0000
0001
0000
,
0001
0000
1000
0010
1000
0000
0100
0010
,
0001
0000
0100
0010
1000
0001
0000
0001
,
0000
0001
0010
0000
1000
0010
0001
0000
,
0101
0000
0010
1000
0010
0000
0100
0001
,
0001
0000
0010
0001
0100
0010
0000
0000
,
0010
0010
1000
0000
0100
0100
0010
0010
,
0000
0100
0000
0010
0000
0001
0000
1000
,
0002
0000
0000
0103
0010
0100
0000
0010
,
2000
0000
0000
3100
0010
0100
0000
0010
,
0002
0000
0000
0013
0100
1000
0100
1000
,
0010
0110
0010
0110
,
2000
0000
0000
3010
0100
0010
0000
0100
,
0002
0000
0000
0013
0100
0010
0000
0100
,
2000
0000
0000
3100
0010
0001
0010
0001
,
0100
0110
1000
0110
;

//---------------dance-single - ----------------
#NOTEDATA:;
#CHARTNAME:;
#STEPSTYPE:dance-single;
#DESCRIPTION:;
#CHARTSTYLE:;
#DIFFICULTY:Easy;
#METER:8;
#RADARVALUES:0.311557,0.365700,0.303958,0.129182,0.000000,287.000000,247.000000,40.000000,17.000000,0.000000,0.000000,0.000000,0.000000,0.000000,0.311557,0.365700,0.303958,0.129182,0.000000,287.000000,247.000000,40.000000,17.000000,0.000000,0.000000,0.000000,0.000000,0.000000;
#CREDIT:;
#DISPLAYBPM:127.000000;
#NOTES:
0000
0000
0000
0000
,
0000
0000
0000
0000
,
0000
0000
0000
0000
,
0000
0000
0000
0000
,
0000
0000
0000
0000
,
0012
0013
0001
0011
,
2010
3010
1000
1010
,
0120
0130
0010
1000
,
0100
1001
0010
1001
,
0201
0310
0010
0110
,
2010
3100
0010
0011
,
0102
0013
0100
1100
,
1000
0110
0001
0110
,
1000
1000
0010
0010
,
0100
0100
0010
0010
,
0001
1000
0001
1000
,
1000
0000
1000
0000
,
0001
1000
0010
0010
,
1000
1001
0010
0010
,
0001
1000
0001
1000
,
1000
0000
0100
0100
,
1001
0100
0010
0010
,
0110
0100
0001
0001
,
1000
0100
0000
1000
,
1000
1000
1000
1000
,
0110
0000
1000
0000
0010
0000
0001
0100
,
0000
0010
0000
0000
0000
0000
1000
0000
,
1000
0100
0100
0110
,
0010
0001
1000
0110
,
1000
0100
1000
0000
0001
0100
0001
0000
,
1000
0100
1000
0000
0001
0001
0001
0000
,
0001
0100
0001
0000
1000
0100
1000
0000
,
0020
0000
0000
0030
0100
0010
0100
0000
,
0100
0010
1000
1010
,
1000
0100
0010
0011
,
1000
1000
0001
0001
,
0200
0000
0020
0330
,
0001
0100
0100
0010
,
0010
1000
1000
0000
,
0010
0000
0100
0000
1000
0010
0000
0010
,
0000
0010
0001
0000
1000
0000
1000
0000
,
1010
0001
0001
0100
,
0010
0000
0001
0000
0100
0001
0000
0000
,
0001
1000
0100
0001
,
0000
0100
0000
0001
0000
0010
0000
1000
,
0001
0001
0100
0000
,
0100
0100
0010
0100
,
0001
0001
0001
0001
,
0002
0000
0000
0003
,
1000
1000
0010
0000
,
0010
0010
0100
0010
,
1000
1000
1000
1000
,
2000
0000
0000
3000
,
0001
0100
0100
0010
,
0010
1000
1000
0000
,
0010
0000
0100
0000
1000
0010
0000
0010
,
0000
0010
0001
0000
1000
0000
1000
0000
,
1010
0001
0001
0100
,
0010
0000
0001
0000
0100
0001
0000
0000
,
0001
1000
0100
0001
,
0000
0100
0000
0001
0000
0010
0000
1000
,
2100
3100
1000
1100
,
0102
0103
0001
0101
,
0210
0310
0100
0001
,
0010
1001
0100
1001
,
1020
0130
0100
0110
,
0102
0013
0100
1100
,
2010
3100
0010
0011
,
0001
0110
1000
0110
;

//---------------dance-single - ----------------
#NOTEDATA:;
#CHARTNAME:;
#STEPSTYPE:dance-single;
#DESCRIPTION:;
#CHARTSTYLE:;
#DIFFICULTY:Beginner;
#METER:4;
#RADARVALUES:0.180204,0.208971,0.060792,0.121583,0.000000,166.000000,158.000000,8.000000,16.000000,0.000000,0.000000,0.000000,0.000000,0.000000,0.180204,0.208971,0.060792,0.121583,0.000000,166.000000,158.000000,8.000000,16.000000,0.000000,0.000000,0.000000,0.000000,0.000000;
#CREDIT:;
#DISPLAYBPM:127.000000;
#NOTES:
// measure 0
0000
0000
0000
0000
,  // measure 1
0000
0000
0000
0000
,  // measure 2
0000
0000
0000
0000
,  // measure 3
0000
0000
0000
0000
,  // measure 4
0000
0000
0000
0000
,  // measure 5
0020
0030
0010
0010
,  // measure 6
2000
3000
1000
1000
,  // measure 7
0002
0003
0001
0001
,  // measure 8
0000
1001
0000
1001
,  // measure 9
0200
0300
0100
0100
,  // measure 10
0002
0003
0001
0001
,  // measure 11
2000
3000
1000
1000
,  // measure 12
0000
1001
0000
1001
,  // measure 13
0100
0000
0010
0000
,  // measure 14
0100
0000
0010
0000
,  // measure 15
0010
0000
0010
0000
,  // measure 16
0001
0000
0100
0000
,  // measure 17
0100
0000
0010
0000
,  // measure 18
0001
0000
0010
0000
,  // measure 19
0010
0000
0010
0000
,  // measure 20
0010
0000
1000
1000
,  // measure 21
0100
0000
0010
0010
,  // measure 22
0001
0000
0010
1000
,  // measure 23
0000
0010
0000
0100
,  // measure 24
0010
0010
0010
0000
,  // measure 25
0010
0000
0100
0000
,  // measure 26
1000
0000
1000
0000
,  // measure 27
0010
0000
0100
0000
,  // measure 28
0001
0000
0100
0000
,  // measure 29
1000
1000
0001
0001
,  // measure 30
1000
1000
0010
0000
,  // measure 31
0100
0100
0010
0010
,  // measure 32
1000
0000
0100
0001
,  // measure 33
0000
1000
0000
0010
,  // measure 34
0000
1000
0000
0010
,  // measure 35
0001
0000
0100
0000
,  // measure 36
2000
0000
0002
3003
,  // measure 37
0010
0010
0010
0000
,  // measure 38
0100
0100
0100
0000
,  // measure 39
0010
0000
0001
0000
,  // measure 40
1000
0000
0010
0000
,  // measure 41
0100
0100
0100
0000
,  // measure 42
0010
0010
0010
0000
,  // measure 43
0100
0000
0001
0010
,  // measure 44
0100
0000
0010
0000
,  // measure 45
1000
1000
0000
0000
,  // measure 46
0001
0001
0000
0000
,  // measure 47
0010
0000
0001
0000
,  // measure 48
0020
0000
0000
0030
,  // measure 49
0001
0001
0000
0000
,  // measure 50
1000
1000
0000
0000
,  // measure 51
0010
0000
1000
0000
,  // measure 52
0200
0000
0000
0300
,  // measure 53
0010
0010
0010
0000
,  // measure 54
0100
0100
0100
0000
,  // measure 55
0010
0000
0001
0000
,  // measure 56
1000
0000
0010
0000
,  // measure 57
0100
0100
0100
0000
,  // measure 58
0010
0010
0010
0000
,  // measure 59
0100
0000
0001
0010
,  // measure 60
0100
0000
0010
0000
,  // measure 61
0020
0030
0010
0010
,  // measure 62
2000
3000
1000
1000
,  // measure 63
0002
0003
0001
0001
,  // measure 64
0000
1001
0000
1001
,  // measure 65
0200
0300
0100
0100
,  // measure 66
0002
0003
0001
0001
,  // measure 67
2000
3000
1000
1000
,  // measure 68
0000
1001
0000
1001
;
