#TITLE:CLAMARE;
#SUBTITLE:;
#ARTIST:MAX MAXIMIZER;
#TITLETRANSLIT:;
#SUBTITLETRANSLIT:;
#ARTISTTRANSLIT:;
#GENRE:;
#CREDIT:;
#BANNER:CLAMARE.png;
#BACKGROUND:CLAMARE-bg.png;
#LYRICSPATH:;
#CDTITLE:;
#MUSIC:CLAMARE.ogg;
#OFFSET:0.000000;
#SAMPLESTART:28.924000;
#SAMPLELENGTH:17.143000;
#SELECTABLE:YES;
#DISPLAYBPM:*;
#BPMS:0.000000=56.000000
,17.000000=112.000000
,34.000000=224.000000
,98.000000=448.000000
,234.000000=28.000000
,238.000000=112.000000
,257.000000=448.000000
,392.000000=224.000000
,437.000000=896.000000
;
#STOPS:33.000000=1.600000
;
#BGCHANGES:;
#KEYSOUNDS:;
#ATTACKS:;

//---------------dance-single - ----------------
#NOTES:
     dance-single:
     :
     Medium:
     10:
     0.714588,1.000000,0.240566,0.315224,0.157612,536.000000,29.000000,38.000000,0.000000,0.000000,0.000000,0.714588,1.000000,0.240566,0.315224,0.157612,536.000000,29.000000,38.000000,0.000000,0.000000,0.000000:
0000
0000
0000
0000
0000
0000
1000
2000
0000
0000
0000
0000
3001
0002
0000
0000
0000
0000
1003
2000
0000
0000
0000
3000
,
0010
0020
0000
0000
0000
0000
0130
0200
0000
0000
0000
0010
0320
0000
0000
0000
0000
0000
1030
2000
0000
0000
0000
0000
,
3001
0000
0000
0001
0000
0000
0001
0000
0000
0001
0000
0000
0001
0000
0200
0000
0000
0000
0000
0000
0000
0000
0000
0000
0301
0000
0020
0000
0000
0000
0000
0000
0000
0000
0000
0000
0130
0000
2000
0000
0000
0000
0000
0000
0000
0000
3000
0000
,
1000
0002
0000
0000
0010
0000
0103
0020
0000
0000
0000
0000
0031
2000
0000
0000
0000
3000
0010
0200
0000
0000
0000
0300
,
2000
0010
0000
0000
0001
3000
1010
0000
0000
0000
0000
0000
1000
0000
0000
0000
0000
0000
0101
0000
0000
0000
0000
0000
,
0001
0011
0100
0110
,
1000
1001
0011
0110
,
1100
0000
0000
0000
0101
0000
1010
0000
1100
0000
0011
0000
1000
0001
1000
0001
,
1000
0001
1000
0001
2002
3003
0000
0000
1000
0000
0001
0000
1000
0000
0010
0000
,
0100
0010
1000
0001
1000
0010
0100
0001
,
0001
1000
0001
0100
0010
1000
0100
1000
,
0001
0100
0001
0010
0001
0100
0010
1000
,
0100
0010
0100
1000
0001
0100
0010
1000
,
0010
0001
0010
1000
0100
0100
0010
0010
,
0001
0100
0100
0010
0200
0000
1000
0000
,
0001
0000
0310
0000
0010
1000
0010
1000
,
0010
0100
0010
0001
1000
0010
0100
0001
,
0010
0100
1000
0100
1000
0010
0100
0001
,
0010
0100
0010
0001
1000
0010
0100
0010
,
1000
0100
1000
0100
1000
0010
0100
0010
,
1000
0001
0010
0100
1000
0100
0010
0100
,
0010
1000
0001
0001
0100
0010
1000
0010
,
0001
0010
1000
0100
0010
0010
0100
1000
,
0001
0010
0001
1000
0010
1000
0100
1000
,
0001
0100
0001
0001
1000
0000
0001
0000
,
0100
0010
1000
0001
,
0010
0100
1000
0100
,
0001
0100
1000
0010
,
0100
0001
0010
0100
,
0100
0010
0001
1000
,
0010
0100
0001
1000
,
0001
0100
0001
0010
,
0100
1000
0001
1000
,
0010
0100
0001
1000
,
0100
0010
0001
0001
,
0010
0010
0100
0100
,
1000
0001
0100
0010
,
1000
0010
0001
0010
,
0100
0010
1000
0100
,
1000
0010
0100
0001
,
0010
0100
1000
0100
,
0001
0100
1000
0010
,
0001
0010
1000
0010
,
0100
0001
0010
0100
,
0010
0001
0100
0001
,
1000
0010
1000
1000
,
0001
1000
1000
0100
,
0100
0010
0001
1000
,
0010
0100
0001
0010
,
0100
1000
0001
0100
,
0010
0010
1000
0001
,
0010
0100
1000
0001
,
0100
0010
2002
0000
,
0000
0000
0000
0000
,
3003
0000
1000
0001
1000
0001
1000
0001
,
1000
0001
1000
0001
1000
0001
1000
0001
,
1000
0001
1000
0000
0220
0000
0000
0000
,
0000
0000
0000
0000
,
0000
0000
0000
0330
2002
3003
2200
3300
,
0202
0000
0303
0000
2020
0000
3030
0000
0101
0000
1000
0001
0100
0000
0001
1000
,
0100
0000
0010
0001
0100
0000
0001
1000
0010
0000
0100
0000
0010
1000
0001
0100
,
0010
0000
1000
0100
0010
0100
1000
0001
0100
0001
0010
0100
1000
0001
1000
0000
,
1000
0100
1000
0000
0001
0010
0001
0010
0020
0000
0000
0000
0000
0000
0030
0000
,
0002
0000
0000
0000
,
0000
1003
0001
0100
,
0001
1000
0001
1000
,
0010
1000
0100
0001
,
0100
0100
0010
0001
,
1000
0010
0100
0001
,
0010
0100
1000
0001
,
0100
0010
0100
0001
,
0010
0001
1000
1000
,
0010
0100
0001
0010
,
0100
1000
0100
0010
,
0100
1000
0100
1000
,
0010
0100
0100
0001
,
0010
0001
1000
0001
,
0100
0001
0100
0010
,
0100
0010
1000
0010
,
1000
0001
0100
0001
,
0100
0010
0100
0010
,
1000
0100
0001
0100
,
1000
1000
0001
0010
,
0100
1000
0100
0010
,
0100
1000
0100
1000
,
0001
1000
0010
0100
,
0001
0100
0010
1000
,
0010
0100
0001
0100
,
0010
1000
0001
0010
,
0100
1000
1000
0010
,
0100
0001
1000
0010
,
0100
0010
0001
0010
,
1000
0010
0100
0001
,
0010
0100
1000
0100
,
0001
0100
1000
0100
,
0001
0100
1000
0010
,
2002
0000
0000
0000
,
0000
0000
0000
0000
,
0000
0000
3003
0000
,
0000
0001
1000
0100
0011
0000
0000
1001
,
0000
0000
0000
0000
0000
0001
0100
1010
,
0000
1100
0000
0001
0010
0011
0000
0001
,
0010
0100
0110
0000
0000
0000
0001
1000
,
0001
0100
0010
0010
0010
0000
0000
2002
,
0000
3003
0000
0000
,
1000
0100
0010
0001
0010
0100
1000
0100
,
0010
0100
0010
0100
0010
0100
0010
0000
,
0000
0000
0000
0000
0000
0010
0010
0010
,
0010
0010
0010
0010
0000
0000
0000
0000
,
0000
2002
0000
0000
0000
0000
0000
0000
,
0000
0000
0000
0000
,
0000
0000
0000
0000
,
0000
0000
0000
0000
,
0000
0000
0000
0000
,
0000
0000
0000
0000
,
0000
0000
0000
0000
,
0000
0000
0000
0000
,
0000
0000
0000
0000
,
3003
0000
0000
0000
;

//---------------dance-single - ----------------
#NOTES:
     dance-single:
     :
     Hard:
     10:
     0.863905,1.000000,0.389883,0.290338,0.551643,647.000000,47.000000,35.000000,0.000000,0.000000,0.000000,0.863905,1.000000,0.389883,0.290338,0.551643,647.000000,47.000000,35.000000,0.000000,0.000000,0.000000:
0000
0000
0000
0000
0000
0000
1001
1000
0000
0000
0000
0000
0101
0001
0000
0000
0000
0000
1010
0010
0000
0000
0000
0000
,
1100
0000
0100
0000
0000
0000
0000
0000
0000
0000
0000
0000
0011
0000
0001
0000
0000
0000
0000
0000
0000
1000
0001
0100
0010
0000
0000
0000
0000
0000
0000
0000
0000
0000
0000
0000
1001
0000
1000
0000
0000
0000
0000
0000
0000
0000
0000
0000
,
0001
0100
0001
0100
0010
1000
0010
1000
0100
1000
0100
0010
0001
0000
0000
0000
0000
0000
0000
0000
0000
0000
0000
0000
1001
0000
0010
0000
0000
0000
0000
0000
0000
0000
0000
0000
1100
0000
0001
0000
0000
0000
0000
0000
0000
0000
0000
0000
,
0101
0000
1000
0000
0000
0000
0000
0000
0000
1000
0100
0010
0001
0000
0000
0000
0000
0000
0000
0000
0000
0000
0000
0000
0110
0000
0001
0000
0000
0000
0000
0000
0000
0000
0000
0000
0110
0000
1000
0000
0000
0000
0000
0000
0000
0000
0000
0000
,
1001
0000
0010
0000
0000
0000
1000
0001
0100
0010
1000
0001
0101
0000
0000
0000
0000
0000
0000
0000
0000
0000
0000
0000
0001
0000
0000
0000
0000
0000
0000
0000
0000
0000
0000
0000
1001
0000
0000
0000
0000
0000
0000
0000
0000
0000
0000
0000
,
1000
1010
0010
0110
,
0001
0010
0100
1000
0100
0010
0001
0000
0000
0000
0000
0000
0011
0000
0000
0000
0000
0000
0110
0000
0000
0000
0000
0000
,
1100
0000
0000
0000
0000
0000
1001
0000
0000
1010
0000
0000
0101
0000
0000
0110
0000
0000
1000
0001
0100
0010
1000
0001
,
0010
0100
1000
0100
0010
0001
0020
0000
0030
0000
0000
0000
0001
0000
0000
1000
0000
0000
0001
0000
0000
0100
0000
0000
,
0010
1000
0100
0001
0100
1000
0010
0100
,
0001
0000
0010
0000
0001
0100
0001
0100
0001
0000
0010
0000
0100
0000
0010
0000
,
0001
0000
0000
0100
0000
0000
1000
0000
0000
0100
0000
0000
0001
0000
0010
0000
0001
0000
1000
0000
0001
0000
0100
0000
,
0010
0000
1000
0000
0001
0000
1000
0000
0100
0000
1000
0000
0010
0000
0000
1000
0000
0000
0001
0000
0000
0100
0000
0000
,
0010
0100
0001
1000
0001
0010
0100
0010
,
0001
0000
0000
0100
0000
0000
0001
0000
0100
0000
0010
0000
2000
0000
0000
0000
0000
0000
0010
0000
0000
0000
0000
0000
,
0001
0000
0000
3100
0000
0000
1000
0100
1000
0100
0010
0001
,
0010
0000
0001
0000
1000
0000
0001
0000
1000
0000
0010
0000
0100
0000
0000
0010
0000
0000
1000
0000
0000
0001
0000
0000
,
0010
0000
0100
0000
0010
0001
0010
0001
0010
0000
0001
0000
1000
0000
0001
0000
,
0001
0000
0000
1000
0000
0000
0010
0000
1000
0000
0100
0000
0020
0000
0000
0030
0000
0000
0001
0000
0100
0000
0010
0000
,
2000
0000
0000
3000
0000
0000
1000
0000
0010
0000
0100
0000
0001
0000
0010
0000
0100
0000
1000
0000
0100
0000
0010
0000
,
0001
0000
1000
0000
0001
0000
0100
0000
0010
0000
1000
0000
0100
0000
0000
0010
0000
0000
0001
0000
0000
1000
0000
0000
,
0001
0100
0001
0010
0100
1000
0100
0001
,
0100
0000
1000
0000
0010
0100
0010
0100
0010
0000
1000
0000
0001
0000
0010
0000
,
0010
0000
0001
0000
1000
0000
0001
0000
0100
0000
0010
0000
1000
0010
1000
0010
,
0000
0100
0001
0010
1000
0000
1000
0000
,
0100
0010
0001
0100
,
0010
1000
0001
0010
,
0100
1000
0100
0010
,
0110
0000
0001
1000
0001
1000
0001
0000
,
0100
0010
1000
0001
,
0010
0100
1000
0001
,
0010
0010
0001
1000
,
0010
0100
0100
0010
,
1000
0001
0100
0010
,
1000
0010
0100
0010
,
1000
0100
0010
0001
,
0010
0000
0000
1000
0000
0000
0010
0000
0001
0000
0010
0000
,
0200
0000
0000
0300
0000
0000
0001
0000
1000
0000
0100
0000
,
0002
0000
0003
0000
0100
1000
0100
0000
,
0010
0001
0010
0000
0001
0100
0001
0000
,
0100
0010
1000
0100
,
1000
0001
0100
0001
,
0010
0001
1000
0010
,
0010
0100
0001
0010
,
0100
0000
0100
0000
0010
0001
0010
0001
,
1000
0010
0100
0100
,
0010
1000
0100
0001
,
0100
0010
0100
1000
,
0001
0000
0000
0100
0000
0000
1000
0000
0100
0000
0001
0000
,
0200
0000
0000
0300
0000
0000
0001
0000
0100
0000
1000
0000
,
0200
0000
0000
0300
0000
0000
1000
0000
0010
0000
0001
0000
,
0020
0000
0000
0030
0000
0000
0001
0000
0010
0000
1000
0000
,
0020
0030
2002
0000
,
0000
0000
0000
0000
,
0000
0000
3003
0000
1000
0100
1000
0100
,
1000
0001
0100
0001
0100
0001
1000
0010
,
1000
0001
0010
0001
0020
0000
0000
0000
,
0000
0000
0000
0000
,
0000
0000
0000
0030
2002
3003
2200
3300
,
0202
0000
0303
0000
0220
0000
0330
0000
1001
0000
1000
0100
0011
0000
0001
0010
,
1100
0000
1000
0010
0101
0000
0001
0010
1100
0000
1000
0001
0100
0010
1000
0001
,
0010
0100
1000
0100
0001
0100
1000
0010
0100
0001
0010
0100
1000
0001
0100
0010
,
1000
0100
1000
0001
0100
0001
0010
0001
0200
0000
0000
0000
0000
0000
0000
0300
,
0020
0000
0000
0000
,
0000
0030
1000
0000
0001
0000
0100
0000
,
0010
1000
0001
0010
,
0100
0100
0010
0001
,
1000
0010
1000
0010
1000
0010
1000
0000
,
0001
1000
0100
0001
,
0100
1000
0010
0100
,
0001
0010
0100
0010
,
0001
0000
1000
0000
0010
0100
0010
0100
,
0010
0100
0010
0000
1000
0000
0010
0000
,
0001
0100
1000
0100
,
0010
0100
1000
0100
,
0001
0001
1000
0010
,
0100
0000
0010
1000
0010
1000
0010
0100
,
0001
0000
0010
0000
0100
0001
0100
0000
,
0010
0000
0010
0000
1000
0001
1000
0000
,
0100
0000
0100
0000
0010
0001
0010
0000
,
0001
0000
0100
0010
0100
0000
0001
0000
,
1000
1000
0010
0100
,
0001
0010
0100
1000
,
0100
0000
0010
0000
0001
0100
0001
0100
,
0010
1000
0010
1000
0001
0000
0100
0000
,
0100
0010
0010
1000
,
0001
0010
0010
0001
,
0100
0000
0001
0000
0001
1000
0001
1000
,
0100
0010
0100
0000
0010
0000
0100
0000
,
1000
0001
0100
0010
,
0010
1000
0001
0100
,
0001
0100
0010
1000
,
1000
0100
1000
0100
1000
0001
0100
0001
,
0100
0001
1000
0010
1000
0010
1000
0001
,
0010
0001
0010
0001
1000
0001
1000
0001
,
0100
0010
0100
0010
0100
0010
0100
0000
,
2002
0000
0000
0000
,
0000
0000
0000
0000
,
3003
0000
0000
0000
,
0000
0001
0010
0100
1010
0000
0000
0220
,
0000
0000
0000
0000
0000
0000
0000
0000
0330
0000
0001
0010
0001
0000
0101
0000
,
0000
0110
0010
0100
0010
1010
0000
0010
,
0100
0000
0110
0000
0101
0000
0000
0000
0000
0000
0001
1000
0001
0000
1000
0100
,
1000
0010
0100
0101
0011
0000
0000
1001
,
0000
0000
0000
0000
0000
0000
2000
3200
,
0320
0000
0032
0000
2003
0000
3020
0000
0130
0010
0100
0010
0100
0001
0100
0010
,
1000
0010
1000
0000
1000
0100
1000
0100
0010
0001
0010
0000
0110
0000
0000
0000
,
0000
0000
0000
0000
0000
0000
0000
0000
0000
0000
1000
0100
1000
0100
1000
0001
,
0100
0001
0100
0010
0100
0010
1000
0000
0000
0000
0000
0000
0000
0000
0000
0000
,
0000
2002
0000
0000
0000
0000
0000
0000
,
0000
0000
0000
0000
,
0000
0000
0000
0000
,
0000
0000
0000
0000
,
0000
0000
0000
0000
,
0000
0000
0000
0000
,
0000
0000
0000
0000
,
0000
0000
0000
0000
,
3003
0000
0000
0000
;

//---------------dance-single - ----------------
#NOTES:
     dance-single:
     :
     Challenge:
     10:
     0.942118,1.000000,0.630449,0.132726,0.655335,703.000000,76.000000,16.000000,148.000000,0.000000,0.000000,0.942118,1.000000,0.630449,0.132726,0.655335,703.000000,76.000000,16.000000,148.000000,0.000000,0.000000:
// measure 0
0000
0000
0000
0000
0000
0000
1001
1000
0000
MMMM
0000
0000
0101
0001
0000
MMMM
0000
0000
1010
0010
0000
MMMM
0000
0000
,  // measure 1
1100
0000
0100
0000
0000
0000
MMMM
0000
0000
0000
0000
0000
0011
0000
0001
0000
MMMM
0000
0000
0000
0000
0001
0010
1000
0010
0000
0000
0000
0000
0000
MMMM
0000
0000
0000
0000
0000
1001
0000
1000
0000
0000
0000
MMMM
0000
0000
0000
0000
0000
,  // measure 2
1000
0010
0100
0001
0010
1000
0010
0001
0100
1000
0100
0010
0100
0000
0000
0000
0000
0000
MMMM
0000
0000
0000
0000
0000
1001
0000
0010
0000
0000
0000
0000
0000
MMMM
0000
0000
0000
1100
0000
0001
0000
0000
0000
MMMM
0000
0000
0000
0000
0000
,  // measure 3
0101
0000
1000
0000
0000
0000
0000
0000
0000
1000
0010
0100
0100
0000
0000
0000
0000
0000
MMMM
0000
0000
0000
0000
0000
0110
0000
0001
0000
0000
0000
MMMM
0000
0000
0000
0000
0000
0110
0000
1000
0000
0000
0000
MMMM
0000
0000
0000
0000
0000
,  // measure 4
1001
0000
0010
0000
0000
0000
0001
0010
0100
0000
1000
0100
1001
0000
0000
0000
0000
0000
1000
0000
0000
0000
0000
0000
0011
0000
0000
0000
0000
0000
0010
0000
0000
0000
0000
0000
1100
0000
0000
0000
0000
0000
0100
0000
0000
0000
0000
0000
,  // measure 5
0101
0100
0110
1000
1010
0001
1001
0010
,  // measure 6
1000
0010
0001
0010
0100
0100
0110
0000
0000
MMMM
0000
0000
0011
0000
0000
MMMM
0000
0000
0110
0000
0000
MMMM
0000
0000
,  // measure 7
1100
0000
0000
MMMM
0000
0000
1001
0000
0000
1010
0000
0000
0101
0000
0000
0110
0000
0000
1000
0100
0100
0010
0001
0010
,  // measure 8
1000
0010
0010
0001
1000
0100
0200
0000
0000
0300
0000
0000
0001
0000
0000
1000
0000
0000
0001
0000
0000
0100
0000
0000
,  // measure 9
0010
1000
0100
0001
0100
1000
0010
0100
,  // measure 10
0001
0000
1000
0000
1000
0010
0001
0010
1000
0000
0001
0000
0100
0000
0010
0000
,  // measure 11
1000
0000
0000
0100
0000
0000
0010
0000
0000
0001
0000
0000
0001
0000
0010
0000
0001
0000
1000
0000
0001
0000
0100
0000
,  // measure 12
0100
0000
0010
0000
0010
0000
1000
0000
0100
0000
0001
0000
0010
0000
0000
1000
0000
0000
0001
0000
0000
0100
0000
0000
,  // measure 13
0010
0100
0001
1000
0001
0010
0100
0010
,  // measure 14
0001
0000
0000
0100
0000
0000
1000
0000
0100
0000
0100
0000
2000
0000
0000
0000
0000
0000
0010
0000
0000
0000
0000
0000
,  // measure 15
0001
0000
0000
3100
0000
0000
0001
0010
0010
0010
0100
0100
,  // measure 16
1000
0000
0010
0000
0001
0000
0010
0000
0100
0000
0000
0000
0100
0000
0000
0010
0000
0000
1000
0000
0000
0001
0000
0000
,  // measure 17
0010
0000
0100
0000
0010
0001
0010
0001
0010
0000
0001
0000
1000
0000
0001
0000
,  // measure 18
0001
0000
0000
1000
0000
0000
0010
0000
1000
0000
0100
0000
0110
0000
0000
MMMM
0000
0000
0001
0000
0100
0000
0010
0000
,  // measure 19
0110
0000
0000
MMMM
0000
0000
1000
0000
0010
0000
0100
0000
0001
0000
0010
0000
0100
0000
1000
0000
0100
0000
0010
0000
,  // measure 20
0001
0000
1000
0000
0001
0000
0100
0000
0010
0000
1000
0000
0110
0000
0000
0010
0000
0000
0001
0000
0000
1000
0000
0000
,  // measure 21
0001
0100
0001
0010
0100
1000
0100
0001
,  // measure 22
0100
0000
1000
0000
0001
1000
0010
0100
0100
0000
1000
0000
1000
0001
0100
0010
,  // measure 23
0010
0000
0001
0000
1000
0000
0001
0000
0100
0000
0010
0000
1000
0010
0010
0100
,  // measure 24
0100
0001
1000
0010
1000
0000
1000
0000
,  // measure 25
0100
0010
0001
0100
,  // measure 26
0010
1000
0001
0010
,  // measure 27
0100
1000
0100
0010
,  // measure 28
0110
0000
0001
1000
0001
1000
0001
0000
,  // measure 29
0100
0010
1000
0001
,  // measure 30
0010
0001
0010
0000
1000
0100
1000
0000
,  // measure 31
0010
0100
0010
0000
0001
1000
0001
0000
,  // measure 32
0010
1000
0010
0000
1000
0001
1000
0000
,  // measure 33
0010
0010
0110
0010
,  // measure 34
1000
0010
0100
1000
,  // measure 35
1001
0100
0010
0001
,  // measure 36
0010
0000
0000
0011
0000
0000
0010
0000
0001
0000
0010
0000
,  // measure 37
0011
0000
0000
0000
0000
0000
0000
0000
0000
MMMM
0000
0000
0000
0000
0000
0000
0000
0000
0000
0000
0000
0000
0000
0000
1000
0000
0000
0000
0000
0000
0000
0000
0001
0000
0000
0000
0000
0000
0000
0000
0100
0000
0000
0000
0000
0000
0000
0000
,  // measure 38
0110
0000
0000
MMMM
0000
0000
0000
0000
0010
0000
0001
0000
0010
0000
0000
0000
,  // measure 39
0100
1000
0100
0000
1000
0010
1000
0000
,  // measure 40
0100
0010
1000
0100
,  // measure 41
1000
0001
0100
0001
,  // measure 42
0010
0000
0001
1000
0100
0010
0001
0010
,  // measure 43
0010
0100
0001
0010
,  // measure 44
0100
0000
0100
0000
0010
0001
0010
0001
,  // measure 45
1000
0010
0100
0100
,  // measure 46
0010
1000
0100
0001
,  // measure 47
1000
0001
0010
0000
0001
1000
0100
0000
,  // measure 48
0001
0000
0000
0100
0000
0000
1000
0000
0100
0000
0001
0000
,  // measure 49
1001
0000
0000
0000
0000
0000
0000
0000
0000
MMMM
0000
0000
0000
0000
0000
0000
0000
0000
0000
0000
0000
0000
0000
0000
0001
0000
0000
0000
0000
0000
0000
0000
0100
0000
0000
0000
0000
0000
0000
0000
1000
0000
0000
0000
0000
0000
0000
0000
,  // measure 50
1001
0000
0000
0000
0000
0000
0000
0000
0000
MMMM
0000
0000
0000
0000
0000
0000
0000
0000
0000
0000
0000
0000
0000
0000
1000
0000
0000
0000
0000
0000
0000
0000
0010
0000
0000
0000
0000
0000
0000
0000
0001
0000
0000
0000
0000
0000
0000
0000
,  // measure 51
1001
0000
0000
0000
0000
0000
0000
0000
0000
MMMM
0000
0000
0000
0000
0000
0000
0000
0000
0000
0000
0000
0000
0000
0000
0001
0000
0000
0000
0000
0000
0000
0000
0010
0000
0000
0000
0000
0000
0000
0000
1000
0000
0000
0000
0000
0000
0000
0000
,  // measure 52
1001
MMMM
2002
0000
,  // measure 53
0000
0000
0000
0000
,  // measure 54
0000
0000
3003
0000
1000
0001
0100
0010
,  // measure 55
1000
0001
0010
0100
1000
0010
0100
0001
,  // measure 56
0100
1000
0100
0001
2002
0000
0000
0000
,  // measure 57
0000
0000
3003
0000
1000
0100
0001
0100
,  // measure 58
1000
0000
MMMM
0000
1100
MMMM
0101
MMMM
,  // measure 59
0110
0000
MMMM
0000
1001
0000
MMMM
0000
1001
0001
0100
1000
0110
0100
0010
0010
,  // measure 60
0101
0010
1000
0010
0110
1000
0001
0010
1100
0001
1000
0001
0101
0010
1000
0001
,  // measure 61
1001
0100
1000
0100
0011
0100
1000
0010
1100
0001
0010
0100
1010
0001
0100
0010
,  // measure 62
0101
0100
1000
0001
0110
0001
0010
0001
2020
0000
0000
0000
0000
0000
3030
0000
,  // measure 63
0202
0000
0000
0000
,  // measure 64
0303
MMMM
1000
0000
0001
0000
0100
0000
,  // measure 65
0010
1000
0001
0010
,  // measure 66
0100
0100
0010
0001
,  // measure 67
1000
0010
0100
0001
0010
0001
0100
0000
,  // measure 68
0001
1000
0100
0001
,  // measure 69
0100
1000
0010
0100
,  // measure 70
0001
0010
0100
0010
,  // measure 71
0001
0000
1000
0000
0010
0001
0010
0100
,  // measure 72
1000
0100
0010
0000
1000
0001
1000
0000
,  // measure 73
0001
0000
1000
0100
1000
0000
0100
0010
,  // measure 74
0100
0000
0001
0000
1000
0001
1000
0000
,  // measure 75
0001
1000
0001
0000
0010
0001
0010
0000
,  // measure 76
0100
0000
0010
1000
0010
0001
0010
0100
,  // measure 77
0001
0000
0010
0000
0100
0001
0100
0000
,  // measure 78
0010
0000
0010
0000
1000
0001
1000
0000
,  // measure 79
0010
0000
0010
0000
0001
1000
0001
0000
,  // measure 80
0010
0000
0100
0010
0100
0000
0010
0000
,  // measure 81
0001
1000
0001
0000
0010
0000
0100
0000
,  // measure 82
0001
0010
0001
0000
0100
0000
1000
0000
,  // measure 83
0100
1000
0100
0000
0001
0100
1000
0100
,  // measure 84
0010
1000
0010
0100
0001
0000
0100
0001
,  // measure 85
0100
0000
0010
1000
0010
0000
1000
0100
,  // measure 86
1000
0000
0010
0100
0010
0000
0001
0000
,  // measure 87
0100
0000
0001
0000
1000
0001
0010
1000
,  // measure 88
0010
0001
0100
0000
0010
1000
0010
0000
,  // measure 89
1000
0100
0001
0100
1000
0000
0010
0100
,  // measure 90
0010
0000
1000
0010
0001
0000
0100
0000
,  // measure 91
0001
0100
1000
0100
0001
0000
1000
0000
,  // measure 92
1000
0100
1000
0001
0100
0001
1000
0010
,  // measure 93
1000
0001
0010
0001
0100
0010
1000
0001
,  // measure 94
0010
0100
1000
0100
0001
0100
1000
0010
,  // measure 95
0100
0001
0010
1000
0010
0001
0100
0010
,  // measure 96
2002
0000
0000
0000
,  // measure 97
0000
0000
0000
0000
,  // measure 98
0000
0000
0000
0000
,  // measure 99
3003
0000
1100
0000
0110
0000
0011
0000
1001
0000
0000
MMMM
0000
0000
2020
0000
,  // measure 100
0000
0000
0000
0000
0000
0000
3030
0000
0000
0000
0001
0010
0001
0000
1001
0000
,  // measure 101
0101
0001
0010
0100
0010
0011
0000
0010
,  // measure 102
0100
0000
0000
0000
0000
0000
0110
0000
0000
0000
0000
0000
1100
0000
0000
0000
0000
0000
0000
0000
MMMM
0000
0000
0000
0000
0000
0000
0000
0000
0000
1000
0000
0000
0001
0000
0000
0001
0000
0000
0000
0000
0000
0001
0000
0000
1000
0000
0000
,  // measure 103
1000
0000
0000
0010
0000
0000
0100
0000
0000
0101
0000
0000
0011
0000
0000
0000
MMMM
0000
0000
0000
0000
1001
0000
0000
,  // measure 104
0000
MMMM
0000
0000
0000
0000
0000
0000
0000
1000
0100
0100
,  // measure 105
0010
0000
0000
0000
0010
0000
0000
0000
0001
0000
0000
0000
0001
0000
0000
0000
1000
0000
0000
0000
1000
0000
0000
0000
0100
0000
0000
0010
0000
0000
0001
0000
0000
0100
0000
0000
1000
0000
0000
0100
0000
0000
0001
0000
0000
0010
0000
0000
,  // measure 106
0100
0000
0000
0010
0000
0000
0001
0000
0000
1000
0000
0000
0010
0000
0000
0100
0000
0000
0010
0000
0000
1000
0000
0000
0100
0000
0000
0001
0000
0000
0100
0000
0000
1000
0000
0000
1100
0000
0000
0000
0000
0000
0000
0000
MMMM
0000
0000
0000
,  // measure 107
0000
0000
0000
0000
0000
0000
0000
0000
0000
0000
1000
0001
0100
1000
0100
0001
,  // measure 108
0010
0010
0010
0001
0100
0010
0010
0000
MMMM
0000
0000
0000
0000
0000
0000
0000
,  // measure 109
0000
2002
0000
0000
0000
0000
0000
0000
,  // measure 110
0000
0000
0000
0000
,  // measure 111
0000
0000
0000
0000
,  // measure 112
0000
0000
0000
0000
,  // measure 113
0000
0000
0000
0000
,  // measure 114
0000
0000
0000
0000
,  // measure 115
0000
0000
0000
0000
,  // measure 116
0000
0000
0000
0000
,  // measure 117
3003
0000
0000
0000
;

//---------------dance-single - ----------------
#NOTES:
     dance-single:
     :
     Easy:
     8:
     0.428990,1.000000,0.232271,0.315224,0.000000,296.000000,28.000000,38.000000,0.000000,0.000000,0.000000,0.428990,1.000000,0.232271,0.315224,0.000000,296.000000,28.000000,38.000000,0.000000,0.000000,0.000000:
0000
1001
0011
1100
,
1010
0101
0110
1001
,
0110
0101
1010
1100
,
0011
1001
0110
1001
,
0110
2000
3002
0023
,
0230
2300
3020
0230
,
0302
0023
0230
2300
,
3020
0000
0130
0001
0010
0001
0010
0001
,
1000
0100
2000
3000
0010
0000
0100
0000
,
0001
0010
1000
0010
,
0001
0100
0010
1000
,
0001
0001
0100
0100
,
0010
0010
1000
1000
,
0100
0010
0001
0001
,
0010
0100
2000
0000
,
0000
0000
3001
0100
,
0010
1000
0001
0100
,
0010
1000
0010
0100
,
0100
0001
0010
0100
,
0010
0001
1000
0100
,
0010
0100
1000
0001
,
0100
0010
1000
1000
,
0001
0001
0100
0100
,
0010
0010
1000
1000
,
0010
0010
0010
0000
,
0010
0000
1000
0000
,
1000
0000
0100
0000
,
0100
0000
0010
0000
,
0010
0000
0001
0000
,
0001
0000
1000
0000
,
1000
0000
0010
0000
,
0010
0000
0100
0000
,
0100
0000
0001
0000
,
0001
0000
0100
0000
,
0100
0000
0010
0000
,
0010
0000
1000
0000
,
1000
0000
0001
0000
,
0001
0000
0010
0000
,
0010
0000
0100
0000
,
0100
0000
1000
0000
,
1000
0000
0010
0000
,
0010
0000
0001
0000
,
0010
0000
1000
0000
,
0100
0000
0001
0000
,
0100
0000
1000
0000
,
0001
0000
0100
0000
,
0010
0000
1000
0000
,
0001
0000
0010
0000
,
1000
0000
0010
0000
,
0001
0000
0100
0000
,
1000
0000
0100
0000
,
0001
0000
0010
0000
,
0001
0000
2002
0000
,
0000
0000
0000
3003
,
0000
0000
1000
0001
,
1000
0001
1000
0001
,
1000
0001
0020
0000
,
0000
0000
0000
0000
,
0000
0000
0000
0030
1001
0000
1100
0000
,
0101
0000
0110
0000
1001
0000
2000
0100
,
3100
0002
0010
0013
0200
0001
0301
0020
,
1000
1030
0200
0010
0310
0020
0100
0130
,
2000
0001
3001
0010
2002
0000
0000
3003
,
0220
0000
0000
0000
,
0330
1000
0000
0001
,
0000
0100
0000
0010
,
0000
0010
0000
1000
,
0000
1000
0000
0100
,
0000
0100
0000
0001
,
0000
0001
0000
0100
,
0000
1000
0000
0010
,
0000
0010
0000
0100
,
0000
0100
0000
0001
,
0000
0001
0000
1000
,
0000
1000
0000
0001
,
0000
0001
0000
0010
,
0000
0010
0000
0100
,
0000
0100
0000
1000
,
0000
1000
0000
0010
,
0000
0100
0000
0001
,
0000
1000
0000
0100
,
0000
0010
0000
0001
,
0000
0010
0000
0100
,
0000
0010
0000
0001
,
0000
0100
0000
0010
,
0000
1000
0000
0001
,
0000
0100
0000
0010
,
0000
1000
0000
0100
,
0000
0001
0000
0100
,
0000
1000
0000
0010
,
0000
0001
0000
0010
,
0000
1000
0000
0001
,
0000
1000
0000
0001
,
0000
0100
0000
0010
,
0000
0100
0000
0010
,
0000
1000
0001
1000
,
0001
2002
0000
0000
,
0000
0000
0000
0000
,
0000
0000
3003
0000
,
0000
0001
1000
0001
0000
0000
0000
0220
,
0000
0000
0000
0330
0000
1000
0001
1000
,
0000
0001
0010
0001
0000
0000
1000
0100
,
1000
0100
0000
0000
0000
0010
0000
0100
,
0000
1000
0010
1000
0001
0000
0000
0202
,
0000
0000
0303
2000
,
0000
3200
0000
0310
,
0010
0001
0001
0001
,
0000
0000
0000
0000
0000
1000
0100
0010
,
0001
0010
0100
1000
0000
0000
0000
0000
,
0000
2002
0000
0000
0000
0000
0000
0000
,
0000
0000
0000
0000
,
0000
0000
0000
0000
,
0000
0000
0000
0000
,
0000
0000
0000
0000
,
0000
0000
0000
0000
,
0000
3003
0000
0000
0000
0000
0000
0000
;

//---------------dance-single - ----------------
#NOTES:
     dance-single:
     :
     Beginner:
     5:
     0.257157,0.764005,0.066363,0.423064,0.000000,158.000000,8.000000,51.000000,0.000000,0.000000,0.000000,0.257157,0.764005,0.066363,0.423064,0.000000,158.000000,8.000000,51.000000,0.000000,0.000000,0.000000:
0000
0001
0010
0100
,
1000
0100
0010
0001
,
0200
0310
1000
0001
,
0100
0001
1000
0001
,
0020
0032
0000
2003
,
0000
3020
0000
0230
,
0000
0302
1003
0001
,
1000
0020
0230
0320
,
0230
0302
1003
0000
,
0001
0000
1000
0000
,
0001
0000
0010
0000
,
0001
0000
0200
0000
,
0000
0000
0310
0000
,
1000
0000
0001
0000
,
1000
0000
0020
0000
,
0000
0000
0230
0000
,
0000
0000
0301
0000
,
1000
0000
0001
0000
,
0000
0000
0000
0000
,
0000
0000
0000
0000
,
0000
0000
0000
0000
,
0000
0000
0000
0000
,
0000
0000
0000
0000
,
0000
0000
0000
0000
,
0000
0000
1000
0000
,
0000
0000
1000
0000
,
0000
0000
0100
0000
,
0000
0000
0010
0000
,
0000
0000
0001
0000
,
0000
0000
1000
0000
,
0000
0000
0010
0000
,
0000
0000
0100
0000
,
0000
0000
0001
0000
,
0000
0000
0100
0000
,
0000
0000
0010
0000
,
0000
0000
1000
0000
,
0000
0000
0001
0000
,
0000
0000
0010
0000
,
0000
0000
0100
0000
,
0000
0000
1000
0000
,
0000
0000
0010
0000
,
0000
0000
0001
0000
,
0000
0000
1000
0000
,
0000
0000
0001
0000
,
0000
0000
1000
0000
,
0000
0000
0010
0000
,
0000
0000
0010
0000
,
0000
0000
0001
0000
,
0000
2000
0000
0000
,
3000
0002
0000
0000
,
0003
0200
0000
0000
,
0300
0002
0000
0000
,
0003
0000
1001
0000
,
0000
0000
0000
0000
,
0000
0000
2002
0000
,
0000
0000
0000
0000
,
0000
3003
0010
0000
,
0000
0000
0000
0000
,
0000
0000
0002
2003
,
3002
2003
3020
0230
,
0320
0230
0302
2003
,
3002
2003
3200
0320
,
0230
0320
0230
0300
,
2002
0000
0000
0000
,
3003
2000
0000
0000
,
0000
0000
0000
0000
,
0000
3002
0000
0000
,
0000
0000
0000
0000
,
0000
0103
0000
0000
,
0000
0001
0000
0000
,
0000
1000
0000
0000
,
0000
0010
0000
0000
,
0000
0100
0000
0000
,
0000
0001
0000
0000
,
0000
1000
0000
0000
,
0000
0001
0000
0000
,
0000
0010
0000
0000
,
0000
0100
0000
0000
,
0000
1000
0000
0000
,
0000
0100
0000
0000
,
0000
1000
0000
0000
,
0000
0010
0000
0000
,
0000
0010
0000
0000
,
0000
0100
0000
0000
,
0000
0100
0000
0000
,
0000
0001
0000
0000
,
0000
0001
0000
0000
,
0000
1000
0000
0000
,
0000
0001
0000
0000
,
0000
1000
0000
0000
,
0000
0001
0000
0000
,
0000
1000
0000
0000
,
0000
0001
0000
0001
,
0000
0001
0000
0001
,
0000
0001
0000
0001
,
0000
0001
0000
0001
,
0000
2000
0000
0000
,
0000
0000
0000
0000
,
0000
0000
3000
0000
,
0000
1001
0000
1001
0000
0000
0000
0220
,
0000
0000
0000
0330
0000
0001
0000
1000
,
0000
0100
0000
0001
0000
0000
0000
0100
,
0000
0100
0000
0000
0000
0010
0000
0001
,
0000
0100
0000
1000
0000
0000
0000
0220
,
0000
0000
0330
0020
,
0000
0230
0000
0310
,
0010
0010
0010
0010
,
0000
0000
0000
0000
0000
1000
0001
1000
,
0001
1000
0001
1000
0000
0000
0000
0000
,
0000
2002
0000
0000
0000
0000
0000
0000
,
0000
0000
0000
0000
,
0000
0000
0000
0000
,
0000
0000
0000
0000
,
0000
0000
0000
0000
,
0000
0000
0000
0000
,
0000
3003
0000
0000
0000
0000
0000
0000
;
