#TITLE:Witch Doctor;
#SUBTITLE:;
#ARTIST:Party Mix All Stars;
#TITLETRANSLIT:;
#SUBTITLETRANSLIT:;
#ARTISTTRANSLIT:;
#GENRE:;
#CREDIT:;
#BANNER:Witch Doctor.jpg;
#BACKGROUND:Witch Doctor-BG.jpg;
#LYRICSPATH:;
#CDTITLE:S06.jpg;
#MUSIC:Witch Doctor.ogg;
#OFFSET:0.063000;
#SAMPLESTART:34.984001;
#SAMPLELENGTH:14.019000;
#SELECTABLE:YES;
#BPMS:0.000000=136.957001
;
#STOPS:
;
#BGCHANGES:;
#KEYSOUNDS:;
#ATTACKS:;

//---------------dance-single - ----------------
#NOTES:
     dance-single:
     :
     Easy:
     1:
     0.078581,0.084097,0.000000,0.000000,0.000000,52.000000,52.000000,0.000000,0.000000,0.000000,0.000000,0.078581,0.084097,0.000000,0.000000,0.000000,52.000000,52.000000,0.000000,0.000000,0.000000,0.000000:
0000
0000
0000
0000
,
0000
0000
0000
0000
,
0100
0000
0000
0000
,
1000
0000
0000
0000
,
0100
0000
0000
0000
,
1000
0000
0000
0000
,
0100
0000
0000
0000
,
1000
0000
0000
0000
,
0010
0000
0000
0000
,
0001
0000
0000
0000
,
1000
0000
0000
0000
,
0001
0000
0000
0000
,
0001
0000
0000
0000
,
0100
0000
0000
0000
,
0100
0000
0000
0000
,
1000
0000
0000
0000
,
1000
0000
0000
0000
,
0001
0000
0000
0000
,
0100
0000
0000
0000
,
0010
0000
0000
0000
,
0100
0000
0000
0000
,
1000
0000
0000
0000
,
1000
0000
0000
0000
,
0010
0000
0000
0000
,
0100
0000
0000
0000
,
0001
0000
0000
0000
,
0010
0000
0000
0000
,
0001
0000
0000
0000
,
0001
0000
0000
0000
,
1000
0000
0000
0000
,
0100
0000
0000
0000
,
0001
0000
0000
0000
,
0001
0000
0000
0000
,
0100
0000
0000
0000
,
0100
0000
0000
0000
,
1000
0000
0000
0000
,
1000
0000
0000
0000
,
0001
0000
0000
0000
,
1000
0000
0000
0000
,
0100
0000
0000
0000
,
0010
0000
0000
0000
,
0001
0000
0000
0000
,
0100
0000
0000
0000
,
0001
0000
0000
0000
,
1000
0000
0000
0000
,
0010
0000
0000
0000
,
1000
0000
0000
0000
,
1000
0000
0000
0000
,
0100
0000
0000
0000
,
0001
0000
0000
0000
,
0001
0000
0000
0000
,
0100
0000
0000
0000
,
0100
0000
0000
0000
,
1000
0000
0000
0000
;

//---------------dance-single - ----------------
#NOTES:
     dance-single:
     :
     Medium:
     4:
     0.324902,0.308355,0.000000,0.000000,0.000000,215.000000,215.000000,0.000000,0.000000,0.000000,0.000000,0.324902,0.308355,0.000000,0.000000,0.000000,215.000000,215.000000,0.000000,0.000000,0.000000,0.000000:
0000
0000
0000
0000
,
0000
0000
0000
0000
,
0100
0010
0100
0010
,
1000
0001
1000
0001
,
0001
0100
0001
0100
,
0010
1000
0010
1000
,
0100
0100
1000
1000
,
1000
1000
0001
0001
,
0001
0000
0001
0000
0100
0010
0100
0000
,
0001
1000
0100
0010
,
1000
0100
0010
0001
,
0001
1000
1000
0100
,
0001
0001
0010
0010
,
0100
0000
0010
0000
1000
0100
0001
0000
,
0100
0000
0001
0000
0001
0100
1000
0000
,
1000
0000
0100
0000
0010
1000
0010
0000
,
1000
0100
0001
0010
,
0001
0000
0100
0000
1000
0001
0010
0000
,
0100
0001
0100
0001
,
0010
1000
0100
0000
,
0100
0000
1000
0000
0100
0010
1000
0000
,
1000
0001
0100
0001
,
1000
0000
0001
0000
0010
0001
0100
0000
,
0010
0100
0001
0100
,
0100
0000
1000
0000
0001
1000
0100
0000
,
0001
0000
0010
0000
0100
0001
1000
0000
,
0010
0100
0001
1000
,
0001
0000
1000
0000
0100
1000
0001
0000
,
0001
0100
0001
0010
,
1000
0100
0100
0001
,
0100
1000
0100
0100
,
0001
1000
1000
0010
,
0001
0100
0010
0100
,
0100
1000
1000
0010
,
0100
0010
0001
0010
,
1000
0100
0010
0100
,
1000
0100
0001
0100
,
0001
0100
0100
0010
,
1000
1000
0100
0100
,
0100
0100
0010
0010
,
0010
0010
0100
0100
,
0001
0000
0001
0100
1000
0000
1000
0000
,
0100
0010
0100
0010
,
0001
1000
0001
1000
,
1000
0100
1000
0100
,
0010
0001
0010
0001
,
1000
0100
0001
0010
,
1000
0100
0010
0001
,
0100
1000
0100
1000
,
0001
0100
1000
0100
,
0001
1000
0010
1000
,
0100
1000
1000
0001
,
0100
0001
0001
0100
,
1000
0000
0000
0000
;

//---------------dance-single - ----------------
#NOTES:
     dance-single:
     :
     Hard:
     6:
     0.379304,0.364419,0.042313,0.000000,0.000000,251.000000,247.000000,4.000000,0.000000,0.000000,0.000000,0.379304,0.364419,0.042313,0.000000,0.000000,251.000000,247.000000,4.000000,0.000000,0.000000,0.000000:
0000
0000
0000
0000
,
0000
0000
0000
0000
,
0100
0000
0100
0000
0100
1000
0100
0000
,
1000
0000
1000
0000
1000
0001
0010
0000
,
0100
0000
0100
0000
0001
0100
1000
0000
,
1000
0001
0100
0000
1000
0010
0100
0000
,
0100
0000
0001
0000
0100
1000
0001
0000
,
1000
0000
1000
0000
1000
0001
1000
0000
,
0100
0000
0100
0000
0100
0010
0100
0000
,
0001
1000
0010
0000
0100
0001
1000
0000
,
1000
0000
1000
0000
0010
0100
0010
0000
,
0001
0000
0100
0000
1000
0010
0100
0000
,
0001
0000
0001
0000
0010
0100
0010
0000
,
0100
0000
0010
0000
1000
0100
0001
0000
,
0100
0001
0001
1000
,
1000
0000
0100
0000
0010
0010
0010
0000
,
1000
0100
0001
0010
,
0001
0000
0100
0000
1000
1000
1000
0000
,
0100
0000
0001
0000
0100
0010
0001
0000
,
0010
1000
0100
0000
,
0100
0000
1000
0000
0100
0001
1000
0000
,
1000
0000
0001
0000
0100
1000
0001
0000
,
1000
0000
0001
0000
0001
0100
0100
0000
,
0010
0000
0100
0000
0001
0001
0100
0000
,
0100
0000
1000
0000
0001
1000
0100
0000
,
0001
0000
0010
0000
0100
1000
1000
0000
,
0010
1000
0100
0000
0001
1000
1000
0000
,
0001
0000
1000
0000
0100
0010
0001
0000
,
0001
0000
0100
0000
0001
1000
0010
0000
,
1000
0000
0100
0000
0100
0001
0001
0000
,
0100
0000
1000
0000
0100
1000
0100
0000
,
0001
0000
1000
0000
1000
0100
0010
0000
,
0001
0000
0100
0000
0010
1000
0100
0000
,
0100
0000
1000
0000
1000
0001
0010
0000
,
0100
0000
0010
0000
0001
0100
0010
0000
,
1000
0000
0100
0000
0010
0100
0100
0000
,
1000
0100
0001
0100
,
0001
0100
0100
0010
,
1000
1000
0100
0100
,
0110
1001
0110
1001
,
0010
0010
0100
0100
,
0001
0001
1000
1000
,
0100
0100
0100
0100
,
0100
0000
1000
0000
0001
0001
0001
0001
,
1000
0000
1000
0000
1000
1000
1000
0000
,
0010
0000
0010
0000
0010
0010
0010
0000
,
1000
0000
0100
0000
0001
0100
0010
0000
,
1000
0000
0010
0000
0100
1000
0001
0000
,
0100
0000
1000
0000
0100
0001
1000
0000
,
0001
0000
0100
0000
1000
0010
0100
0000
,
0001
0000
1000
0000
0010
0001
1000
0000
,
0100
0001
1000
0000
,
0100
0000
1000
0000
0010
0001
0100
0000
,
1000
0000
0000
0000
;

//---------------dance-double - ----------------
#NOTES:
     dance-double:
     :
     Easy:
     1:
     0.078581,0.084097,0.000000,0.000000,0.000000,52.000000,52.000000,0.000000,0.000000,0.000000,0.000000,0.078581,0.084097,0.000000,0.000000,0.000000,52.000000,52.000000,0.000000,0.000000,0.000000,0.000000:
00000000
00000000
00000000
00000000
,
00000000
00000000
00000000
00000000
,
01000000
00000000
00000000
00000000
,
10000000
00000000
00000000
00000000
,
01000000
00000000
00000000
00000000
,
10000000
00000000
00000000
00000000
,
00000100
00000000
00000000
00000000
,
00001000
00000000
00000000
00000000
,
00000010
00000000
00000000
00000000
,
00001000
00000000
00000000
00000000
,
00000001
00000000
00000000
00000000
,
00001000
00000000
00000000
00000000
,
00001000
00000000
00000000
00000000
,
00000100
00000000
00000000
00000000
,
00000100
00000000
00000000
00000000
,
10000000
00000000
00000000
00000000
,
10000000
00000000
00000000
00000000
,
00010000
00000000
00000000
00000000
,
01000000
00000000
00000000
00000000
,
00100000
00000000
00000000
00000000
,
00000100
00000000
00000000
00000000
,
00000001
00000000
00000000
00000000
,
00000001
00000000
00000000
00000000
,
00000010
00000000
00000000
00000000
,
00000100
00000000
00000000
00000000
,
00010000
00000000
00000000
00000000
,
00100000
00000000
00000000
00000000
,
00010000
00000000
00000000
00000000
,
00010000
00000000
00000000
00000000
,
10000000
00000000
00000000
00000000
,
01000000
00000000
00000000
00000000
,
00010000
00000000
00000000
00000000
,
00010000
00000000
00000000
00000000
,
00000100
00000000
00000000
00000000
,
00000100
00000000
00000000
00000000
,
00000001
00000000
00000000
00000000
,
00000001
00000000
00000000
00000000
,
00010000
00000000
00000000
00000000
,
00001000
00000000
00000000
00000000
,
01000000
00000000
00000000
00000000
,
00100000
00000000
00000000
00000000
,
00010000
00000000
00000000
00000000
,
01000000
00000000
00000000
00000000
,
00010000
00000000
00000000
00000000
,
00001000
00000000
00000000
00000000
,
00000010
00000000
00000000
00000000
,
00000001
00000000
00000000
00000000
,
00000001
00000000
00000000
00000000
,
00000100
00000000
00000000
00000000
,
00010000
00000000
00000000
00000000
,
00010000
00000000
00000000
00000000
,
01000000
00000000
00000000
00000000
,
01000000
00000000
00000000
00000000
,
10000000
00000000
00000000
00000000
;

//---------------dance-double - ----------------
#NOTES:
     dance-double:
     :
     Medium:
     4:
     0.324902,0.308355,0.000000,0.000000,0.000000,215.000000,215.000000,0.000000,0.000000,0.000000,0.000000,0.324902,0.308355,0.000000,0.000000,0.000000,215.000000,215.000000,0.000000,0.000000,0.000000,0.000000:
00000000
00000000
00000000
00000000
,
00000000
00000000
00000000
00000000
,
01000000
00100000
01000000
00100000
,
10000000
00010000
10000000
00010000
,
00010000
01000000
00010000
01000000
,
00100000
10000000
00100000
10000000
,
00000100
00000100
00001000
00001000
,
00001000
00001000
00010000
00010000
,
00001000
00000000
00001000
00000000
00000100
00000010
00000100
00000000
,
00001000
00000001
00000100
00000010
,
00000001
00000100
00000010
00001000
,
00001000
00000001
00000001
00000100
,
00010000
00010000
00100000
00100000
,
00000100
00000000
00100000
00000000
00001000
00000100
00010000
00000000
,
01000000
00000000
00010000
00000000
00010000
01000000
10000000
00000000
,
10000000
00000000
01000000
00000000
00100000
10000000
00100000
00000000
,
10000000
01000000
00010000
00100000
,
00010000
00000000
01000000
00000000
10000000
00010000
00100000
00000000
,
00000100
00010000
00000100
00010000
,
00100000
00001000
00000100
00000000
,
00000100
00000000
00000001
00000000
00000100
00000010
00000001
00000000
,
00000001
00001000
00000100
00001000
,
00000001
00000000
00001000
00000000
00000010
00001000
00000100
00000000
,
00000010
00000100
00001000
00000100
,
00000100
00000000
00001000
00000000
00010000
00001000
00000100
00000000
,
00010000
00000000
00100000
00000000
00000100
00010000
00001000
00000000
,
00100000
01000000
00010000
10000000
,
00010000
00000000
10000000
00000000
01000000
10000000
00010000
00000000
,
00010000
01000000
00010000
00100000
,
10000000
01000000
01000000
00010000
,
00000100
00001000
00000100
00000100
,
00010000
00001000
00001000
00100000
,
00001000
00000100
00000010
00000100
,
00000100
00000001
00000001
00000010
,
00000100
00000010
00001000
00000010
,
00000001
00000100
00000010
00000100
,
00001000
00000100
00010000
00000100
,
00010000
00000100
00000100
00100000
,
10000000
10000000
01000000
01000000
,
01000000
01000000
00100000
00100000
,
00100000
00100000
01000000
01000000
,
00010000
00000000
00010000
01000000
10000000
00000000
10000000
00000000
,
00000100
00100000
00000100
00100000
,
00010000
00001000
00010000
00001000
,
00000001
00000100
00000001
00000100
,
00000010
00001000
00000010
00001000
,
00001000
00000100
00010000
00100000
,
10000000
01000000
00100000
00010000
,
01000000
10000000
01000000
10000000
,
00010000
00000100
00001000
00000100
,
00010000
00001000
00100000
00001000
,
00000100
00000001
00000001
00001000
,
00000100
00010000
00010000
00000100
,
10000000
00000000
00000000
00000000
;

//---------------dance-double - ----------------
#NOTES:
     dance-double:
     :
     Hard:
     6:
     0.379304,0.364419,0.042313,0.000000,0.000000,251.000000,247.000000,4.000000,0.000000,0.000000,0.000000,0.379304,0.364419,0.042313,0.000000,0.000000,251.000000,247.000000,4.000000,0.000000,0.000000,0.000000:
00000000
00000000
00000000
00000000
,
00000000
00000000
00000000
00000000
,
01000000
00000000
01000000
00000000
01000000
10000000
01000000
00000000
,
10000000
00000000
10000000
00000000
10000000
00010000
00100000
00000000
,
01000000
00000000
01000000
00000000
00010000
01000000
10000000
00000000
,
10000000
00010000
01000000
00000000
10000000
00100000
01000000
00000000
,
00000100
00000000
00010000
00000000
00000100
00001000
00010000
00000000
,
00001000
00000000
00001000
00000000
00001000
00010000
00001000
00000000
,
00000100
00000000
00000100
00000000
00000100
00000010
00000100
00000000
,
00001000
00000001
00000010
00000000
00000100
00001000
00000001
00000000
,
00000001
00000000
00000001
00000000
00000010
00000100
00000010
00000000
,
00001000
00000000
00000100
00000000
00000001
00000010
00000100
00000000
,
00010000
00000000
00010000
00000000
00100000
00000100
00100000
00000000
,
00000100
00000000
00100000
00000000
00001000
00000100
00010000
00000000
,
01000000
00010000
00010000
10000000
,
10000000
00000000
01000000
00000000
00100000
00100000
00100000
00000000
,
10000000
01000000
00010000
00100000
,
00010000
00000000
01000000
00000000
10000000
10000000
10000000
00000000
,
00000100
00000000
00010000
00000000
00000100
00100000
00010000
00000000
,
00100000
00001000
00000100
00000000
,
00000100
00000000
00000001
00000000
00000100
00001000
00000001
00000000
,
00000001
00000000
00001000
00000000
00000100
00000001
00001000
00000000
,
00000001
00000000
00001000
00000000
00001000
00000100
00000100
00000000
,
00000010
00000000
00000100
00000000
00001000
00001000
00000100
00000000
,
00000100
00000000
00001000
00000000
00010000
00001000
00000100
00000000
,
00010000
00000000
00100000
00000000
00000100
00001000
00001000
00000000
,
00100000
10000000
01000000
00000000
00010000
10000000
10000000
00000000
,
00010000
00000000
10000000
00000000
01000000
00100000
00010000
00000000
,
00010000
00000000
01000000
00000000
00010000
10000000
00100000
00000000
,
10000000
00000000
01000000
00000000
01000000
00010000
00010000
00000000
,
00000100
00000000
00001000
00000000
00000100
00001000
00000100
00000000
,
00010000
00000000
00001000
00000000
00001000
00000100
00100000
00000000
,
00001000
00000000
00000100
00000000
00000010
00000001
00000100
00000000
,
00000100
00000000
00000001
00000000
00000001
00001000
00000010
00000000
,
00000100
00000000
00100000
00000000
00010000
00000100
00100000
00000000
,
10000000
00000000
01000000
00000000
00100000
01000000
01000000
00000000
,
00001000
00000100
00010000
00000100
,
00001000
00000100
00000100
00000010
,
00000001
00000001
00000100
00000100
,
00000110
00001001
00000110
00001001
,
00000010
00000010
00000100
00000100
,
00010000
00010000
00001000
00001000
,
00000100
00000100
00000100
00000100
,
01000000
00000000
10000000
00000000
00010000
00010000
00010000
00010000
,
10000000
00000000
10000000
00000000
10000000
10000000
10000000
00000000
,
00100000
00000000
00100000
00000000
00100000
00100000
00100000
00000000
,
00001000
00000000
00000100
00000000
00010000
00000100
00100000
00000000
,
00000001
00000000
00000010
00000000
00000100
00000001
00001000
00000000
,
00000100
00000000
00000001
00000000
00000100
00001000
00000001
00000000
,
00010000
00000000
00000100
00000000
00001000
00100000
00000100
00000000
,
00010000
00000000
10000000
00000000
00100000
00010000
10000000
00000000
,
00000100
00010000
00001000
00000000
,
00000100
00000000
00001000
00000000
00100000
00010000
00000100
00000000
,
00000001
00000000
00000000
00000000
;

//---------------dance-solo - ----------------
#NOTES:
     dance-solo:
     :
     Easy:
     1:
     0.078581,0.084097,0.000000,0.000000,0.000000,52.000000,52.000000,0.000000,0.000000,0.000000,0.000000,0.078581,0.084097,0.000000,0.000000,0.000000,52.000000,52.000000,0.000000,0.000000,0.000000,0.000000:
// measure 0
000000
000000
000000
000000
,  // measure 1
000000
000000
000000
000000
,  // measure 2
001000
000000
000000
000000
,  // measure 3
000010
000000
000000
000000
,  // measure 4
001000
000000
000000
000000
,  // measure 5
000010
000000
000000
000000
,  // measure 6
001000
000000
000000
000000
,  // measure 7
100000
000000
000000
000000
,  // measure 8
010000
000000
000000
000000
,  // measure 9
000001
000000
000000
000000
,  // measure 10
100000
000000
000000
000000
,  // measure 11
000001
000000
000000
000000
,  // measure 12
000001
000000
000000
000000
,  // measure 13
001000
000000
000000
000000
,  // measure 14
001000
000000
000000
000000
,  // measure 15
000010
000000
000000
000000
,  // measure 16
100000
000000
000000
000000
,  // measure 17
000001
000000
000000
000000
,  // measure 18
001000
000000
000000
000000
,  // measure 19
000100
000000
000000
000000
,  // measure 20
001000
000000
000000
000000
,  // measure 21
000010
000000
000000
000000
,  // measure 22
100000
000000
000000
000000
,  // measure 23
000100
000000
000000
000000
,  // measure 24
001000
000000
000000
000000
,  // measure 25
000001
000000
000000
000000
,  // measure 26
000100
000000
000000
000000
,  // measure 27
000001
000000
000000
000000
,  // measure 28
000001
000000
000000
000000
,  // measure 29
000010
000000
000000
000000
,  // measure 30
001000
000000
000000
000000
,  // measure 31
000001
000000
000000
000000
,  // measure 32
000001
000000
000000
000000
,  // measure 33
001000
000000
000000
000000
,  // measure 34
001000
000000
000000
000000
,  // measure 35
000010
000000
000000
000000
,  // measure 36
100000
000000
000000
000000
,  // measure 37
000001
000000
000000
000000
,  // measure 38
100000
000000
000000
000000
,  // measure 39
001000
000000
000000
000000
,  // measure 40
010000
000000
000000
000000
,  // measure 41
000001
000000
000000
000000
,  // measure 42
001000
000000
000000
000000
,  // measure 43
000001
000000
000000
000000
,  // measure 44
100000
000000
000000
000000
,  // measure 45
000100
000000
000000
000000
,  // measure 46
100000
000000
000000
000000
,  // measure 47
000010
000000
000000
000000
,  // measure 48
001000
000000
000000
000000
,  // measure 49
000001
000000
000000
000000
,  // measure 50
000001
000000
000000
000000
,  // measure 51
001000
000000
000000
000000
,  // measure 52
001000
000000
000000
000000
,  // measure 53
000010
000000
000000
000000
;

//---------------dance-solo - ----------------
#NOTES:
     dance-solo:
     :
     Medium:
     4:
     0.324902,0.308355,0.000000,0.000000,0.000000,215.000000,215.000000,0.000000,0.000000,0.000000,0.000000,0.324902,0.308355,0.000000,0.000000,0.000000,215.000000,215.000000,0.000000,0.000000,0.000000,0.000000:
// measure 0
000000
000000
000000
000000
,  // measure 1
000000
000000
000000
000000
,  // measure 2
001000
010000
001000
010000
,  // measure 3
000010
000001
000010
000001
,  // measure 4
000001
001000
000001
001000
,  // measure 5
000100
000010
000100
000010
,  // measure 6
001000
001000
100000
100000
,  // measure 7
100000
100000
000001
000001
,  // measure 8
000001
000000
000001
000000
001000
010000
001000
000000
,  // measure 9
000001
000010
001000
000100
,  // measure 10
100000
001000
010000
000001
,  // measure 11
000001
000010
000010
001000
,  // measure 12
000001
000001
000100
000100
,  // measure 13
001000
000000
000100
000000
100000
001000
000001
000000
,  // measure 14
001000
000000
000001
000000
000001
001000
100000
000000
,  // measure 15
000010
000000
001000
000000
000100
000010
000100
000000
,  // measure 16
100000
001000
000001
010000
,  // measure 17
000001
000000
001000
000000
000010
000001
000100
000000
,  // measure 18
001000
000001
001000
000001
,  // measure 19
000100
100000
001000
000000
,  // measure 20
001000
000000
100000
000000
001000
010000
100000
000000
,  // measure 21
000010
000001
001000
000001
,  // measure 22
100000
000000
000001
000000
010000
000001
001000
000000
,  // measure 23
000100
001000
000001
001000
,  // measure 24
001000
000000
100000
000000
000001
100000
001000
000000
,  // measure 25
000001
000000
000100
000000
001000
000001
100000
000000
,  // measure 26
010000
001000
000001
100000
,  // measure 27
000001
000000
000010
000000
001000
000010
000001
000000
,  // measure 28
000001
001000
000001
010000
,  // measure 29
000010
001000
001000
000001
,  // measure 30
001000
100000
001000
001000
,  // measure 31
000001
100000
100000
000100
,  // measure 32
000001
001000
010000
001000
,  // measure 33
001000
000010
000010
000100
,  // measure 34
001000
010000
000001
010000
,  // measure 35
000010
001000
000100
001000
,  // measure 36
100000
001000
000001
001000
,  // measure 37
000001
001000
001000
000100
,  // measure 38
100000
100000
001000
001000
,  // measure 39
001000
001000
000100
000100
,  // measure 40
010000
010000
001000
001000
,  // measure 41
000001
000000
000001
001000
000010
000000
000010
000000
,  // measure 42
001000
000100
001000
000100
,  // measure 43
000001
100000
000001
100000
,  // measure 44
100000
001000
100000
001000
,  // measure 45
000100
000001
000100
000001
,  // measure 46
100000
001000
000001
000100
,  // measure 47
000010
001000
000100
000001
,  // measure 48
001000
100000
001000
100000
,  // measure 49
000001
001000
100000
001000
,  // measure 50
000001
100000
000100
100000
,  // measure 51
001000
000010
000010
000001
,  // measure 52
001000
000001
000001
001000
,  // measure 53
000010
000000
000000
000000
;

//---------------dance-solo - ----------------
#NOTES:
     dance-solo:
     :
     Hard:
     6:
     0.379304,0.364419,0.042313,0.000000,0.000000,251.000000,247.000000,4.000000,0.000000,0.000000,0.000000,0.379304,0.364419,0.042313,0.000000,0.000000,251.000000,247.000000,4.000000,0.000000,0.000000,0.000000:
// measure 0
000000
000000
000000
000000
,  // measure 1
000000
000000
000000
000000
,  // measure 2
001000
000000
001000
000000
001000
100000
001000
000000
,  // measure 3
000010
000000
000010
000000
000010
000001
000100
000000
,  // measure 4
001000
000000
001000
000000
000001
001000
100000
000000
,  // measure 5
000010
000001
001000
000000
000010
000100
001000
000000
,  // measure 6
001000
000000
000001
000000
001000
100000
000001
000000
,  // measure 7
100000
000000
100000
000000
100000
000001
100000
000000
,  // measure 8
001000
000000
001000
000000
001000
010000
001000
000000
,  // measure 9
000001
000010
000100
000000
001000
000001
000010
000000
,  // measure 10
100000
000000
100000
000000
010000
001000
010000
000000
,  // measure 11
000001
000000
001000
000000
000010
000100
001000
000000
,  // measure 12
000001
000000
000001
000000
000100
001000
000100
000000
,  // measure 13
001000
000000
000100
000000
100000
001000
000001
000000
,  // measure 14
001000
000001
000001
100000
,  // measure 15
000010
000000
001000
000000
000100
000100
000100
000000
,  // measure 16
100000
001000
000001
010000
,  // measure 17
000001
000000
001000
000000
000010
000010
000010
000000
,  // measure 18
001000
000000
000001
000000
001000
000100
000001
000000
,  // measure 19
000100
100000
001000
000000
,  // measure 20
001000
000000
100000
000000
001000
000001
100000
000000
,  // measure 21
000010
000000
000001
000000
001000
000010
000001
000000
,  // measure 22
100000
000000
000001
000000
000001
001000
001000
000000
,  // measure 23
000100
000000
001000
000000
000001
000001
001000
000000
,  // measure 24
001000
000000
100000
000000
000001
100000
001000
000000
,  // measure 25
000001
000000
000100
000000
001000
100000
100000
000000
,  // measure 26
010000
100000
001000
000000
000001
100000
100000
000000
,  // measure 27
000001
000000
000010
000000
001000
000100
000001
000000
,  // measure 28
000001
000000
001000
000000
000001
100000
010000
000000
,  // measure 29
000010
000000
001000
000000
001000
000001
000001
000000
,  // measure 30
001000
000000
100000
000000
001000
100000
001000
000000
,  // measure 31
000001
000000
100000
000000
100000
001000
000100
000000
,  // measure 32
000001
000000
001000
000000
010000
100000
001000
000000
,  // measure 33
001000
000000
000010
000000
000010
000001
000100
000000
,  // measure 34
001000
000000
000100
000000
000001
001000
000100
000000
,  // measure 35
000010
000000
001000
000000
000100
001000
001000
000000
,  // measure 36
100000
001000
000001
001000
,  // measure 37
000001
001000
001000
000100
,  // measure 38
100000
100000
001000
001000
,  // measure 39
001100
000011
001100
000011
,  // measure 40
010000
010000
001000
001000
,  // measure 41
000001
000001
100000
100000
,  // measure 42
001000
001000
001000
001000
,  // measure 43
001000
000000
000010
000000
000001
000001
000001
000001
,  // measure 44
100000
000000
100000
000000
100000
100000
100000
000000
,  // measure 45
000100
000000
000100
000000
000100
000100
000100
000000
,  // measure 46
100000
000000
001000
000000
000001
001000
000100
000000
,  // measure 47
000010
000000
000100
000000
001000
000010
000001
000000
,  // measure 48
001000
000000
100000
000000
001000
000001
100000
000000
,  // measure 49
000001
000000
001000
000000
100000
000100
001000
000000
,  // measure 50
000001
000000
100000
000000
010000
000001
100000
000000
,  // measure 51
001000
000001
100000
000000
,  // measure 52
001000
000000
100000
000000
000100
000001
001000
000000
,  // measure 53
000010
000000
000000
000000
;
