#TITLE:UltimateX;
#SUBTITLE:;
#ARTIST:.;
#TITLETRANSLIT:;
#SUBTITLETRANSLIT:;
#ARTISTTRANSLIT:;
#GENRE:;
#CREDIT:;
#BANNER:UltimateX.jpg;
#BACKGROUND:UltimateX-Bg.jpg;
#LYRICSPATH:;
#CDTITLE:S15.jpg;
#MUSIC:UltimateX.ogg;
#OFFSET:0.000000;
#SAMPLESTART:34.671001;
#SAMPLELENGTH:18.669001;
#SELECTABLE:YES;
#BPMS:0.000000=179.975998
;
#STOPS:
;
#BGCHANGES:;
#KEYSOUNDS:;
#ATTACKS:;

//---------------dance-single - ----------------
#NOTES:
     dance-single:
     :
     Easy:
     6:
     0.468932,0.540593,0.487021,0.000000,0.000000,337.000000,287.000000,50.000000,0.000000,0.000000,0.000000,0.468932,0.540593,0.487021,0.000000,0.000000,337.000000,287.000000,50.000000,0.000000,0.000000,0.000000:
0000
0000
0000
0000
,
0000
0000
0000
0000
,
0100
0100
0100
0100
,
1100
1000
1000
0010
,
0100
1100
0001
1000
,
1000
0100
1000
0100
,
0100
1001
0100
0001
,
1000
1000
1000
1000
,
0100
0101
0100
0100
,
0001
0010
0100
1000
,
1000
1010
0010
0010
,
0001
0110
1000
0100
,
1001
0001
0010
0010
,
0100
0011
1000
0001
,
0100
0001
0001
1100
,
1000
1100
0010
0010
,
1000
0101
0001
0010
,
0001
0110
1000
1000
,
0100
0001
0100
0001
,
0010
1001
0100
0100
,
0100
1000
0100
1000
,
1000
1001
0100
0001
,
1000
0001
0001
0010
,
0110
0100
0001
0100
,
0100
1001
0001
0100
,
0001
0010
0100
1000
,
0010
0100
0001
1000
,
0001
1000
0100
0001
,
0001
0100
0001
0010
,
1000
0100
0100
0001
,
0100
1000
0100
0100
,
0001
1000
1000
0010
,
0001
0100
0010
0100
,
0100
1000
1000
0010
,
0100
0010
0001
0010
,
1000
0100
0010
0100
,
1000
0100
0001
0100
,
0001
0100
0100
0010
,
1000
1000
0100
0100
,
0110
1001
0110
1001
,
0010
0010
0100
0100
,
0001
0001
1000
1000
,
0100
0100
0100
0100
,
0100
1000
0001
0001
,
1000
1000
1000
1000
,
0010
0010
0010
0010
,
1000
0000
0001
0010
,
0001
0101
1000
1001
,
1001
0110
1001
0100
,
1000
0100
0100
0100
,
0100
0001
0100
0100
,
1000
0001
0100
1001
,
0100
0001
0010
1000
,
1001
0001
0100
1000
,
0100
0010
0100
0010
,
0100
0001
1000
1001
,
0010
0010
0001
0100
,
0100
0010
0010
0000
,
1001
0110
1001
0001
,
0001
1000
0001
1000
,
0100
0010
0100
0001
,
0110
1001
0100
0001
,
0001
1000
1000
0001
,
1001
1001
1000
0001
,
0001
1000
1001
1001
,
0110
0001
0100
1001
,
0100
0001
0100
0001
,
0001
0010
0100
0001
,
1000
0001
0010
0100
,
0010
0100
1001
1001
,
0101
1010
0101
1010
,
0001
1000
0001
1000
,
0110
1001
0110
1001
,
0001
0001
0001
0001
,
1001
0000
0000
0000
;

//---------------dance-single - ----------------
#NOTES:
     dance-single:
     :
     Medium:
     8:
     0.621995,0.720791,0.623387,0.000000,0.000000,447.000000,383.000000,64.000000,0.000000,0.000000,0.000000,0.621995,0.720791,0.623387,0.000000,0.000000,447.000000,383.000000,64.000000,0.000000,0.000000,0.000000:
0000
0000
0000
0000
,
0000
0000
0000
0000
,
0100
0000
0100
0000
0100
1000
0100
0000
,
1100
0000
1000
0000
1000
0001
0010
0000
,
0100
0000
1100
0000
0001
0100
1000
0000
,
1000
0001
0100
0000
1000
0010
0100
0000
,
0100
0000
1001
0000
0100
1000
0001
0000
,
1000
0000
1000
0000
1000
0001
1000
0000
,
0100
0000
0101
0000
0100
0010
0100
0000
,
0001
1000
0010
0000
0100
0001
1000
0000
,
1000
0000
1010
0000
0010
0100
0010
0000
,
0001
0000
0110
0000
1000
0010
0100
0000
,
1001
0000
0001
0000
0010
0100
0010
0000
,
0100
0000
0011
0000
1000
0100
0001
0000
,
0100
0001
0001
1100
,
1000
0000
1100
0000
0010
0010
0010
0000
,
1000
0101
0001
0010
,
0001
0000
0110
0000
1000
1000
1000
0000
,
0100
0000
0001
0000
0100
0010
0001
0000
,
0010
1001
0100
0100
,
0100
0000
1000
0000
0100
0001
1000
0000
,
1000
0000
1001
0000
0100
1000
0001
0000
,
1000
0000
0001
0000
0001
0100
0010
0000
,
0110
0000
0100
0000
0001
0001
0100
0000
,
0100
0000
1001
0000
0001
1000
0100
0000
,
0001
0000
0010
0000
0100
1000
1000
0000
,
0010
1000
0100
0000
0001
1000
1000
0000
,
0001
0100
1000
0000
0100
0010
0001
0000
,
0001
1000
0100
0000
0001
1000
0010
0000
,
1000
0000
0100
0000
0100
0001
0001
0000
,
0100
0000
1000
0000
0100
1000
0100
0000
,
0001
0100
1000
0000
1000
0100
0010
0000
,
0001
0000
0100
0000
0010
1000
0100
1000
,
0100
0000
1000
0000
1000
0001
0010
0100
,
0100
0000
0010
1000
0001
0100
0110
0000
,
1000
0000
0100
0000
0010
0101
0100
0000
,
1000
1100
0001
0100
,
1001
0000
0100
0000
0100
0001
0010
0000
,
1000
0000
1000
0010
0100
0010
0100
0000
,
0110
0000
1001
0100
0110
0000
1001
0000
,
0010
0100
0010
1000
0100
0000
0100
0000
,
0001
0000
0001
0001
1000
0010
1000
0000
,
0100
0000
0100
0010
0100
0001
0100
0000
,
0100
0000
1000
0000
0001
0001
0001
0000
,
1000
0001
1000
0001
1000
0010
1000
0100
,
0010
0100
0010
1000
0010
0001
0010
0000
,
1000
0000
0000
0000
0001
0100
0010
0000
,
0001
0001
0101
0000
1000
1000
1001
0000
,
1001
0000
0110
0000
1001
0100
0100
0000
,
1000
0010
0100
0000
0100
0001
0100
0000
,
0100
0010
0001
0000
0100
0001
0100
0000
,
1000
0100
0001
0000
0100
1000
1001
0000
,
0100
0001
0001
0000
0010
0100
1000
0000
,
1001
0000
0001
1000
0100
0000
1000
0000
,
0100
0000
0010
0001
0100
0000
0010
0100
,
0100
0000
0001
0100
1000
0000
1001
0100
,
0010
0000
0010
0000
0001
0000
0100
0010
,
0100
0000
0010
0010
0010
0000
0010
0000
,
1001
0110
1001
0011
,
0001
0000
1000
0100
0001
0000
1000
0001
,
0100
0010
0100
0001
,
0110
0000
1001
0000
0110
1000
0001
0000
,
0001
0100
1000
0000
1000
0100
0001
0000
,
1001
1001
1001
0000
1000
0100
0001
0000
,
0001
0100
1000
0000
1001
1001
1001
0000
,
0110
0000
0001
1000
0100
0000
1001
0000
,
1100
0011
0101
1001
,
0001
0010
0100
0001
,
1000
0010
0001
0000
0010
1000
0100
0000
,
0010
1000
0100
0000
1001
0000
1001
0000
,
0101
1010
0101
1010
,
0001
0100
1000
0000
0001
0001
1000
0000
,
0110
1001
0110
1001
,
0001
1000
0001
0000
1100
0001
0001
1001
,
1001
0000
0000
0000
;

//---------------dance-single - ----------------
#NOTES:
     dance-single:
     :
     Hard:
     9:
     0.652608,0.756830,0.642868,0.000000,0.000000,469.000000,403.000000,66.000000,0.000000,0.000000,0.000000,0.652608,0.756830,0.642868,0.000000,0.000000,469.000000,403.000000,66.000000,0.000000,0.000000,0.000000:
0000
0000
0000
0000
,
0000
0000
0000
0000
,
0100
0000
0100
0000
0100
1000
0100
0000
,
1100
0000
1000
0000
1000
0001
0010
0000
,
0100
0000
1100
0000
0001
0100
1000
0000
,
1000
0001
0100
0000
1000
0010
0100
0000
,
0100
0000
1001
0000
0100
1000
0001
0000
,
1000
0000
1000
0000
1000
0001
1000
0000
,
0100
0000
0101
0000
0100
0010
0100
0000
,
0001
1000
0010
0000
0100
0001
1000
0000
,
1000
0000
1010
0000
0010
0100
0010
0000
,
0001
0000
0110
0000
1000
0010
0100
0000
,
1001
0000
0001
0000
0010
0100
0010
0000
,
0100
0000
0011
0000
1000
0100
0001
0000
,
0100
0001
0001
1100
,
1000
0000
1100
0000
0010
0010
0010
0000
,
1000
0101
0001
0010
,
0001
0000
0110
0000
1000
1000
1000
0000
,
0100
0000
0001
0000
0100
0010
0001
0000
,
0010
1001
0100
0100
,
0100
0000
1000
0000
0100
0001
1000
0000
,
1000
0000
1001
0000
0100
1000
0001
0000
,
1000
0000
0001
0000
0001
0100
0010
0000
,
0110
0000
0100
0000
0001
0001
0100
0000
,
0100
0000
1001
0000
0001
1000
0100
0000
,
0001
0000
0010
0000
0100
1000
1000
0000
,
0010
1000
0100
0000
0001
1000
1000
0000
,
0001
0100
1000
0000
0100
0010
0001
0000
,
0001
1000
0100
0000
0001
1000
0010
0100
,
1000
0000
0100
0000
0100
0001
0001
0000
,
0100
0000
1000
0000
0100
1000
0100
0000
,
0001
0100
1000
0001
1000
0100
0010
0000
,
0001
0000
0100
1000
0010
1000
0100
1000
,
0100
0100
1000
0000
1000
0001
0010
0100
,
0100
0000
0010
1000
0001
0100
0110
0000
,
1000
0000
0100
0001
0010
0101
0100
0000
,
1000
0000
1100
0000
0001
0000
0100
0001
,
1001
0000
0100
0010
0100
0001
0010
0000
,
1000
0000
1000
0010
0100
0010
0100
0000
,
0110
0000
1001
0100
0110
0000
1001
0000
,
0010
0100
0010
1000
0100
0001
0100
0000
,
0001
0010
0001
0001
1000
0010
1000
0100
,
0100
0000
0100
0010
0100
0001
0100
0000
,
0100
0000
1001
0000
0001
0001
0001
0000
,
1000
0001
1000
0001
1000
0010
1000
0100
,
0010
0100
0010
1000
0010
0001
0010
0000
,
1000
0001
1000
0010
0001
0100
0010
0000
,
0001
0001
0101
0000
1000
1000
1001
0000
,
1001
0000
0110
0000
1001
0100
0100
0000
,
1000
0010
0100
0000
0100
0001
0100
0000
,
0100
0010
0001
0000
0100
0001
0100
0000
,
1000
0100
0001
0000
0100
1000
1001
0000
,
0100
0001
0001
0000
0010
0100
1000
0000
,
1001
0000
0001
1000
0100
0000
1000
0000
,
0100
0000
0010
0001
0100
0000
0010
0100
,
0100
0000
0001
0100
1000
0000
1001
0100
,
0010
0000
0010
0000
0001
0000
0100
0010
,
0100
0000
0010
0010
0010
0000
0010
0000
,
1001
0110
1001
0011
,
0001
0000
1000
0100
0001
0000
1000
0001
,
0100
0000
0010
0001
0100
0000
0001
0000
,
0110
0000
1001
0000
0110
1000
0001
0000
,
0001
0100
1000
0000
1000
0100
0001
0000
,
1001
1001
1001
1000
1000
0100
0001
0000
,
0001
0100
1000
0000
1001
1001
1001
0000
,
0110
0000
0001
1000
0100
0000
1001
0000
,
1100
0011
0101
1001
,
0001
0000
0010
0001
0100
0000
0001
1000
,
1000
0010
0001
0000
0010
1000
0100
0001
,
0010
1000
0100
0000
1001
0000
1001
0000
,
0101
1010
0101
1010
,
0001
0100
1000
0000
0001
0001
1000
0010
,
0110
0100
1001
0000
0110
0000
1001
0000
,
0001
1100
0001
0000
1100
0001
0001
1001
,
1001
0000
0000
0000
;

//---------------dance-double - ----------------
#NOTES:
     dance-double:
     :
     Easy:
     6:
     0.468932,0.540593,0.487021,0.000000,0.000000,337.000000,287.000000,50.000000,0.000000,0.000000,0.000000,0.468932,0.540593,0.487021,0.000000,0.000000,337.000000,287.000000,50.000000,0.000000,0.000000,0.000000:
00000000
00000000
00000000
00000000
,
00000000
00000000
00000000
00000000
,
01000000
01000000
01000000
01000000
,
11000000
10000000
10000000
00100000
,
01000000
11000000
00010000
10000000
,
10000000
01000000
10000000
01000000
,
00000100
00011000
00000100
00010000
,
00001000
00001000
00001000
00001000
,
00000100
00001100
00000100
00000100
,
00001000
00000010
00000100
00000001
,
00000001
00000011
00000010
00000010
,
00001000
00000110
00000001
00000100
,
00011000
00010000
00100000
00100000
,
00000100
00110000
00001000
00010000
,
01000000
00010000
00010000
11000000
,
10000000
11000000
00100000
00100000
,
10000000
01010000
00010000
00100000
,
00010000
01100000
10000000
10000000
,
00000100
00010000
00000100
00010000
,
00100000
00011000
00000100
00000100
,
00000100
00000001
00000100
00000001
,
00000001
00001001
00000100
00001000
,
00000001
00001000
00001000
00000010
,
00000110
00000100
00001000
00000100
,
00000100
00011000
00010000
00000100
,
00010000
00100000
00000100
00001000
,
00100000
01000000
00010000
10000000
,
00010000
10000000
01000000
00010000
,
00010000
01000000
00010000
00100000
,
10000000
01000000
01000000
00010000
,
00000100
00001000
00000100
00000100
,
00010000
00001000
00001000
00100000
,
00001000
00000100
00000010
00000100
,
00000100
00000001
00000001
00000010
,
00000100
00000010
00001000
00000010
,
00000001
00000100
00000010
00000100
,
00001000
00000100
00010000
00000100
,
00010000
00000100
00000100
00100000
,
10000000
10000000
01000000
01000000
,
01100000
10010000
01100000
10010000
,
00100000
00100000
01000000
01000000
,
00010000
00010000
10000000
10000000
,
00000100
00000100
00000100
00000100
,
00000100
00001000
00010000
00010000
,
00000001
00000001
00000001
00000001
,
00100000
00100000
00100000
00100000
,
00001000
00000000
00010000
00100000
,
00010000
01010000
10000000
10010000
,
10010000
01100000
10010000
01000000
,
10000000
01000000
01000000
01000000
,
01000000
00010000
01000000
01000000
,
00001000
00010000
00000100
00011000
,
00000100
00010000
00100000
00001000
,
00001001
00001000
00000100
00000001
,
00000100
00100000
00000100
00100000
,
00000100
00010000
00001000
00011000
,
00100000
00100000
00010000
01000000
,
01000000
00100000
00100000
00000000
,
10010000
01100000
10010000
00010000
,
00010000
10000000
00010000
10000000
,
00000100
00100000
00000100
00010000
,
00000110
00001001
00000100
00001000
,
00001000
00000001
00000001
00001000
,
00001001
00001001
00000001
00001000
,
00001000
00000001
00001001
00001001
,
00100100
00010000
00000100
00011000
,
00000100
00010000
00000100
00010000
,
00010000
00100000
01000000
00010000
,
10000000
00010000
00100000
01000000
,
00100000
00000100
00011000
00011000
,
00001100
00000011
00001100
00000011
,
00001000
00000001
00001000
00000001
,
00000110
00001001
00000110
00001001
,
00001000
00001000
00001000
00001000
,
00011000
00000000
00000000
00000000
;

//---------------dance-double - ----------------
#NOTES:
     dance-double:
     :
     Medium:
     8:
     0.621995,0.720791,0.623387,0.000000,0.000000,447.000000,383.000000,64.000000,0.000000,0.000000,0.000000,0.621995,0.720791,0.623387,0.000000,0.000000,447.000000,383.000000,64.000000,0.000000,0.000000,0.000000:
00000000
00000000
00000000
00000000
,
00000000
00000000
00000000
00000000
,
01000000
00000000
01000000
00000000
01000000
10000000
01000000
00000000
,
11000000
00000000
10000000
00000000
10000000
00010000
00100000
00000000
,
01000000
00000000
11000000
00000000
00010000
01000000
10000000
00000000
,
10000000
00010000
01000000
00000000
10000000
00100000
01000000
00000000
,
00000100
00000000
00011000
00000000
00000100
00001000
00010000
00000000
,
00001000
00000000
00001000
00000000
00001000
00010000
00001000
00000000
,
00000100
00000000
00001100
00000000
00000100
00000010
00000100
00000000
,
00001000
00000001
00000010
00000000
00000100
00001000
00000001
00000000
,
00000001
00000000
00000011
00000000
00000010
00000100
00000010
00000000
,
00001000
00000000
00000110
00000000
00000001
00000010
00000100
00000000
,
00011000
00000000
00010000
00000000
00100000
00000100
00100000
00000000
,
00000100
00000000
00110000
00000000
00001000
00000100
00010000
00000000
,
01000000
00010000
00010000
11000000
,
10000000
00000000
11000000
00000000
00100000
00100000
00100000
00000000
,
10000000
01010000
00010000
00100000
,
00010000
00000000
01100000
00000000
10000000
10000000
10000000
00000000
,
00000100
00000000
00010000
00000000
00000100
00100000
00010000
00000000
,
00100000
00011000
00000100
00000100
,
00000100
00000000
00000001
00000000
00000100
00001000
00000001
00000000
,
00000001
00000000
00001001
00000000
00000100
00000001
00001000
00000000
,
00000001
00000000
00001000
00000000
00001000
00000100
00000010
00000000
,
00000110
00000000
00000100
00000000
00001000
00001000
00000100
00000000
,
00000100
00000000
00011000
00000000
00010000
00001000
00000100
00000000
,
00010000
00000000
00100000
00000000
00000100
00001000
00001000
00000000
,
00100000
10000000
01000000
00000000
00010000
10000000
10000000
00000000
,
00010000
01000000
10000000
00000000
01000000
00100000
00010000
00000000
,
00010000
10000000
01000000
00000000
00010000
10000000
00100000
00000000
,
10000000
00000000
01000000
00000000
01000000
00010000
00010000
00000000
,
00000100
00000000
00001000
00000000
00000100
00001000
00000100
00000000
,
00010000
00000100
00001000
00000000
00001000
00000100
00100000
00000000
,
00001000
00000000
00000100
00000000
00000010
00000001
00000100
00000001
,
00000100
00000000
00000001
00000000
00000001
00001000
00000010
00000100
,
00000100
00000000
00000010
00000001
00001000
00000100
00000110
00000000
,
00000001
00000000
00000100
00000000
00000010
00001100
00000100
00000000
,
00001000
00001100
00010000
00000100
,
10010000
00000000
01000000
00000000
01000000
00010000
00100000
00000000
,
10000000
00000000
10000000
00100000
01000000
00100000
01000000
00000000
,
00100100
00000000
00011000
00000100
00100100
00000000
00011000
00000000
,
00000010
00000100
00000010
00000001
00000100
00000000
00000100
00000000
,
00001000
00000000
00001000
00001000
00000001
00000010
00000001
00000000
,
00000100
00000000
00000100
00100000
00000100
00010000
00000100
00000000
,
00000100
00000000
00001000
00000000
00010000
00010000
00010000
00000000
,
10000000
00010000
10000000
00010000
10000000
00100000
10000000
01000000
,
00100000
01000000
00100000
10000000
00100000
00010000
00100000
00000000
,
10000000
00000000
00000000
00000000
00010000
01000000
00100000
00000000
,
00010000
00010000
00010100
00000000
00001000
00001000
00011000
00000000
,
00001001
00000000
00000110
00000000
00001001
00000100
00000100
00000000
,
00000001
00000010
00000100
00000000
00000100
00001000
00000100
00000000
,
00000100
00100000
00010000
00000000
00000100
00010000
00000100
00000000
,
00001000
00000100
00010000
00000000
00000100
00001000
00011000
00000000
,
01000000
00010000
00010000
00000000
00100000
01000000
10000000
00000000
,
10010000
00000000
00010000
10000000
01000000
00000000
10000000
00000000
,
00000100
00000000
00100000
00010000
00000100
00000000
00100000
00000100
,
00000100
00000000
00010000
00000100
00001000
00000000
00011000
00000100
,
00000010
00000000
00000010
00000000
00001000
00000000
00000100
00000010
,
00000100
00000000
00100000
00100000
00100000
00000000
00100000
00000000
,
10010000
01100000
10010000
00110000
,
00010000
00000000
10000000
01000000
00010000
00000000
10000000
00010000
,
01000000
00100000
01000000
00010000
,
01100000
00000000
10010000
00000000
01100000
10000000
00010000
00000000
,
00010000
00000100
00001000
00000000
00001000
00000100
00010000
00000000
,
00001001
00001001
00001001
00000000
00000001
00000100
00001000
00000000
,
00001000
00000100
00000001
00000000
00001001
00001001
00001001
00000000
,
00100100
00000000
00010000
00001000
00000100
00000000
00011000
00000000
,
00001100
00110000
00010100
00011000
,
00010000
00100000
01000000
00010000
,
10000000
00100000
00010000
00000000
00100000
10000000
01000000
00000000
,
00100000
10000000
01000000
00000000
10010000
00000000
10010000
00000000
,
01010000
10100000
01010000
10100000
,
00010000
00000100
00001000
00000000
00010000
00010000
00001000
00000000
,
00100100
00011000
00100100
00011000
,
00001000
00000001
00001000
00000000
00000101
00001000
00001000
00001001
,
00001001
00000000
00000000
00000000
;

//---------------dance-double - ----------------
#NOTES:
     dance-double:
     :
     Hard:
     9:
     0.652608,0.756830,0.642868,0.000000,0.000000,469.000000,403.000000,66.000000,0.000000,0.000000,0.000000,0.652608,0.756830,0.642868,0.000000,0.000000,469.000000,403.000000,66.000000,0.000000,0.000000,0.000000:
00000000
00000000
00000000
00000000
,
00000000
00000000
00000000
00000000
,
01000000
00000000
01000000
00000000
01000000
10000000
01000000
00000000
,
11000000
00000000
10000000
00000000
10000000
00010000
00100000
00000000
,
01000000
00000000
11000000
00000000
00010000
01000000
10000000
00000000
,
10000000
00010000
01000000
00000000
10000000
00100000
01000000
00000000
,
00000100
00000000
00011000
00000000
00000100
00001000
00010000
00000000
,
00001000
00000000
00001000
00000000
00001000
00010000
00001000
00000000
,
00000100
00000000
00001100
00000000
00000100
00000010
00000100
00000000
,
00001000
00000001
00000010
00000000
00000100
00001000
00000001
00000000
,
00000001
00000000
00000011
00000000
00000010
00000100
00000010
00000000
,
00001000
00000000
00000110
00000000
00000001
00000010
00000100
00000000
,
00011000
00000000
00010000
00000000
00100000
00000100
00100000
00000000
,
00000100
00000000
00110000
00000000
00001000
00000100
00010000
00000000
,
01000000
00010000
00010000
11000000
,
10000000
00000000
11000000
00000000
00100000
00100000
00100000
00000000
,
10000000
01010000
00010000
00100000
,
00010000
00000000
01100000
00000000
10000000
10000000
10000000
00000000
,
00000100
00000000
00010000
00000000
00000100
00100000
00010000
00000000
,
00100000
00011000
00000100
00000100
,
00000100
00000000
00000001
00000000
00000100
00001000
00000001
00000000
,
00000001
00000000
00001001
00000000
00000100
00000001
00001000
00000000
,
00000001
00000000
00001000
00000000
00001000
00000100
00000010
00000000
,
00000110
00000000
00000100
00000000
00001000
00001000
00000100
00000000
,
00000100
00000000
00011000
00000000
00010000
00001000
00000100
00000000
,
00010000
00000000
00100000
00000000
00000100
00001000
00001000
00000000
,
00100000
10000000
01000000
00000000
00010000
10000000
10000000
00000000
,
00010000
01000000
10000000
00000000
01000000
00100000
00010000
00000000
,
00010000
10000000
01000000
00000000
00010000
10000000
00100000
01000000
,
10000000
00000000
01000000
00000000
01000000
00010000
00010000
00000000
,
00000100
00000000
00001000
00000000
00000100
00001000
00000100
00000000
,
00010000
00000100
00001000
00010000
00001000
00000100
00100000
00000000
,
00001000
00000000
00000100
00000001
00000010
00000001
00000100
00000001
,
00000100
00000100
00000001
00000000
00000001
00001000
00000010
00000100
,
00000100
00000000
00000010
00000001
00001000
00000100
00000110
00000000
,
00000001
00000000
00000100
00001000
00000010
00001100
00000100
00000000
,
00001000
00000000
00001100
00000000
00010000
00000000
00000100
00010000
,
10010000
00000000
01000000
00100000
01000000
00010000
00100000
00000000
,
10000000
00000000
10000000
00100000
01000000
00100000
01000000
00000000
,
00100100
00000000
00011000
00000100
00100100
00000000
00011000
00000000
,
00000010
00000100
00000010
00000001
00000100
00001000
00000100
00000000
,
00001000
00000010
00001000
00001000
00000001
00000010
00000001
00000100
,
00000100
00000000
00000100
00100000
00000100
00010000
00000100
00000000
,
00000100
00000000
00011000
00000000
00010000
00010000
00010000
00000000
,
10000000
00010000
10000000
00010000
10000000
00100000
10000000
01000000
,
00100000
01000000
00100000
10000000
00100000
00010000
00100000
00000000
,
10000000
00010000
10000000
00100000
00010000
01000000
00100000
00000000
,
00010000
00010000
00010100
00000000
00001000
00001000
00011000
00000000
,
00001001
00000000
00000110
00000000
00001001
00000100
00000100
00000000
,
00000001
00000010
00000100
00000000
00000100
00001000
00000100
00000000
,
00000100
00100000
00010000
00000000
00000100
00010000
00000100
00000000
,
00001000
00000100
00010000
00000000
00000100
00001000
00011000
00000000
,
01000000
00010000
00010000
00000000
00100000
01000000
10000000
00000000
,
10010000
00000000
00010000
10000000
01000000
00000000
10000000
00000000
,
00000100
00000000
00100000
00010000
00000100
00000000
00100000
00000100
,
00000100
00000000
00010000
00000100
00001000
00000000
00011000
00000100
,
00000010
00000000
00000010
00000000
00001000
00000000
00000100
00000010
,
00000100
00000000
00100000
00100000
00100000
00000000
00100000
00000000
,
10010000
01100000
10010000
00110000
,
00010000
00000000
10000000
01000000
00010000
00000000
10000000
00010000
,
01000000
00000000
00100000
00010000
01000000
00000000
00010000
00000000
,
01100000
00000000
10010000
00000000
01100000
10000000
00010000
00000000
,
00010000
00000100
00001000
00000000
00001000
00000100
00010000
00000000
,
00001001
00001001
00001001
00000001
00000001
00000100
00001000
00000000
,
00001000
00000100
00000001
00000000
00001001
00001001
00001001
00000000
,
00100100
00000000
00010000
00001000
00000100
00000000
00011000
00000000
,
00001100
00110000
00010100
00011000
,
00010000
00000000
00100000
00010000
01000000
00000000
00010000
10000000
,
10000000
00100000
00010000
00000000
00100000
10000000
01000000
00010000
,
00100000
10000000
01000000
00000000
10010000
00000000
10010000
00000000
,
01010000
10100000
01010000
10100000
,
00010000
00000100
00001000
00000000
00010000
00010000
00001000
00100000
,
00100100
00000100
00011000
00000000
00100100
00000000
00011000
00000000
,
00001000
00000101
00001000
00000000
00000101
00001000
00001000
00001001
,
00001001
00000000
00000000
00000000
;

//---------------dance-solo - ----------------
#NOTES:
     dance-solo:
     :
     Easy:
     6:
     0.468932,0.540593,0.487021,0.000000,0.000000,337.000000,287.000000,50.000000,0.000000,0.000000,0.000000,0.468932,0.540593,0.487021,0.000000,0.000000,337.000000,287.000000,50.000000,0.000000,0.000000,0.000000:
// measure 0
000000
000000
000000
000000
,  // measure 1
000000
000000
000000
000000
,  // measure 2
001000
001000
001000
001000
,  // measure 3
001010
000010
000010
000100
,  // measure 4
001000
101000
000001
100000
,  // measure 5
000010
001000
000010
001000
,  // measure 6
001000
100001
001000
000001
,  // measure 7
100000
100000
100000
100000
,  // measure 8
001000
001001
001000
001000
,  // measure 9
000001
000100
001000
000010
,  // measure 10
100000
110000
010000
010000
,  // measure 11
000001
001100
000010
001000
,  // measure 12
100001
000001
000100
000100
,  // measure 13
001000
000101
100000
000001
,  // measure 14
001000
000001
000001
101000
,  // measure 15
000010
001010
000100
000100
,  // measure 16
100000
001001
000001
010000
,  // measure 17
000001
001100
000010
000010
,  // measure 18
001000
000001
001000
000001
,  // measure 19
000100
100001
001000
001000
,  // measure 20
001000
100000
001000
100000
,  // measure 21
000010
000011
001000
000001
,  // measure 22
100000
000001
000001
010000
,  // measure 23
001100
001000
000001
001000
,  // measure 24
001000
100001
000001
001000
,  // measure 25
000001
000100
001000
100000
,  // measure 26
010000
001000
000001
100000
,  // measure 27
000001
000010
001000
000001
,  // measure 28
000001
001000
000001
010000
,  // measure 29
000010
001000
001000
000001
,  // measure 30
001000
100000
001000
001000
,  // measure 31
000001
100000
100000
000100
,  // measure 32
000001
001000
010000
001000
,  // measure 33
001000
000010
000010
000100
,  // measure 34
001000
010000
000001
010000
,  // measure 35
000010
001000
000100
001000
,  // measure 36
100000
001000
000001
001000
,  // measure 37
000001
001000
001000
000100
,  // measure 38
100000
100000
001000
001000
,  // measure 39
001100
000011
001100
000011
,  // measure 40
010000
010000
001000
001000
,  // measure 41
000001
000001
000010
000010
,  // measure 42
001000
001000
001000
001000
,  // measure 43
001000
100000
000001
000001
,  // measure 44
100000
100000
100000
100000
,  // measure 45
000100
000100
000100
000100
,  // measure 46
100000
000000
000001
000100
,  // measure 47
000001
001001
000010
000011
,  // measure 48
100001
011000
100001
001000
,  // measure 49
000010
001000
001000
001000
,  // measure 50
001000
000001
001000
001000
,  // measure 51
100000
000001
001000
100001
,  // measure 52
001000
000001
000100
100000
,  // measure 53
000011
000001
001000
000010
,  // measure 54
001000
000100
001000
000100
,  // measure 55
001000
000001
100000
100001
,  // measure 56
010000
010000
000001
001000
,  // measure 57
001000
000100
000100
000000
,  // measure 58
100001
011000
100001
000001
,  // measure 59
000001
000010
000001
000010
,  // measure 60
001000
000100
001000
000001
,  // measure 61
001100
000011
001000
000001
,  // measure 62
000001
100000
100000
000001
,  // measure 63
000011
000011
000010
000001
,  // measure 64
000001
100000
100001
100001
,  // measure 65
001100
000001
001000
100001
,  // measure 66
001000
000001
001000
000001
,  // measure 67
000001
000100
001000
000001
,  // measure 68
100000
000001
010000
001000
,  // measure 69
000100
001000
100001
100001
,  // measure 70
001001
110000
001001
110000
,  // measure 71
000001
000010
000001
000010
,  // measure 72
011000
100001
011000
100001
,  // measure 73
000001
000001
000001
000001
,  // measure 74
100001
000000
000000
000000
;

//---------------dance-solo - ----------------
#NOTES:
     dance-solo:
     :
     Medium:
     8:
     0.621995,0.720791,0.623387,0.000000,0.000000,447.000000,383.000000,64.000000,0.000000,0.000000,0.000000,0.621995,0.720791,0.623387,0.000000,0.000000,447.000000,383.000000,64.000000,0.000000,0.000000,0.000000:
// measure 0
000000
000000
000000
000000
,  // measure 1
000000
000000
000000
000000
,  // measure 2
001000
000000
001000
000000
001000
100000
001000
000000
,  // measure 3
001010
000000
000010
000000
000010
000001
000100
000000
,  // measure 4
001000
000000
101000
000000
000001
001000
100000
000000
,  // measure 5
000010
000001
001000
000000
000010
000100
001000
000000
,  // measure 6
001000
000000
100001
000000
001000
100000
000001
000000
,  // measure 7
100000
000000
100000
000000
100000
000001
100000
000000
,  // measure 8
001000
000000
001001
000000
001000
010000
001000
000000
,  // measure 9
000001
000010
000100
000000
001000
000001
000010
000000
,  // measure 10
100000
000000
110000
000000
010000
001000
010000
000000
,  // measure 11
000001
000000
001100
000000
000010
000100
001000
000000
,  // measure 12
100001
000000
000001
000000
000100
001000
000100
000000
,  // measure 13
001000
000000
000101
000000
100000
001000
000001
000000
,  // measure 14
001000
000001
000001
101000
,  // measure 15
000010
000000
001010
000000
000100
000100
000100
000000
,  // measure 16
100000
001001
000001
010000
,  // measure 17
000001
000000
001100
000000
000010
000010
000010
000000
,  // measure 18
001000
000000
000001
000000
001000
000100
000001
000000
,  // measure 19
000100
100001
001000
001000
,  // measure 20
001000
000000
100000
000000
001000
000001
100000
000000
,  // measure 21
000010
000000
000011
000000
001000
000010
000001
000000
,  // measure 22
100000
000000
000001
000000
000001
001000
010000
000000
,  // measure 23
001100
000000
001000
000000
000001
000001
001000
000000
,  // measure 24
001000
000000
100001
000000
000001
100000
001000
000000
,  // measure 25
000001
000000
000100
000000
001000
100000
100000
000000
,  // measure 26
010000
100000
001000
000000
000001
100000
100000
000000
,  // measure 27
000001
001000
000010
000000
001000
000100
000001
000000
,  // measure 28
000001
100000
001000
000000
000001
100000
010000
000000
,  // measure 29
000010
000000
001000
000000
001000
000001
000001
000000
,  // measure 30
001000
000000
100000
000000
001000
100000
001000
000000
,  // measure 31
000001
001000
100000
000000
100000
001000
000100
000000
,  // measure 32
000001
000000
001000
000000
010000
100000
001000
100000
,  // measure 33
001000
000000
000010
000000
000010
000001
000100
001000
,  // measure 34
001000
000000
010000
100000
000001
001000
011000
000000
,  // measure 35
000010
000000
001000
000000
000100
001001
001000
000000
,  // measure 36
100000
101000
000001
001000
,  // measure 37
000011
000000
001000
000000
001000
000001
000100
000000
,  // measure 38
100000
000000
100000
010000
001000
010000
001000
000000
,  // measure 39
001100
000000
100001
001000
001100
000000
100001
000000
,  // measure 40
010000
001000
010000
100000
001000
000000
001000
000000
,  // measure 41
000001
000000
000001
000001
000010
000100
000010
000000
,  // measure 42
001000
000000
001000
000100
001000
000001
001000
000000
,  // measure 43
001000
000000
100000
000000
000001
000001
000001
000000
,  // measure 44
100000
000001
100000
000001
100000
010000
100000
001000
,  // measure 45
000100
001000
000100
000010
000100
000001
000100
000000
,  // measure 46
100000
000000
000000
000000
000001
001000
010000
000000
,  // measure 47
000001
000001
001001
000000
100000
100000
100001
000000
,  // measure 48
100001
000000
011000
000000
100001
001000
001000
000000
,  // measure 49
000010
000100
001000
000000
001000
000001
001000
000000
,  // measure 50
001000
000100
000001
000000
001000
000001
001000
000000
,  // measure 51
100000
001000
000001
000000
001000
100000
100001
000000
,  // measure 52
001000
000001
000001
000000
010000
001000
100000
000000
,  // measure 53
000011
000000
000001
000010
001000
000000
000010
000000
,  // measure 54
001000
000000
000100
000001
001000
000000
000100
001000
,  // measure 55
001000
000000
000001
001000
100000
000000
100001
001000
,  // measure 56
010000
000000
010000
000000
000001
000000
001000
010000
,  // measure 57
001000
000000
000100
000100
000100
000000
000100
000000
,  // measure 58
100001
011000
100001
010001
,  // measure 59
000001
000000
000010
001000
000001
000000
000010
000001
,  // measure 60
001000
010000
001000
000001
,  // measure 61
001100
000000
000011
000000
001100
000010
000001
000000
,  // measure 62
000001
001000
100000
000000
100000
001000
000001
000000
,  // measure 63
000011
000011
000011
000000
000010
001000
000001
000000
,  // measure 64
000001
001000
100000
000000
100001
100001
100001
000000
,  // measure 65
001100
000000
000001
100000
001000
000000
100001
000000
,  // measure 66
101000
000101
001001
100001
,  // measure 67
000001
000100
001000
000001
,  // measure 68
100000
010000
000001
000000
010000
100000
001000
000000
,  // measure 69
000100
000010
001000
000000
000011
000000
000011
000000
,  // measure 70
001001
110000
001001
110000
,  // measure 71
000001
001000
100000
000000
000001
000001
100000
000000
,  // measure 72
001100
100001
001100
100001
,  // measure 73
000001
000010
000001
000000
001010
000001
000001
000011
,  // measure 74
100001
000000
000000
000000
;

//---------------dance-solo - ----------------
#NOTES:
     dance-solo:
     :
     Hard:
     9:
     0.652608,0.756830,0.642868,0.000000,0.000000,469.000000,403.000000,66.000000,0.000000,0.000000,0.000000,0.652608,0.756830,0.642868,0.000000,0.000000,469.000000,403.000000,66.000000,0.000000,0.000000,0.000000:
// measure 0
000000
000000
000000
000000
,  // measure 1
000000
000000
000000
000000
,  // measure 2
001000
000000
001000
000000
001000
100000
001000
000000
,  // measure 3
001010
000000
000010
000000
000010
000001
000100
000000
,  // measure 4
001000
000000
101000
000000
000001
001000
100000
000000
,  // measure 5
000010
000001
001000
000000
000010
000100
001000
000000
,  // measure 6
001000
000000
100001
000000
001000
100000
000001
000000
,  // measure 7
100000
000000
100000
000000
100000
000001
100000
000000
,  // measure 8
001000
000000
001001
000000
001000
010000
001000
000000
,  // measure 9
000001
000010
000100
000000
001000
000001
000010
000000
,  // measure 10
100000
000000
110000
000000
010000
001000
010000
000000
,  // measure 11
000001
000000
001100
000000
000010
000100
001000
000000
,  // measure 12
100001
000000
000001
000000
000100
001000
000100
000000
,  // measure 13
001000
000000
000101
000000
100000
001000
000001
000000
,  // measure 14
001000
000001
000001
101000
,  // measure 15
000010
000000
001010
000000
000100
000100
000100
000000
,  // measure 16
100000
001001
000001
010000
,  // measure 17
000001
000000
001100
000000
000010
000010
000010
000000
,  // measure 18
001000
000000
000001
000000
001000
000100
000001
000000
,  // measure 19
000100
100001
001000
001000
,  // measure 20
001000
000000
100000
000000
001000
000001
100000
000000
,  // measure 21
000010
000000
000011
000000
001000
000010
000001
000000
,  // measure 22
100000
000000
000001
000000
000001
001000
010000
000000
,  // measure 23
001100
000000
001000
000000
000001
000001
001000
000000
,  // measure 24
001000
000000
100001
000000
000001
100000
001000
000000
,  // measure 25
000001
000000
000100
000000
001000
100000
100000
000000
,  // measure 26
010000
100000
001000
000000
000001
100000
100000
000000
,  // measure 27
000001
001000
000010
000000
001000
000100
000001
000000
,  // measure 28
000001
100000
001000
000000
000001
100000
010000
001000
,  // measure 29
000010
000000
001000
000000
001000
000001
000001
000000
,  // measure 30
001000
000000
100000
000000
001000
100000
001000
000000
,  // measure 31
000001
001000
100000
000001
100000
001000
000100
000000
,  // measure 32
000001
000000
001000
100000
010000
100000
001000
100000
,  // measure 33
001000
001000
000010
000000
000010
000001
000100
001000
,  // measure 34
001000
000000
010000
100000
000001
001000
011000
000000
,  // measure 35
000010
000000
001000
000001
000100
001001
001000
000000
,  // measure 36
100000
000000
101000
000000
000001
000000
001000
000001
,  // measure 37
000011
000000
001000
000100
001000
000001
000100
000000
,  // measure 38
100000
000000
100000
010000
001000
010000
001000
000000
,  // measure 39
001100
000000
100001
001000
001100
000000
100001
000000
,  // measure 40
010000
001000
010000
100000
001000
000001
001000
000000
,  // measure 41
000001
000100
000001
000001
000010
000100
000010
001000
,  // measure 42
001000
000000
001000
000100
001000
000001
001000
000000
,  // measure 43
001000
000000
100001
000000
000001
000001
000001
000000
,  // measure 44
100000
000001
100000
000001
100000
010000
100000
001000
,  // measure 45
000100
001000
000100
000010
000100
000001
000100
000000
,  // measure 46
100000
000001
100000
010000
000001
001000
010000
000000
,  // measure 47
000001
000001
001001
000000
100000
100000
100001
000000
,  // measure 48
100001
000000
011000
000000
100001
001000
001000
000000
,  // measure 49
000010
000100
001000
000000
001000
000001
001000
000000
,  // measure 50
001000
000100
000001
000000
001000
000001
001000
000000
,  // measure 51
100000
001000
000001
000000
001000
100000
100001
000000
,  // measure 52
001000
000001
000001
000000
010000
001000
100000
000000
,  // measure 53
000011
000000
000001
000010
001000
000000
000010
000000
,  // measure 54
001000
000000
000100
000001
001000
000000
000100
001000
,  // measure 55
001000
000000
000001
001000
100000
000000
100001
001000
,  // measure 56
010000
000000
010000
000000
000001
000000
001000
010000
,  // measure 57
001000
000000
000100
000100
000100
000000
000100
000000
,  // measure 58
100001
011000
100001
010001
,  // measure 59
000001
000000
000010
001000
000001
000000
000010
000001
,  // measure 60
001000
000000
010000
000001
001000
000000
000001
000000
,  // measure 61
001100
000000
000011
000000
001100
000010
000001
000000
,  // measure 62
000001
001000
100000
000000
100000
001000
000001
000000
,  // measure 63
000011
000011
000011
000010
000010
001000
000001
000000
,  // measure 64
000001
001000
100000
000000
100001
100001
100001
000000
,  // measure 65
001100
000000
000001
100000
001000
000000
100001
000000
,  // measure 66
101000
000101
001001
100001
,  // measure 67
000001
000000
000100
000001
001000
000000
000001
000010
,  // measure 68
100000
010000
000001
000000
010000
100000
001000
000001
,  // measure 69
000100
000010
001000
000000
000011
000000
000011
000000
,  // measure 70
001001
110000
001001
110000
,  // measure 71
000001
001000
100000
000000
000001
000001
100000
000100
,  // measure 72
001100
001000
100001
000000
001100
000000
100001
000000
,  // measure 73
000001
001010
000001
000000
001010
000001
000001
000011
,  // measure 74
100001
000000
000000
000000
;
