#TITLE:Tubthumping;
#SUBTITLE:;
#ARTIST:Chumbawumba;
#TITLETRANSLIT:;
#SUBTITLETRANSLIT:;
#ARTISTTRANSLIT:;
#GENRE:;
#CREDIT:;
#BANNER:Tubthumping.jpg;
#BACKGROUND:Tubthumping-BG.jpg;
#LYRICSPATH:;
#CDTITLE:S00.jpg;
#MUSIC:Tubthumping.ogg;
#OFFSET:-2.003000;
#SAMPLESTART:100.795998;
#SAMPLELENGTH:25.862000;
#SELECTABLE:YES;
#BPMS:0.000000=116.000000
;
#STOPS:
;
#BGCHANGES:;
#KEYSOUNDS:;
#ATTACKS:;

//---------------dance-single - ----------------
#NOTES:
     dance-single:
     :
     Easy:
     1:
     0.083073,0.141131,0.071872,0.000000,0.000000,89.000000,78.000000,11.000000,0.000000,0.000000,0.000000,0.083073,0.141131,0.071872,0.000000,0.000000,89.000000,78.000000,11.000000,0.000000,0.000000,0.000000:
0000
0000
0000
0000
,
0000
0000
0000
0000
,
0000
0000
0000
0000
,
0000
0000
0000
0000
,
0100
0000
0000
0000
,
1000
0000
0000
0000
,
0001
0000
0000
0000
,
0010
0000
0000
0000
,
0100
0000
0000
0000
,
0100
0000
0000
0000
,
0010
0000
0000
0000
,
0001
0000
0001
0000
,
1000
0000
1000
0000
,
0100
0000
0000
0000
,
0010
0000
0000
0000
,
0010
0000
0000
0000
,
1001
0000
0000
0000
,
1001
0000
0000
0000
,
0100
0000
0000
0000
,
0001
0000
0000
0000
,
1000
0000
0000
0000
,
0100
0000
0000
0000
,
0001
0000
0000
0000
,
0010
0000
0000
0000
,
0100
0000
0000
0000
,
0100
0000
0000
0000
,
0110
0000
0000
0000
,
0010
0000
0000
0000
,
1000
0000
1000
0000
,
0001
0000
0001
0000
,
0100
0000
0100
0000
,
0010
0000
0010
0000
,
1000
0000
0000
0000
,
1000
0000
0000
0000
,
0010
0000
0000
0000
,
0010
0000
0000
0000
,
1001
0000
0000
0000
,
1001
0000
0000
0000
,
1000
0000
0000
0000
,
0001
0000
0000
0000
,
0010
0000
0000
0000
,
0100
0000
0000
0000
,
0100
0000
0000
0000
,
0010
0000
0010
0000
,
0001
0000
0000
0000
,
1000
0000
0000
0000
,
0001
0000
0000
0000
,
1000
0000
0000
0000
,
0100
0000
0000
0000
,
1000
0000
0000
0000
,
0001
0000
0000
0000
,
0010
0000
0000
0000
,
1001
0000
0000
0000
,
1001
0000
0000
0000
,
0110
0000
0000
0000
,
0110
0000
0000
0000
,
0001
0000
0000
0000
,
0100
0000
0100
0000
,
0010
0000
0010
0000
,
0001
0000
0000
0000
,
1000
0000
0000
0000
,
0100
0000
0000
0000
,
0001
0000
0000
0000
,
1000
0000
0000
0000
,
0010
0000
0000
0000
,
0100
0000
0000
0000
,
0100
0000
0000
0000
,
0010
0000
0000
0000
,
0100
0000
0000
0000
,
0110
0000
0000
0000
,
1001
0000
0000
0000
,
0000
0000
0000
0010
,
0010
0000
0000
0000
;

//---------------dance-single - ----------------
#NOTES:
     dance-single:
     :
     Medium:
     3:
     0.221218,0.305784,0.078406,0.000000,0.000000,237.000000,225.000000,12.000000,0.000000,0.000000,0.000000,0.221218,0.305784,0.078406,0.000000,0.000000,237.000000,225.000000,12.000000,0.000000,0.000000,0.000000:
0000
0000
0000
0000
,
0000
0000
0000
0000
,
0000
0000
0000
0000
,
0000
0000
0000
0100
,
0100
0001
1000
1000
,
0100
1000
0001
0001
,
0100
0001
1000
1000
,
0000
0010
0100
1000
,
0100
0001
1000
1000
,
0100
1000
0001
0001
,
0100
0001
1000
1000
,
0000
0010
0100
1000
,
0000
0010
0000
0010
,
0000
0100
0000
0100
,
0000
0001
0000
0100
,
0000
0000
0000
1001
,
0001
0001
0010
0010
,
1000
0100
0001
0100
,
1000
1000
0010
0010
,
0001
0100
1000
0100
,
0010
0000
0001
0000
,
0100
0000
1000
0000
,
0100
0000
0001
0000
,
0010
0000
0000
0100
,
0100
0001
1000
1000
,
0100
1000
0001
0001
,
0100
0001
1000
1000
,
0000
0010
0100
1000
,
0100
0001
1000
1000
,
0100
1000
0001
0001
,
0100
0001
1000
1000
,
0000
0010
0100
1000
,
0000
0010
0000
0010
,
0000
0100
0000
0100
,
0000
0001
0000
0100
,
0000
0000
0000
1001
,
0001
0001
0010
0010
,
1000
0100
0001
0100
,
1000
1000
0010
0010
,
0001
0100
1000
0100
,
0010
0000
0001
0000
,
0100
0000
1000
0000
,
0100
0000
0001
0000
,
0010
0000
0100
0000
,
0001
0001
0010
1000
,
1000
1000
0100
0000
,
0001
0001
0010
1000
,
1000
0000
0000
0100
,
0100
1001
1000
1000
,
0100
1001
0001
0001
,
0100
1001
1000
1000
,
0001
1010
0101
1010
,
0000
0001
1000
1000
,
0000
1000
0001
0001
,
0100
1001
1000
1000
,
0001
1010
0101
1010
,
0000
0001
1000
1000
,
0100
1000
0001
0001
,
0000
0001
1000
1000
,
0001
0001
0100
0100
,
0000
0001
1000
1000
,
0100
1000
0001
0001
,
0000
0001
1000
1000
,
0001
0001
0100
0100
,
0100
0001
1000
1000
,
0100
1000
0001
0001
,
0100
0001
1000
1000
,
0000
0010
0100
1000
,
0100
0001
1000
1000
,
0100
1000
0001
0001
,
0100
0001
1000
1000
,
0000
0010
0100
1000
,
0010
0000
0000
0000
;

//---------------dance-single - ----------------
#NOTES:
     dance-single:
     :
     Hard:
     4:
     0.238019,0.305784,0.078406,0.000000,0.000000,255.000000,243.000000,12.000000,0.000000,0.000000,0.000000,0.238019,0.305784,0.078406,0.000000,0.000000,255.000000,243.000000,12.000000,0.000000,0.000000,0.000000:
0000
0000
0000
0000
,
0000
0000
0000
0000
,
0000
0000
0000
0000
,
0000
0000
0000
0100
,
0100
0001
1000
1000
,
0100
1000
0001
0001
,
0100
0001
1000
1000
,
0000
0010
0100
1000
,
0100
0001
1000
1000
,
0100
1000
0001
0001
,
0100
0001
1000
1000
,
0000
0010
0100
1000
,
0000
0010
0000
0010
,
0000
0100
0000
0100
,
0000
0001
0000
0100
,
0000
0000
0000
1001
,
0001
0000
0001
0000
0010
1000
0010
0000
,
1000
0100
0001
0100
,
1000
0000
1000
0000
0010
0001
0010
0000
,
0001
0100
1000
0100
,
0010
0000
0001
0000
,
0100
0000
1000
0000
,
0100
0000
0001
0000
,
0010
0000
0000
0000
0000
0100
0100
0100
,
0100
0001
1000
1000
,
0100
1000
0001
0001
,
0100
0001
1000
1000
,
0000
0010
0100
1000
,
0100
0001
1000
1000
,
0100
1000
0001
0001
,
0100
0001
1000
1000
,
0000
0010
0100
1000
,
0000
0010
0000
0010
,
0000
0100
0000
0100
,
0000
0001
0000
0100
,
0000
0000
0000
1001
,
0001
0000
0001
0000
0010
1000
0010
0000
,
1000
0100
0001
0100
,
1000
0000
1000
0000
0010
0001
0010
0000
,
0001
0100
1000
0100
,
0010
0000
0001
0000
,
0100
0000
1000
0000
,
0100
0000
0001
0000
,
0010
0000
0100
0000
,
0001
0001
0010
1000
,
1000
1000
0100
0000
,
0001
0001
0010
1000
,
1000
0000
0000
0000
0000
0100
0100
0100
,
0100
1001
1000
1000
,
0100
1001
0001
0001
,
0100
1001
1000
1000
,
0001
1010
0101
1010
,
0000
0001
1000
1000
,
0000
1000
0001
0001
,
0100
1001
1000
1000
,
0001
1010
0101
1010
,
0000
0000
0001
0000
1000
0100
1000
0000
,
0100
0000
1000
0000
0001
0100
0001
0000
,
0000
0000
0001
0000
1000
0100
1000
0000
,
0001
0001
0001
0000
0100
0100
0100
0000
,
0000
0000
0001
0000
1000
0010
1000
0000
,
0100
0000
1000
0000
0001
0100
0001
0000
,
0000
0000
0001
0000
1000
0010
1000
0000
,
0001
0001
0001
0000
0100
0100
0100
0000
,
0100
0001
1000
1000
,
0100
1000
0001
0001
,
0100
0001
1000
1000
,
0000
0010
0100
1000
,
0100
0001
1000
1000
,
0100
1000
0001
0001
,
0100
0001
1000
1000
,
0000
0010
0100
1000
,
0010
0000
0000
0000
;

//---------------dance-double - ----------------
#NOTES:
     dance-double:
     :
     Easy:
     1:
     0.083073,0.141131,0.071872,0.000000,0.000000,89.000000,78.000000,11.000000,0.000000,0.000000,0.000000,0.083073,0.141131,0.071872,0.000000,0.000000,89.000000,78.000000,11.000000,0.000000,0.000000,0.000000:
00000000
00000000
00000000
00000000
,
00000000
00000000
00000000
00000000
,
00000000
00000000
00000000
00000000
,
00000000
00000000
00000000
00000000
,
01000000
00000000
00000000
00000000
,
00001000
00000000
00000000
00000000
,
00010000
00000000
00000000
00000000
,
00000010
00000000
00000000
00000000
,
00000100
00000000
00000000
00000000
,
00000100
00000000
00000000
00000000
,
00100000
00000000
00000000
00000000
,
00010000
00000000
00010000
00000000
,
10000000
00000000
10000000
00000000
,
00000100
00000000
00000000
00000000
,
00100000
00000000
00000000
00000000
,
00000010
00000000
00000000
00000000
,
00001001
00000000
00000000
00000000
,
00011000
00000000
00000000
00000000
,
00000100
00000000
00000000
00000000
,
00010000
00000000
00000000
00000000
,
10000000
00000000
00000000
00000000
,
00000100
00000000
00000000
00000000
,
00010000
00000000
00000000
00000000
,
00000010
00000000
00000000
00000000
,
00000100
00000000
00000000
00000000
,
00000100
00000000
00000000
00000000
,
00100100
00000000
00000000
00000000
,
00100000
00000000
00000000
00000000
,
10000000
00000000
10000000
00000000
,
00010000
00000000
00010000
00000000
,
00000100
00000000
00000100
00000000
,
00000010
00000000
00000010
00000000
,
00000001
00000000
00000000
00000000
,
00001000
00000000
00000000
00000000
,
00100000
00000000
00000000
00000000
,
00100000
00000000
00000000
00000000
,
10010000
00000000
00000000
00000000
,
00011000
00000000
00000000
00000000
,
00001000
00000000
00000000
00000000
,
00001000
00000000
00000000
00000000
,
00000010
00000000
00000000
00000000
,
00000100
00000000
00000000
00000000
,
00000100
00000000
00000000
00000000
,
00100000
00000000
00100000
00000000
,
00010000
00000000
00000000
00000000
,
00001000
00000000
00000000
00000000
,
00010000
00000000
00000000
00000000
,
00000001
00000000
00000000
00000000
,
00000100
00000000
00000000
00000000
,
00001000
00000000
00000000
00000000
,
00010000
00000000
00000000
00000000
,
00100000
00000000
00000000
00000000
,
10010000
00000000
00000000
00000000
,
00011000
00000000
00000000
00000000
,
00100100
00000000
00000000
00000000
,
00000110
00000000
00000000
00000000
,
00001000
00000000
00000000
00000000
,
00000100
00000000
00000100
00000000
,
00100000
00000000
00100000
00000000
,
00010000
00000000
00000000
00000000
,
10000000
00000000
00000000
00000000
,
00000100
00000000
00000000
00000000
,
00010000
00000000
00000000
00000000
,
00000001
00000000
00000000
00000000
,
00000010
00000000
00000000
00000000
,
00000100
00000000
00000000
00000000
,
00000100
00000000
00000000
00000000
,
00100000
00000000
00000000
00000000
,
01000000
00000000
00000000
00000000
,
00100100
00000000
00000000
00000000
,
00011000
00000000
00000000
00000000
,
00000000
00000000
00000000
00000010
,
00000010
00000000
00000000
00000000
;

//---------------dance-double - ----------------
#NOTES:
     dance-double:
     :
     Medium:
     3:
     0.221218,0.305784,0.078406,0.000000,0.000000,237.000000,225.000000,12.000000,0.000000,0.000000,0.000000,0.221218,0.305784,0.078406,0.000000,0.000000,237.000000,225.000000,12.000000,0.000000,0.000000,0.000000:
00000000
00000000
00000000
00000000
,
00000000
00000000
00000000
00000000
,
00000000
00000000
00000000
00000000
,
00000000
00000000
00000000
01000000
,
01000000
00010000
10000000
10000000
,
00000100
00001000
00010000
00010000
,
00000100
00010000
00001000
00001000
,
00000000
00000010
00000100
00000001
,
00000100
00001000
00000001
00000001
,
00000100
00001000
00010000
00010000
,
00000100
00010000
00001000
00001000
,
00000000
00100000
01000000
10000000
,
00000000
00100000
00000000
00100000
,
00000000
00000100
00000000
00000100
,
00000000
00010000
00000000
00000100
,
00000000
00000000
00000000
00001001
,
00001000
00001000
00000010
00000010
,
00001000
00000100
00010000
00000100
,
00001000
00001000
00100000
00100000
,
00010000
01000000
10000000
01000000
,
00100000
00000000
00010000
00000000
,
00000100
00000000
00001000
00000000
,
00000100
00000000
00010000
00000000
,
00000010
00000000
00000000
00000100
,
00000100
00001000
00000001
00000001
,
00000100
00001000
00010000
00010000
,
00000100
00010000
00001000
00001000
,
00000000
00100000
01000000
10000000
,
01000000
00010000
10000000
10000000
,
00000100
00001000
00010000
00010000
,
00000100
00010000
00001000
00001000
,
00000000
00000010
00000100
00000001
,
00000000
00000010
00000000
00000010
,
00000000
00000100
00000000
00000100
,
00000000
00010000
00000000
00000100
,
00000000
00000000
00000000
10010000
,
00010000
00010000
00100000
00100000
,
00001000
00000100
00010000
00000100
,
00001000
00001000
00100000
00100000
,
00001000
00000100
00000001
00000100
,
00000010
00000000
00001000
00000000
,
00000100
00000000
00001000
00000000
,
00000100
00000000
00010000
00000000
,
00100000
00000000
01000000
00000000
,
00010000
00010000
00100000
10000000
,
00001000
00001000
00000100
00000000
,
00010000
00010000
00100000
00001000
,
00000001
00000000
00000000
00000100
,
00000100
00001001
00000001
00000001
,
00000100
00011000
00010000
00010000
,
00000100
00011000
00001000
00001000
,
00010000
10100000
01010000
10100000
,
00000000
00010000
10000000
10000000
,
00000000
00001000
00010000
00010000
,
00000100
00011000
00001000
00001000
,
00001000
00000011
00001100
00000011
,
00000000
00001000
00000001
00000001
,
00000100
00001000
00010000
00010000
,
00000000
00010000
00001000
00001000
,
00010000
00010000
01000000
01000000
,
00000000
00010000
10000000
10000000
,
00000100
00001000
00010000
00010000
,
00000000
00010000
00001000
00001000
,
00001000
00001000
00000100
00000100
,
00000100
00001000
00000001
00000001
,
00000100
00001000
00010000
00010000
,
00000100
00010000
00001000
00001000
,
00000000
00100000
01000000
10000000
,
01000000
00010000
10000000
10000000
,
00000100
00001000
00010000
00010000
,
00000100
00010000
00001000
00001000
,
00000000
00000010
00000100
00000001
,
00000010
00000000
00000000
00000000
;

//---------------dance-double - ----------------
#NOTES:
     dance-double:
     :
     Hard:
     4:
     0.238019,0.305784,0.078406,0.000000,0.000000,255.000000,243.000000,12.000000,0.000000,0.000000,0.000000,0.238019,0.305784,0.078406,0.000000,0.000000,255.000000,243.000000,12.000000,0.000000,0.000000,0.000000:
00000000
00000000
00000000
00000000
,
00000000
00000000
00000000
00000000
,
00000000
00000000
00000000
00000000
,
00000000
00000000
00000000
01000000
,
01000000
00010000
10000000
10000000
,
00000100
00001000
00010000
00010000
,
00000100
00010000
00001000
00001000
,
00000000
00000010
00000100
00000001
,
00000100
00001000
00000001
00000001
,
00000100
00001000
00010000
00010000
,
00000100
00010000
00001000
00001000
,
00000000
00100000
01000000
10000000
,
00000000
00100000
00000000
00100000
,
00000000
00000100
00000000
00000100
,
00000000
00010000
00000000
00000100
,
00000000
00000000
00000000
00001001
,
00001000
00000000
00001000
00000000
00000010
00000001
00000010
00000000
,
00001000
00000100
00010000
00000100
,
00001000
00000000
00001000
00000000
00100000
00010000
00100000
00000000
,
00010000
01000000
10000000
01000000
,
00100000
00000000
00010000
00000000
,
00000100
00000000
00001000
00000000
,
00000100
00000000
00010000
00000000
,
00000010
00000000
00000000
00000000
00000000
00000100
00000100
00000100
,
00000100
00001000
00000001
00000001
,
00000100
00001000
00010000
00010000
,
00000100
00010000
00001000
00001000
,
00000000
00100000
01000000
10000000
,
01000000
00010000
10000000
10000000
,
00000100
00001000
00010000
00010000
,
00000100
00010000
00001000
00001000
,
00000000
00000010
00000100
00000001
,
00000000
00000010
00000000
00000010
,
00000000
00000100
00000000
00000100
,
00000000
00010000
00000000
00000100
,
00000000
00000000
00000000
10010000
,
00010000
00000000
00010000
00000000
00100000
10000000
00100000
00000000
,
00001000
00000100
00010000
00000100
,
00001000
00000000
00001000
00000000
00100000
00010000
00100000
00000000
,
00001000
00000100
00000001
00000100
,
00000010
00000000
00001000
00000000
,
00000100
00000000
00001000
00000000
,
00000100
00000000
00010000
00000000
,
00100000
00000000
01000000
00000000
,
00010000
00010000
00100000
10000000
,
00001000
00001000
00000100
00000000
,
00010000
00010000
00100000
00001000
,
00000001
00000000
00000000
00000000
00000000
00000100
00000100
00000100
,
00000100
00001001
00000001
00000001
,
00000100
00011000
00010000
00010000
,
00000100
00011000
00001000
00001000
,
00010000
10100000
01010000
10100000
,
00000000
00010000
10000000
10000000
,
00000000
00001000
00010000
00010000
,
00000100
00011000
00001000
00001000
,
00001000
00000011
00001100
00000011
,
00000000
00000000
00001000
00000000
00000001
00000100
00000001
00000000
,
00000100
00000000
00001000
00000000
00010000
00000100
00010000
00000000
,
00000000
00000000
00010000
00000000
00001000
00000100
00001000
00000000
,
00010000
00010000
00010000
00000000
01000000
01000000
01000000
00000000
,
00000000
00000000
00010000
00000000
10000000
00100000
10000000
00000000
,
00000100
00000000
00001000
00000000
00010000
00000100
00010000
00000000
,
00000000
00000000
00010000
00000000
00001000
00100000
00001000
00000000
,
00001000
00001000
00001000
00000000
00000100
00000100
00000100
00000000
,
00000100
00001000
00000001
00000001
,
00000100
00001000
00010000
00010000
,
00000100
00010000
00001000
00001000
,
00000000
00100000
01000000
10000000
,
01000000
00010000
10000000
10000000
,
00000100
00001000
00010000
00010000
,
00000100
00010000
00001000
00001000
,
00000000
00000010
00000100
00000001
,
00000010
00000000
00000000
00000000
;

//---------------dance-solo - ----------------
#NOTES:
     dance-solo:
     :
     Easy:
     1:
     0.073739,0.140641,0.065339,0.000000,0.000000,79.000000,69.000000,10.000000,0.000000,0.000000,0.000000,0.073739,0.140641,0.065339,0.000000,0.000000,79.000000,69.000000,10.000000,0.000000,0.000000,0.000000:
// measure 0
000000
000000
000000
000000
,  // measure 1
000000
000000
000000
000000
,  // measure 2
000000
000000
000000
000000
,  // measure 3
000000
000000
000000
000000
,  // measure 4
001000
000000
000000
000000
,  // measure 5
100000
000000
000000
000000
,  // measure 6
000001
000000
000000
000000
,  // measure 7
010000
000000
000000
000000
,  // measure 8
000000
000000
000000
000000
,  // measure 9
001000
000000
000000
000000
,  // measure 10
000100
000000
000000
000000
,  // measure 11
000001
000000
000001
000000
,  // measure 12
000010
000000
000010
000000
,  // measure 13
001000
000000
000000
000000
,  // measure 14
000100
000000
000000
000000
,  // measure 15
010000
000000
000000
000000
,  // measure 16
000000
000000
000000
000000
,  // measure 17
100001
000000
000000
000000
,  // measure 18
001000
000000
000000
000000
,  // measure 19
000001
000000
000000
000000
,  // measure 20
000010
000000
000000
000000
,  // measure 21
001000
000000
000000
000000
,  // measure 22
000001
000000
000000
000000
,  // measure 23
010000
000000
000000
000000
,  // measure 24
000000
000000
000000
000000
,  // measure 25
001000
000000
000000
000000
,  // measure 26
001100
000000
000000
000000
,  // measure 27
010000
000000
000000
000000
,  // measure 28
000010
000000
000010
000000
,  // measure 29
000001
000000
000001
000000
,  // measure 30
001000
000000
001000
000000
,  // measure 31
010000
000000
010000
000000
,  // measure 32
000000
000000
000000
000000
,  // measure 33
100000
000000
000000
000000
,  // measure 34
000100
000000
000000
000000
,  // measure 35
010000
000000
000000
000000
,  // measure 36
000011
000000
000000
000000
,  // measure 37
100001
000000
000000
000000
,  // measure 38
100000
000000
000000
000000
,  // measure 39
000001
000000
000000
000000
,  // measure 40
000000
000000
000000
000000
,  // measure 41
001000
000000
000000
000000
,  // measure 42
001000
000000
000000
000000
,  // measure 43
010000
000000
010000
000000
,  // measure 44
000001
000000
000000
000000
,  // measure 45
100000
000000
000000
000000
,  // measure 46
000001
000000
000000
000000
,  // measure 47
100000
000000
000000
000000
,  // measure 48
000000
000000
000000
000000
,  // measure 49
100000
000000
000000
000000
,  // measure 50
000001
000000
000000
000000
,  // measure 51
010000
000000
000000
000000
,  // measure 52
000011
000000
000000
000000
,  // measure 53
100001
000000
000000
000000
,  // measure 54
001100
000000
000000
000000
,  // measure 55
011000
000000
000000
000000
,  // measure 56
000000
000000
000000
000000
,  // measure 57
001000
000000
001000
000000
,  // measure 58
000100
000000
000100
000000
,  // measure 59
000001
000000
000000
000000
,  // measure 60
000010
000000
000000
000000
,  // measure 61
001000
000000
000000
000000
,  // measure 62
000001
000000
000000
000000
,  // measure 63
100000
000000
000000
000000
,  // measure 64
000000
000000
000000
000000
,  // measure 65
001000
000000
000000
000000
,  // measure 66
001000
000000
000000
000000
,  // measure 67
010000
000000
000000
000000
,  // measure 68
001000
000000
000000
000000
,  // measure 69
001100
000000
000000
000000
,  // measure 70
100001
000000
000000
000000
,  // measure 71
000000
000000
000000
010000
;

//---------------dance-solo - ----------------
#NOTES:
     dance-solo:
     :
     Medium:
     3:
     0.194149,0.304723,0.071872,0.000000,0.000000,208.000000,197.000000,11.000000,0.000000,0.000000,0.000000,0.194149,0.304723,0.071872,0.000000,0.000000,208.000000,197.000000,11.000000,0.000000,0.000000,0.000000:
// measure 0
000000
000000
000000
000000
,  // measure 1
000000
000000
000000
000000
,  // measure 2
000000
000000
000000
000000
,  // measure 3
000000
000000
000000
001000
,  // measure 4
001000
000001
000010
000010
,  // measure 5
001000
100000
000001
000001
,  // measure 6
001000
000001
100000
100000
,  // measure 7
000000
010000
001000
100000
,  // measure 8
000000
000000
000000
000000
,  // measure 9
001000
100000
000001
000001
,  // measure 10
001000
000001
100000
100000
,  // measure 11
000000
010000
001000
100000
,  // measure 12
000000
000100
000000
000100
,  // measure 13
000000
001000
000000
001000
,  // measure 14
000000
000001
000000
001000
,  // measure 15
000000
000000
000000
100001
,  // measure 16
000000
000000
000000
000000
,  // measure 17
100000
001000
000001
001000
,  // measure 18
100000
100000
000100
000100
,  // measure 19
000001
001000
100000
001000
,  // measure 20
000100
000000
000001
000000
,  // measure 21
001000
000000
100000
000000
,  // measure 22
001000
000000
000001
000000
,  // measure 23
010000
000000
000000
001000
,  // measure 24
000000
000000
000000
000000
,  // measure 25
001000
100000
000001
000001
,  // measure 26
001000
000001
100000
100000
,  // measure 27
000000
010000
001000
100000
,  // measure 28
001000
000001
000010
000010
,  // measure 29
001000
100000
000001
000001
,  // measure 30
001000
000001
100000
100000
,  // measure 31
000000
010000
001000
100000
,  // measure 32
000000
000000
000000
000000
,  // measure 33
000000
001000
000000
001000
,  // measure 34
000000
000001
000000
001000
,  // measure 35
000000
000000
000000
100001
,  // measure 36
000001
000001
000100
000100
,  // measure 37
100000
001000
000001
001000
,  // measure 38
100000
100000
000100
000100
,  // measure 39
000001
001000
100000
001000
,  // measure 40
000000
000000
000000
000000
,  // measure 41
001000
000000
100000
000000
,  // measure 42
001000
000000
000001
000000
,  // measure 43
010000
000000
001000
000000
,  // measure 44
000001
000001
000100
000010
,  // measure 45
100000
100000
001000
000000
,  // measure 46
000001
000001
000100
100000
,  // measure 47
100000
000000
000000
001000
,  // measure 48
000000
000000
000000
000000
,  // measure 49
001000
100001
000001
000001
,  // measure 50
001000
100001
100000
100000
,  // measure 51
000001
110000
001001
110000
,  // measure 52
000000
000001
000010
000010
,  // measure 53
000000
100000
000001
000001
,  // measure 54
001000
100001
100000
100000
,  // measure 55
000001
110000
001001
110000
,  // measure 56
000000
000000
000000
000000
,  // measure 57
001000
100000
000001
000001
,  // measure 58
000000
000001
100000
100000
,  // measure 59
000001
000001
001000
001000
,  // measure 60
000000
000001
000010
000010
,  // measure 61
001000
100000
000001
000001
,  // measure 62
000000
000001
100000
100000
,  // measure 63
000001
000001
001000
001000
,  // measure 64
000000
000000
000000
000000
,  // measure 65
001000
100000
000001
000001
,  // measure 66
001000
000001
100000
100000
,  // measure 67
000000
010000
001000
100000
,  // measure 68
001000
000001
000010
000010
,  // measure 69
001000
100000
000001
000001
,  // measure 70
001000
000001
100000
100000
,  // measure 71
000000
010000
001000
100000
;

//---------------dance-solo - ----------------
#NOTES:
     dance-solo:
     :
     Hard:
     4:
     0.209083,0.304723,0.071872,0.000000,0.000000,224.000000,213.000000,11.000000,0.000000,0.000000,0.000000,0.209083,0.304723,0.071872,0.000000,0.000000,224.000000,213.000000,11.000000,0.000000,0.000000,0.000000:
// measure 0
000000
000000
000000
000000
,  // measure 1
000000
000000
000000
000000
,  // measure 2
000000
000000
000000
000000
,  // measure 3
000000
000000
000000
001000
,  // measure 4
001000
000001
000010
000010
,  // measure 5
001000
100000
000001
000001
,  // measure 6
001000
000001
100000
100000
,  // measure 7
000000
010000
001000
100000
,  // measure 8
000000
000000
000000
000000
,  // measure 9
001000
100000
000001
000001
,  // measure 10
001000
000001
100000
100000
,  // measure 11
000000
010000
001000
100000
,  // measure 12
000000
000100
000000
000100
,  // measure 13
000000
001000
000000
001000
,  // measure 14
000000
000001
000000
001000
,  // measure 15
000000
000000
000000
100001
,  // measure 16
000000
000000
000000
000000
,  // measure 17
100000
001000
000001
001000
,  // measure 18
100000
000000
100000
000000
000100
000001
000100
000000
,  // measure 19
000001
001000
100000
001000
,  // measure 20
000100
000000
000001
000000
,  // measure 21
001000
000000
100000
000000
,  // measure 22
001000
000000
000001
000000
,  // measure 23
010000
000000
000000
000000
000000
001000
001000
001000
,  // measure 24
000000
000000
000000
000000
,  // measure 25
001000
100000
000001
000001
,  // measure 26
001000
000001
100000
100000
,  // measure 27
000000
010000
001000
100000
,  // measure 28
001000
000001
000010
000010
,  // measure 29
001000
100000
000001
000001
,  // measure 30
001000
000001
100000
100000
,  // measure 31
000000
010000
001000
100000
,  // measure 32
000000
000000
000000
000000
,  // measure 33
000000
001000
000000
001000
,  // measure 34
000000
000001
000000
001000
,  // measure 35
000000
000000
000000
100001
,  // measure 36
000001
000000
000001
000000
000100
000010
000100
000000
,  // measure 37
100000
001000
000001
001000
,  // measure 38
100000
000000
100000
000000
000100
000001
000100
000000
,  // measure 39
000001
001000
100000
001000
,  // measure 40
000000
000000
000000
000000
,  // measure 41
001000
000000
100000
000000
,  // measure 42
001000
000000
000001
000000
,  // measure 43
010000
000000
001000
000000
,  // measure 44
000001
000001
000100
000010
,  // measure 45
100000
100000
001000
000000
,  // measure 46
000001
000001
000100
100000
,  // measure 47
100000
000000
000000
000000
000000
001000
001000
001000
,  // measure 48
000000
000000
000000
000000
,  // measure 49
001000
100001
000001
000001
,  // measure 50
001000
100001
100000
100000
,  // measure 51
000001
110000
001001
110000
,  // measure 52
000000
000001
000010
000010
,  // measure 53
000000
100000
000001
000001
,  // measure 54
001000
100001
100000
100000
,  // measure 55
000001
110000
001001
110000
,  // measure 56
000000
000000
000000
000000
,  // measure 57
001000
000000
100000
000000
000001
001000
000001
000000
,  // measure 58
000000
000000
000001
000000
100000
001000
100000
000000
,  // measure 59
000001
000001
000001
000000
001000
001000
001000
000000
,  // measure 60
000000
000000
000001
000000
000010
000100
000010
000000
,  // measure 61
001000
000000
100000
000000
000001
001000
000001
000000
,  // measure 62
000000
000000
000001
000000
100000
000100
100000
000000
,  // measure 63
000001
000001
000001
000000
001000
001000
001000
000000
,  // measure 64
000000
000000
000000
000000
,  // measure 65
001000
100000
000001
000001
,  // measure 66
001000
000001
100000
100000
,  // measure 67
000000
010000
001000
100000
,  // measure 68
001000
000001
000010
000010
,  // measure 69
001000
100000
000001
000001
,  // measure 70
001000
000001
100000
100000
,  // measure 71
000000
010000
001000
100000
;
