#TITLE:Machoman;
#SUBTITLE:;
#ARTIST:The Village People;
#TITLETRANSLIT:;
#SUBTITLETRANSLIT:;
#ARTISTTRANSLIT:;
#GENRE:;
#CREDIT:;
#MUSIC:Machoman.ogg;
#BANNER:machoman.jpg;
#BACKGROUND:machoman-bg.jpg;
#CDTITLE:S07.jpg;
#SAMPLESTART:0.000;
#SAMPLELENGTH:0.000;
#SELECTABLE:YES;
#OFFSET:-3.546;
#BPMS:0.000=133.596;
#STOPS:;
#BGCHANGES:;
#FGCHANGES:;

//--------------- dance-single - ----------------
#NOTES:
     dance-single:
     :
     Easy:
     4:
     0,0,0,0,0:
0000
0000
0000
0000
0000
0000
0000
0000
,
1000
0000
1000
0000
0001
0000
0001
0000
,
0100
0000
1000
0000
0010
0000
0001
0000
,
0001
0000
0001
0000
1000
0000
1000
0000
,
0100
0000
0001
0000
0010
0000
1000
0000
,
0010
0000
0010
0000
0100
0000
0100
0000
,
0000
0000
1100
0000
1100
0000
0000
0000
,
0100
0000
0100
0000
0010
0000
0010
0000
,
0000
0000
0011
0000
0011
0000
0000
0000
,
0000
0000
0010
0000
0000
0010
0000
0000
,
1000
0000
0001
0000
1000
0000
0000
0000
,
0000
0000
0100
0000
0000
0100
0000
0000
,
1000
0000
0001
0000
1000
0000
0000
0000
,
0010
0000
0100
0000
0010
0100
0000
0000
,
0001
0000
0011
0000
0011
0000
0000
0000
,
0010
0000
0100
0000
0010
0100
0000
0000
,
1000
0000
1100
0000
1100
0000
0000
0000
,
1000
0000
1000
0000
0000
0100
0000
0000
,
0010
0000
0010
0000
0010
0000
0000
0000
,
0001
0000
0001
0000
0000
0100
0000
0000
,
0010
0000
0010
0000
1001
0000
0000
0000
,
1010
0000
0000
0000
0101
0000
0000
0000
,
1010
0000
0101
0000
1010
0000
0000
0000
,
0110
0000
1001
0000
0110
0000
1001
0000
,
0000
0000
0010
0000
0000
0000
1000
0000
,
0000
0000
0001
0000
0000
0000
0100
0000
,
0100
0000
1000
0000
0010
0000
0001
0000
,
0110
0000
1001
0000
0110
0000
1001
0000
,
0000
0000
0001
0000
0000
0000
0100
0000
,
0000
0000
0010
0000
0000
0000
1000
0000
,
0100
0000
0001
0000
0010
0000
1000
0000
,
1000
0000
1000
0000
0001
0000
0001
0000
,
0010
0000
1000
0000
0100
0000
0001
0000
,
0000
0000
0001
0000
0000
0000
0100
0000
,
0000
0000
0010
0000
0000
0000
1000
0000
,
0010
0000
0010
0000
0100
0000
0100
0000
,
0010
0000
0001
0000
0100
0000
1000
0000
,
0000
0000
0001
0000
1000
0000
0100
0000
,
0000
0000
0010
0000
0001
0000
1000
0000
,
0000
0000
1000
0000
0000
0000
0001
0000
,
0000
0000
1000
0000
0000
0000
0001
0000
,
0000
0000
0010
0000
0000
0000
0100
0000
,
0000
0000
0010
0000
0000
0000
0100
0000
,
1000
0000
1000
0000
0001
0000
0001
0000
,
1000
0000
1000
0000
0001
0000
0001
0000
,
0010
0000
0010
0000
0100
0000
0100
0000
,
0100
0000
1000
0000
0010
0000
0000
0000
,
0010
1000
0100
1000
0010
1000
0100
1000
,
0001
0000
0001
0000
0100
0000
0100
0000
,
0011
0000
0000
0000
1000
1000
1000
0000
,
0100
0100
1000
1000
0010
0010
0010
0000
,
0010
0001
0100
0001
0010
0001
0100
0001
,
1000
0000
1000
0000
0100
0000
0100
0000
,
1010
0000
0000
0000
0001
0000
0000
0000
,
0100
0100
0001
0001
0010
0010
0010
0000
,
0000
0000
0010
0000
0000
0010
0000
0000
,
1000
0000
0001
0000
1000
0000
0000
0000
,
0000
0000
0100
0000
0000
0100
0000
0000
,
1000
0000
0001
0000
1000
0000
0000
0000
,
0010
0000
0100
0000
0010
0100
0000
0000
,
0001
0000
0011
0000
0011
0000
0000
0000
,
0010
0000
0100
0000
0010
0100
0000
0000
,
1000
0000
1100
0000
1100
0000
0000
0000
,
1000
0000
1000
0000
0000
0100
0000
0000
,
0010
0000
0010
0000
0010
0000
0000
0000
,
0001
0000
0001
0000
0000
0100
0000
0000
,
0010
0000
0010
0000
1001
0000
0000
0000
,
1010
0000
0000
0000
0101
0000
0000
0000
,
1010
0000
0101
0000
1010
0000
0000
0000
,
0110
0000
1001
0000
0110
0000
1001
0000
,
0000
0000
0010
0000
0000
0000
1000
0000
,
0000
0000
0001
0000
0000
0000
0100
0000
,
0100
0000
1000
0000
0010
0000
0001
0000
,
0110
0000
1001
0000
0110
0000
1001
0000
,
0000
0000
0001
0000
0000
0000
0100
0000
,
0000
0000
0010
0000
0000
0000
1000
0000
,
0100
0000
0001
0000
0010
0000
1000
0000
,
1000
0000
1000
0000
0001
0000
0001
0000
,
0010
0000
1000
0000
0100
0000
0001
0000
,
0000
0000
0001
0000
0000
0000
0100
0000
,
0000
0000
0010
0000
0000
0000
1000
0000
,
0010
0000
0010
0000
0100
0000
0100
0000
,
0010
0000
0001
0000
0100
0000
1000
0000
,
0000
0000
0001
0000
1000
0000
0100
0000
,
0000
0000
0010
0000
0001
0000
1000
0000
,
0000
0000
0000
0000
0000
0000
0000
0000
,
0000
0000
0000
0000
0000
0000
0000
0000
,
0000
0000
0000
0000
0000
0000
0000
0000
,
0000
0000
0000
0000
0000
0000
0000
0000
,
0000
0000
0000
0000
0000
0000
0000
0000
,
0000
0000
0000
0000
0000
0000
0000
0000
,
0000
0000
0000
0000
0000
0000
0000
0000
,
0000
0000
0000
0000
0000
0000
0000
0000
,
0000
0000
0000
0000
0000
0000
0000
0000
,
0000
0000
0000
0000
0000
0000
0000
0000
,
0000
0000
0000
0000
0000
0000
0000
0000
,
0000
0000
0000
0000
0000
0000
0000
0000
,
0000
0000
0000
0000
0000
0000
0000
0000
,
0000
0000
0000
0000
0000
0000
0000
0000
,
0000
0000
0000
0000
0000
0000
0000
0000
,
0000
0000
0000
0000
0000
0000
0000
0000
,
0000
0000
0000
0000
0000
0000
0000
0000
,
0000
0000
0000
0000
0000
0000
0000
0000
,
0000
0000
0000
0000
0000
0000
0000
0000
,
0000
0000
0000
0000
0000
0000
0000
0000
,
0000
0000
0000
0000
0000
0000
0000
0000
,
0000
0000
0000
0000
0000
0000
0000
0000
,
0000
0000
0000
0000
0000
0000
0000
0000
,
0000
0000
0000
0000
0000
0000
0000
0000
,
0000
0000
0000
0000
0000
0000
0000
0000
,
0000
0000
0000
0000
0000
0000
0000
0000
,
0000
0000
0000
0000
0000
0000
0000
0000
,
0000
0000
0000
0000
0000
0000
0000
0000
,
0000
0000
0000
0000
0000
0000
0000
0000
,
0000
0000
0000
0000
0000
0000
0000
0000
,
0000
0000
0000
0000
0000
0000
0000
0000
,
0000
0000
0000
0000
0000
0000
0000
0000
,
0000
0000
0000
0000
0000
0000
0000
0000
,
0000
0000
0000
0000
0000
0000
0000
0000
,
0000
0000
0000
0000
0000
0000
0000
0000
,
0000
0000
0000
0000
0000
0000
0000
0000
,
0000
0000
0000
0000
0000
0000
0000
0000
,
0000
0000
0000
0000
0000
0000
0000
0000
,
0000
0000
0000
0000
0000
0000
0000
0000
,
0000
0000
0000
0000
0000
0000
0000
0000
,
0000
0000
0000
0000
0000
0000
0000
0000
,
0000
0000
0000
0000
0000
0000
0000
0000
,
0000
0000
0000
0000
0000
0000
0000
0000
,
0000
0000
0000
0000
0000
0000
0000
0000
,
0000
0000
0000
0000
0000
0000
0000
0000
,
0000
0000
0000
0000
0000
0000
0000
0000
,
0000
0000
0000
0000
0000
0000
0000
0000
,
0000
0000
0000
0000
0000
0000
0000
0000
,
0000
0000
0000
0000
0000
0000
0000
0000
,
0000
0000
0000
0000
0000
0000
0000
0000
,
0000
0000
0000
0000
0000
0000
0000
0000
,
0000
0000
0000
0000
0000
0000
0000
0000
,
0000
0000
0000
0000
0000
0000
0000
0000
,
0000
0000
0000
0000
0000
0000
0000
0000
,
0000
0000
0000
0000
0000
0000
0000
0000
,
0000
0000
0000
0000
0000
0000
0000
0000
,
0000
0000
0000
0000
0000
0000
0000
0000
,
0000
0000
0000
0000
0000
0000
0000
0000
,
0000
0000
0000
0000
0000
0000
0000
0000
,
0000
0000
0000
0000
0000
0000
0000
0000
,
0000
0000
0000
0000
0000
0000
0000
0000
,
0000
0000
0000
0000
0000
0000
0000
0000
,
0000
0000
0000
0000
0000
0000
0000
0000
,
0000
0000
0000
0000
0000
0000
0000
0000
,
0000
0000
0000
0000
0000
0000
0000
0000
,
0000
0000
0000
0000
0000
0000
0000
0000
,
0000
0000
0000
0000
0000
0000
0000
0000
,
0000
0000
0000
0000
0000
0000
0000
0000
,
0000
0000
0000
0000
0000
0000
0000
0000
,
0000
0000
0000
0000
0000
0000
0000
0000
,
0000
0000
0000
0000
0000
0000
0000
0000
,
0000
0000
0000
0000
0000
0000
0000
0000
,
0000
0000
0000
0000
0000
0000
0000
0000
,
0000
0000
0000
0000
0000
0000
0000
0000
,
0000
0000
0000
0000
0000
0000
0000
0000
,
0000
0000
0000
0000
0000
0000
0000
0000
,
0000
0000
0000
0000
0000
0000
0000
0000
,
0000
0000
0000
0000
0000
0000
0000
0000
,
0000
0000
0000
0000
0000
0000
0000
0000
,
0000
0000
0000
0000
0000
0000
0000
0000
,
0000
0000
0000
0000
0000
0000
0000
0000
,
0000
0000
0000
0000
0000
0000
0000
0000
,
0000
0000
0000
0000
0000
0000
0000
0000
,
0000
0000
0000
0000
0000
0000
0000
0000
,
0000
0000
0000
0000
0000
0000
0000
0000
,
0000
0000
0000
0000
0000
0000
0000
0000
,
0000
0000
0000
0000
0000
0000
0000
0000
,
0000
0000
0000
0000
0000
0000
0000
0000
,
0000
0000
0000
0000
0000
0000
0000
0000
,
0000
0000
0000
0000
0000
0000
0000
0000
,
0000
0000
0000
0000
0000
0000
0000
0000
,
0000
0000
0000
0000
0000
0000
0000
0000
,
0000
0000
0000
0000
0000
0000
0000
0000
,
0000
0000
0000
0000
0000
0000
0000
0000
,
0000
0000
0000
0000
0000
0000
0000
0000
,
0000
0000
0000
0000
0000
0000
0000
0000
,
0000
0000
0000
0000
0000
0000
0000
0000
,
0000
0000
0000
0000
0000
0000
0000
0000
,
0000
0000
0000
0000
0000
0000
0000
0000
,
0000
0000
0000
0000
0000
0000
0000
0000
,
0000
0000
0000
0000
0000
0000
0000
0000
,
0000
0000
0000
0000
0000
0000
0000
0000
,
0000
0000
0000
0000
0000
0000
0000
0000
,
0000
0000
0000
0000
0000
0000
0000
0000
,
0000
0000
0000
0000
0000
0000
0000
0000
,
0000
0000
0000
0000
0000
0000
0000
0000
,
0000
0000
0000
0000
0000
0000
0000
0000
,
0000
0000
0000
0000
0000
0000
0000
0000
,
0000
0000
0000
0000
0000
0000
0000
0000
,
0000
0000
0000
0000
0000
0000
0000
0000
,
0000
0000
0000
0000
0000
0000
0000
0000
,
0000
0000
0000
0000
0000
0000
0000
0000
,
0000
0000
0000
0000
0000
0000
0000
0000
,
0000
0000
0000
0000
0000
0000
0000
0000
,
0000
0000
0000
0000
0000
0000
0000
0000
,
;

//--------------- dance-single - ----------------
#NOTES:
     dance-single:
     :
     Medium:
     5:
     0,0,0,0,0:
0000
0000
0000
0000
0000
0000
0000
0000
,
1000
0000
1000
0000
0001
0000
0001
0000
,
0100
0000
1000
0000
0010
0000
0001
0000
,
0001
0000
0001
0000
1000
0000
1000
0000
,
0100
0000
0001
0000
0010
0000
1000
0000
,
0010
0010
0010
0000
0100
0000
0100
0000
,
0000
0000
1100
0000
1100
0000
0000
0000
,
0100
0100
0100
0000
0010
0000
0010
0000
,
0000
0000
0011
0000
0011
0000
0000
0000
,
0010
0010
0001
0000
0000
0010
0000
0000
,
1000
0100
0001
0000
1000
0000
0000
0000
,
0100
0100
1000
0000
0000
0100
0000
0000
,
1000
0000
0001
0000
1000
0000
0000
0000
,
0010
0000
0100
0000
0010
0100
0000
0000
,
0001
0000
0011
0000
0011
0000
0000
0000
,
0010
0000
0100
0000
0010
0100
0000
0000
,
1000
0000
1100
0000
1100
0000
0000
0000
,
1000
0100
0001
0000
0000
0100
0000
0000
,
0010
0000
0010
0000
0010
0000
0000
0000
,
0001
0100
1000
0000
0000
0100
0000
0000
,
0010
0000
0010
0000
1001
0000
0000
0000
,
1010
0000
0000
0000
0101
0000
0000
0000
,
1010
0000
0101
0000
1010
0000
0000
0000
,
0110
0000
1001
0000
0110
0000
1001
0000
,
0010
0001
0010
0000
0001
0000
1000
0000
,
0000
0000
0001
0000
0001
0000
0100
0000
,
0100
0000
1000
0000
0010
0000
0001
0000
,
0110
0000
1001
0000
0110
0000
1001
0000
,
1000
0100
0001
0000
1000
0000
0100
0000
,
0010
0001
0010
0000
0001
0000
1000
0000
,
0100
1000
0001
0000
0010
0000
1000
0000
,
1000
0000
1000
0000
0001
0000
0001
0000
,
0010
0000
1000
0000
0100
0000
0001
0000
,
1000
0000
0001
0000
1000
0000
0100
0000
,
0010
0000
0010
0000
0001
0000
1000
0000
,
0010
0000
0010
0000
0100
0000
0100
0000
,
0010
0010
0001
0000
0100
0000
1000
0000
,
0001
0100
0001
0000
1000
0000
0100
0000
,
0010
1000
0010
0000
0001
0000
1000
0000
,
1000
0000
1000
0000
0001
0000
0001
0000
,
1000
0000
1000
0000
0100
0000
0001
0000
,
0010
0001
0010
0000
1000
0000
0100
0000
,
0010
1000
0010
0000
1000
0000
0100
0000
,
1000
0100
1000
0000
0001
0000
0001
0000
,
1000
0100
1000
0000
0001
0000
0001
0000
,
0010
1000
0010
0000
0100
0000
0100
0000
,
0100
0000
1000
0000
0010
0000
0000
0000
,
0010
1000
0100
1000
0010
1000
0100
1000
,
0001
0000
0001
0000
0100
0000
0100
0000
,
0011
0000
0000
0000
1000
1000
1000
0000
,
0100
0100
1000
1000
0010
0010
0010
0000
,
0010
0001
0100
0001
0010
0001
0100
0001
,
1000
0000
1000
0000
0100
0000
0100
0000
,
1010
0000
0000
0000
0001
0000
0000
0000
,
0100
0100
0001
0001
0010
0010
0010
0000
,
1000
0100
0001
0000
0000
0010
0000
0000
,
1000
0000
0001
0000
1000
0000
0000
0000
,
0001
0100
1000
0000
0000
0100
0000
0000
,
1000
0000
0001
0000
1000
0000
0000
0000
,
0010
0000
0100
0000
0010
0100
0000
0000
,
0001
0000
0011
0000
0011
0000
0000
0000
,
0010
0000
0100
0000
0010
0100
0000
0000
,
1000
0000
1100
0000
1100
0000
0000
0000
,
0001
0100
1000
0000
0000
0100
0000
0000
,
0010
0000
0010
0000
0010
0000
0000
0000
,
1000
0100
0001
0000
0000
0100
0000
0000
,
0010
0000
0010
0000
1001
0000
0000
0000
,
1010
0000
0000
0000
0101
0000
0000
0000
,
1010
0000
0101
0000
1010
0000
0000
0000
,
0110
0000
1001
0000
0110
0000
1001
0000
,
0010
0000
0010
0000
0001
0000
1000
0000
,
0001
0000
0001
0000
1000
0000
0100
0000
,
0100
0000
1000
0000
0010
0000
0001
0000
,
0110
0000
1001
0000
0110
0000
1001
0000
,
0000
0000
0001
0000
1000
0000
0100
0000
,
0000
0000
0010
0000
0001
0000
1000
0000
,
0100
0000
0001
0000
0010
0000
1000
0000
,
1000
0000
1000
0000
0001
0000
0001
0000
,
0010
0000
1000
0000
0100
0000
0001
0000
,
0000
0000
0001
0000
1000
0000
0100
0000
,
0000
0000
0010
0000
0001
0000
1000
0000
,
0010
1000
0010
0000
0100
0000
0100
0000
,
0010
0001
0010
0000
0100
0000
1000
0000
,
1000
0100
0001
0000
1000
0000
0100
0000
,
0001
0100
1000
0000
0001
0000
1000
0000
,
0000
0000
0000
0000
0000
0000
0000
0000
,
0000
0000
0000
0000
0000
0000
0000
0000
,
0000
0000
0000
0000
0000
0000
0000
0000
,
0000
0000
0000
0000
0000
0000
0000
0000
,
0000
0000
0000
0000
0000
0000
0000
0000
,
0000
0000
0000
0000
0000
0000
0000
0000
,
0000
0000
0000
0000
0000
0000
0000
0000
,
0000
0000
0000
0000
0000
0000
0000
0000
,
0000
0000
0000
0000
0000
0000
0000
0000
,
0000
0000
0000
0000
0000
0000
0000
0000
,
0000
0000
0000
0000
0000
0000
0000
0000
,
0000
0000
0000
0000
0000
0000
0000
0000
,
0000
0000
0000
0000
0000
0000
0000
0000
,
0000
0000
0000
0000
0000
0000
0000
0000
,
0000
0000
0000
0000
0000
0000
0000
0000
,
0000
0000
0000
0000
0000
0000
0000
0000
,
0000
0000
0000
0000
0000
0000
0000
0000
,
0000
0000
0000
0000
0000
0000
0000
0000
,
0000
0000
0000
0000
0000
0000
0000
0000
,
0000
0000
0000
0000
0000
0000
0000
0000
,
0000
0000
0000
0000
0000
0000
0000
0000
,
0000
0000
0000
0000
0000
0000
0000
0000
,
0000
0000
0000
0000
0000
0000
0000
0000
,
0000
0000
0000
0000
0000
0000
0000
0000
,
0000
0000
0000
0000
0000
0000
0000
0000
,
0000
0000
0000
0000
0000
0000
0000
0000
,
0000
0000
0000
0000
0000
0000
0000
0000
,
0000
0000
0000
0000
0000
0000
0000
0000
,
0000
0000
0000
0000
0000
0000
0000
0000
,
0000
0000
0000
0000
0000
0000
0000
0000
,
0000
0000
0000
0000
0000
0000
0000
0000
,
0000
0000
0000
0000
0000
0000
0000
0000
,
0000
0000
0000
0000
0000
0000
0000
0000
,
0000
0000
0000
0000
0000
0000
0000
0000
,
0000
0000
0000
0000
0000
0000
0000
0000
,
0000
0000
0000
0000
0000
0000
0000
0000
,
0000
0000
0000
0000
0000
0000
0000
0000
,
0000
0000
0000
0000
0000
0000
0000
0000
,
0000
0000
0000
0000
0000
0000
0000
0000
,
0000
0000
0000
0000
0000
0000
0000
0000
,
0000
0000
0000
0000
0000
0000
0000
0000
,
0000
0000
0000
0000
0000
0000
0000
0000
,
0000
0000
0000
0000
0000
0000
0000
0000
,
0000
0000
0000
0000
0000
0000
0000
0000
,
0000
0000
0000
0000
0000
0000
0000
0000
,
0000
0000
0000
0000
0000
0000
0000
0000
,
0000
0000
0000
0000
0000
0000
0000
0000
,
0000
0000
0000
0000
0000
0000
0000
0000
,
0000
0000
0000
0000
0000
0000
0000
0000
,
0000
0000
0000
0000
0000
0000
0000
0000
,
0000
0000
0000
0000
0000
0000
0000
0000
,
0000
0000
0000
0000
0000
0000
0000
0000
,
0000
0000
0000
0000
0000
0000
0000
0000
,
0000
0000
0000
0000
0000
0000
0000
0000
,
0000
0000
0000
0000
0000
0000
0000
0000
,
0000
0000
0000
0000
0000
0000
0000
0000
,
0000
0000
0000
0000
0000
0000
0000
0000
,
0000
0000
0000
0000
0000
0000
0000
0000
,
0000
0000
0000
0000
0000
0000
0000
0000
,
0000
0000
0000
0000
0000
0000
0000
0000
,
0000
0000
0000
0000
0000
0000
0000
0000
,
0000
0000
0000
0000
0000
0000
0000
0000
,
0000
0000
0000
0000
0000
0000
0000
0000
,
0000
0000
0000
0000
0000
0000
0000
0000
,
0000
0000
0000
0000
0000
0000
0000
0000
,
0000
0000
0000
0000
0000
0000
0000
0000
,
0000
0000
0000
0000
0000
0000
0000
0000
,
0000
0000
0000
0000
0000
0000
0000
0000
,
0000
0000
0000
0000
0000
0000
0000
0000
,
0000
0000
0000
0000
0000
0000
0000
0000
,
0000
0000
0000
0000
0000
0000
0000
0000
,
0000
0000
0000
0000
0000
0000
0000
0000
,
0000
0000
0000
0000
0000
0000
0000
0000
,
0000
0000
0000
0000
0000
0000
0000
0000
,
0000
0000
0000
0000
0000
0000
0000
0000
,
0000
0000
0000
0000
0000
0000
0000
0000
,
0000
0000
0000
0000
0000
0000
0000
0000
,
0000
0000
0000
0000
0000
0000
0000
0000
,
0000
0000
0000
0000
0000
0000
0000
0000
,
0000
0000
0000
0000
0000
0000
0000
0000
,
0000
0000
0000
0000
0000
0000
0000
0000
,
0000
0000
0000
0000
0000
0000
0000
0000
,
0000
0000
0000
0000
0000
0000
0000
0000
,
0000
0000
0000
0000
0000
0000
0000
0000
,
0000
0000
0000
0000
0000
0000
0000
0000
,
0000
0000
0000
0000
0000
0000
0000
0000
,
0000
0000
0000
0000
0000
0000
0000
0000
,
0000
0000
0000
0000
0000
0000
0000
0000
,
0000
0000
0000
0000
0000
0000
0000
0000
,
0000
0000
0000
0000
0000
0000
0000
0000
,
0000
0000
0000
0000
0000
0000
0000
0000
,
0000
0000
0000
0000
0000
0000
0000
0000
,
0000
0000
0000
0000
0000
0000
0000
0000
,
0000
0000
0000
0000
0000
0000
0000
0000
,
0000
0000
0000
0000
0000
0000
0000
0000
,
0000
0000
0000
0000
0000
0000
0000
0000
,
0000
0000
0000
0000
0000
0000
0000
0000
,
0000
0000
0000
0000
0000
0000
0000
0000
,
0000
0000
0000
0000
0000
0000
0000
0000
,
0000
0000
0000
0000
0000
0000
0000
0000
,
0000
0000
0000
0000
0000
0000
0000
0000
,
0000
0000
0000
0000
0000
0000
0000
0000
,
0000
0000
0000
0000
0000
0000
0000
0000
,
0000
0000
0000
0000
0000
0000
0000
0000
,
0000
0000
0000
0000
0000
0000
0000
0000
,
0000
0000
0000
0000
0000
0000
0000
0000
,
0000
0000
0000
0000
0000
0000
0000
0000
,
0000
0000
0000
0000
0000
0000
0000
0000
,
0000
0000
0000
0000
0000
0000
0000
0000
,
0000
0000
0000
0000
0000
0000
0000
0000
,
0000
0000
0000
0000
0000
0000
0000
0000
,
0000
0000
0000
0000
0000
0000
0000
0000
,
0000
0000
0000
0000
0000
0000
0000
0000
,
0000
0000
0000
0000
0000
0000
0000
0000
,
0000
0000
0000
0000
0000
0000
0000
0000
,
;

//--------------- dance-single - ----------------
#NOTES:
     dance-single:
     :
     Hard:
     6:
     0,0,0,0,0:
0000
0000
0000
0000
0000
0000
0000
0000
,
1000
0000
1000
0000
0001
0000
0001
0000
,
0100
0000
1000
0000
0011
0000
0001
0000
,
0001
0000
0001
0000
1000
0000
1000
0000
,
0100
0000
0001
0000
1010
0000
1000
0000
,
0010
0010
0010
0000
0100
0000
0100
0000
,
0000
0000
1100
0000
1100
0000
0000
0000
,
0100
0100
0100
0000
0010
0000
0010
0000
,
0000
0000
0011
0000
0011
0000
0000
0000
,
0010
0010
0001
0000
0000
0010
0000
0000
,
1000
0100
0001
0000
1000
0000
0000
0000
,
0100
0100
1000
0000
0000
0100
0000
0000
,
1000
0000
1001
0000
1000
0000
0000
0000
,
0010
0000
0100
0000
0010
0100
0000
0000
,
0001
0000
0011
0000
0011
0000
0000
0000
,
0010
0000
0100
0000
0010
0100
0000
0000
,
1000
0000
1100
0000
1100
0000
0000
0000
,
1000
0100
0001
0000
0000
0100
0000
0000
,
0010
0000
1010
0000
0011
0000
0000
0000
,
0001
0100
1000
0000
0000
0100
0000
0000
,
0010
0000
0010
0000
1001
0000
0000
0000
,
1010
0000
1000
0000
0101
0000
0000
0000
,
1010
0000
0101
0000
1010
0000
0000
0000
,
0110
0000
1001
0000
0110
0000
1001
0000
,
0010
0001
0010
0000
1001
0000
1000
0000
,
0000
0000
0001
0000
0101
0000
0100
0000
,
0100
0000
1000
0000
0011
0000
0001
0000
,
0110
0000
1001
0000
0110
0000
1001
0000
,
1000
0100
0001
0000
1100
0000
0100
0000
,
0010
0001
0010
0000
1001
0000
1000
0000
,
0100
1000
0001
0000
1010
0000
1000
0000
,
1000
0000
1000
0000
1001
0000
0001
0000
,
0010
0000
1000
0000
0101
0000
0001
0000
,
1000
0000
0001
0000
1100
0000
0100
0000
,
0010
0000
0010
0000
1001
0000
1000
0000
,
0010
0000
0010
0000
1100
0000
0101
0000
,
0010
0010
0001
0000
1100
0000
1000
0000
,
0001
0100
0001
0000
1001
0000
0100
0000
,
0010
1000
0010
0000
0001
0000
1000
0000
,
1000
0000
1000
0000
1001
0000
0001
0000
,
1000
0000
1000
0000
0101
0000
0001
0000
,
0010
0001
0010
0000
1100
0000
0100
0000
,
0010
1000
0010
0000
1100
0000
0100
0000
,
1000
0100
1000
0000
0001
0000
0001
0000
,
1000
0100
1000
0000
0001
0000
0001
0000
,
0010
1000
0010
0000
0100
0000
0100
0000
,
1100
0000
1001
0000
0011
0000
0000
0000
,
0010
1000
0100
1000
0010
1000
0100
1000
,
0001
0000
0001
0000
0101
0000
0100
0000
,
0011
0000
0000
0000
1000
1000
1000
0000
,
0100
0100
1000
1000
0010
0010
0010
0000
,
0010
0001
0100
0001
0010
0001
0100
0001
,
0001
0000
0010
0000
1000
0000
0100
0000
,
1010
0000
0100
0000
0001
0000
0100
0000
,
0100
0100
0001
0001
0010
0010
0010
0000
,
1000
0100
0001
0000
0000
0010
0000
0000
,
1000
0100
0001
0000
1001
0000
0000
0000
,
0001
0100
1000
0000
0000
0100
0000
0000
,
1000
0000
0001
0000
1001
0000
0000
0000
,
0010
0000
0100
0000
0010
0100
0000
0000
,
0001
0000
0011
0000
0011
0000
0000
0000
,
0010
0000
0100
0000
0010
0100
0000
0000
,
1000
0000
1100
0000
1100
0000
0000
0000
,
0001
0100
1000
0000
0000
0100
0000
0000
,
0010
0000
0110
0000
0010
0000
0000
0000
,
1000
0100
0001
0000
0000
0100
0000
0000
,
0010
0000
0010
0000
1001
0000
0000
0000
,
1010
0000
1000
0000
0101
0000
0000
0000
,
1010
0000
0101
0000
1010
0000
0000
0000
,
0110
0000
1001
0000
0110
0000
1001
0000
,
0010
0000
0010
0000
1001
0000
1000
0000
,
0001
0000
0001
0000
1100
0000
0100
0000
,
0100
0000
1000
0000
0011
0000
0001
0000
,
0110
0000
1001
0000
0110
0000
1001
0000
,
0001
0000
0001
0000
1000
0000
0100
0000
,
0010
0000
0010
0000
1001
0000
1000
0000
,
0100
0000
0001
0000
1010
0000
1000
0000
,
0001
0000
0010
0000
1001
0000
0100
0000
,
0010
0000
1000
0000
0101
0000
0001
0000
,
0001
0000
0001
0000
1100
0000
0100
0000
,
0010
0000
0010
0000
1001
0000
1000
0000
,
0010
1000
0010
0000
0100
0000
0100
0000
,
0010
0001
0010
0000
0100
0000
1000
0000
,
1000
0100
0001
0000
1000
0000
0100
0000
,
0001
0100
1000
0000
0001
0000
1000
0000
,
0000
0000
0000
0000
0000
0000
0000
0000
,
0000
0000
0000
0000
0000
0000
0000
0000
,
0000
0000
0000
0000
0000
0000
0000
0000
,
0000
0000
0000
0000
0000
0000
0000
0000
,
0000
0000
0000
0000
0000
0000
0000
0000
,
0000
0000
0000
0000
0000
0000
0000
0000
,
0000
0000
0000
0000
0000
0000
0000
0000
,
0000
0000
0000
0000
0000
0000
0000
0000
,
0000
0000
0000
0000
0000
0000
0000
0000
,
0000
0000
0000
0000
0000
0000
0000
0000
,
0000
0000
0000
0000
0000
0000
0000
0000
,
0000
0000
0000
0000
0000
0000
0000
0000
,
0000
0000
0000
0000
0000
0000
0000
0000
,
0000
0000
0000
0000
0000
0000
0000
0000
,
0000
0000
0000
0000
0000
0000
0000
0000
,
0000
0000
0000
0000
0000
0000
0000
0000
,
0000
0000
0000
0000
0000
0000
0000
0000
,
0000
0000
0000
0000
0000
0000
0000
0000
,
0000
0000
0000
0000
0000
0000
0000
0000
,
0000
0000
0000
0000
0000
0000
0000
0000
,
0000
0000
0000
0000
0000
0000
0000
0000
,
0000
0000
0000
0000
0000
0000
0000
0000
,
0000
0000
0000
0000
0000
0000
0000
0000
,
0000
0000
0000
0000
0000
0000
0000
0000
,
0000
0000
0000
0000
0000
0000
0000
0000
,
0000
0000
0000
0000
0000
0000
0000
0000
,
0000
0000
0000
0000
0000
0000
0000
0000
,
0000
0000
0000
0000
0000
0000
0000
0000
,
0000
0000
0000
0000
0000
0000
0000
0000
,
0000
0000
0000
0000
0000
0000
0000
0000
,
0000
0000
0000
0000
0000
0000
0000
0000
,
0000
0000
0000
0000
0000
0000
0000
0000
,
0000
0000
0000
0000
0000
0000
0000
0000
,
0000
0000
0000
0000
0000
0000
0000
0000
,
0000
0000
0000
0000
0000
0000
0000
0000
,
0000
0000
0000
0000
0000
0000
0000
0000
,
0000
0000
0000
0000
0000
0000
0000
0000
,
0000
0000
0000
0000
0000
0000
0000
0000
,
0000
0000
0000
0000
0000
0000
0000
0000
,
0000
0000
0000
0000
0000
0000
0000
0000
,
0000
0000
0000
0000
0000
0000
0000
0000
,
0000
0000
0000
0000
0000
0000
0000
0000
,
0000
0000
0000
0000
0000
0000
0000
0000
,
0000
0000
0000
0000
0000
0000
0000
0000
,
0000
0000
0000
0000
0000
0000
0000
0000
,
0000
0000
0000
0000
0000
0000
0000
0000
,
0000
0000
0000
0000
0000
0000
0000
0000
,
0000
0000
0000
0000
0000
0000
0000
0000
,
0000
0000
0000
0000
0000
0000
0000
0000
,
0000
0000
0000
0000
0000
0000
0000
0000
,
0000
0000
0000
0000
0000
0000
0000
0000
,
0000
0000
0000
0000
0000
0000
0000
0000
,
0000
0000
0000
0000
0000
0000
0000
0000
,
0000
0000
0000
0000
0000
0000
0000
0000
,
0000
0000
0000
0000
0000
0000
0000
0000
,
0000
0000
0000
0000
0000
0000
0000
0000
,
0000
0000
0000
0000
0000
0000
0000
0000
,
0000
0000
0000
0000
0000
0000
0000
0000
,
0000
0000
0000
0000
0000
0000
0000
0000
,
0000
0000
0000
0000
0000
0000
0000
0000
,
0000
0000
0000
0000
0000
0000
0000
0000
,
0000
0000
0000
0000
0000
0000
0000
0000
,
0000
0000
0000
0000
0000
0000
0000
0000
,
0000
0000
0000
0000
0000
0000
0000
0000
,
0000
0000
0000
0000
0000
0000
0000
0000
,
0000
0000
0000
0000
0000
0000
0000
0000
,
0000
0000
0000
0000
0000
0000
0000
0000
,
0000
0000
0000
0000
0000
0000
0000
0000
,
0000
0000
0000
0000
0000
0000
0000
0000
,
0000
0000
0000
0000
0000
0000
0000
0000
,
0000
0000
0000
0000
0000
0000
0000
0000
,
0000
0000
0000
0000
0000
0000
0000
0000
,
0000
0000
0000
0000
0000
0000
0000
0000
,
0000
0000
0000
0000
0000
0000
0000
0000
,
0000
0000
0000
0000
0000
0000
0000
0000
,
0000
0000
0000
0000
0000
0000
0000
0000
,
0000
0000
0000
0000
0000
0000
0000
0000
,
0000
0000
0000
0000
0000
0000
0000
0000
,
0000
0000
0000
0000
0000
0000
0000
0000
,
0000
0000
0000
0000
0000
0000
0000
0000
,
0000
0000
0000
0000
0000
0000
0000
0000
,
0000
0000
0000
0000
0000
0000
0000
0000
,
0000
0000
0000
0000
0000
0000
0000
0000
,
0000
0000
0000
0000
0000
0000
0000
0000
,
0000
0000
0000
0000
0000
0000
0000
0000
,
0000
0000
0000
0000
0000
0000
0000
0000
,
0000
0000
0000
0000
0000
0000
0000
0000
,
0000
0000
0000
0000
0000
0000
0000
0000
,
0000
0000
0000
0000
0000
0000
0000
0000
,
0000
0000
0000
0000
0000
0000
0000
0000
,
0000
0000
0000
0000
0000
0000
0000
0000
,
0000
0000
0000
0000
0000
0000
0000
0000
,
0000
0000
0000
0000
0000
0000
0000
0000
,
0000
0000
0000
0000
0000
0000
0000
0000
,
0000
0000
0000
0000
0000
0000
0000
0000
,
0000
0000
0000
0000
0000
0000
0000
0000
,
0000
0000
0000
0000
0000
0000
0000
0000
,
0000
0000
0000
0000
0000
0000
0000
0000
,
0000
0000
0000
0000
0000
0000
0000
0000
,
0000
0000
0000
0000
0000
0000
0000
0000
,
0000
0000
0000
0000
0000
0000
0000
0000
,
0000
0000
0000
0000
0000
0000
0000
0000
,
0000
0000
0000
0000
0000
0000
0000
0000
,
0000
0000
0000
0000
0000
0000
0000
0000
,
0000
0000
0000
0000
0000
0000
0000
0000
,
0000
0000
0000
0000
0000
0000
0000
0000
,
0000
0000
0000
0000
0000
0000
0000
0000
,
0000
0000
0000
0000
0000
0000
0000
0000
,
0000
0000
0000
0000
0000
0000
0000
0000
,
0000
0000
0000
0000
0000
0000
0000
0000
,
0000
0000
0000
0000
0000
0000
0000
0000
,
0000
0000
0000
0000
0000
0000
0000
0000
,
0000
0000
0000
0000
0000
0000
0000
0000
,
0000
0000
0000
0000
0000
0000
0000
0000
,
0000
0000
0000
0000
0000
0000
0000
0000
,
;

//--------------- dance-double - ----------------
#NOTES:
     dance-double:
     :
     Easy:
     4:
     0,0,0,0,0:
00000000
00000000
00000000
00000000
00000000
00000000
00000000
00000000
,
10000000
00000000
10000000
00000000
00010000
00000000
00010000
00000000
,
01000000
00000000
10000000
00000000
00100000
00000000
00010000
00000000
,
00010000
00000000
00010000
00000000
00001000
00000000
00001000
00000000
,
00000100
00000000
00010000
00000000
00100000
00000000
00001000
00000000
,
00000010
00000000
00000010
00000000
00000100
00000000
00000100
00000000
,
00000000
00000000
00000101
00000000
00000101
00000000
00000000
00000000
,
00000100
00000000
00000100
00000000
00100000
00000000
00100000
00000000
,
00000000
00000000
00110000
00000000
00110000
00000000
00000000
00000000
,
00000000
00000000
00100000
00000000
00000000
00100000
00000000
00000000
,
10000000
00000000
00010000
00000000
10000000
00000000
00000000
00000000
,
00000000
00000000
00000100
00000000
00000000
00000100
00000000
00000000
,
00001000
00000000
00010000
00000000
00001000
00000000
00000000
00000000
,
00000010
00000000
00000100
00000000
00000010
00000100
00000000
00000000
,
00001000
00000000
00001010
00000000
00001010
00000000
00000000
00000000
,
00100000
00000000
00000100
00000000
00100000
00000100
00000000
00000000
,
00001000
00000000
00001100
00000000
00001100
00000000
00000000
00000000
,
10000000
00000000
10000000
00000000
00000000
01000000
00000000
00000000
,
00100000
00000000
00100000
00000000
00100000
00000000
00000000
00000000
,
00010000
00000000
00010000
00000000
00000000
00000100
00000000
00000000
,
00100000
00000000
00100000
00000000
00011000
00000000
00000000
00000000
,
00000011
00000000
00000000
00000000
00001100
00000000
00000000
00000000
,
00000011
00000000
00001100
00000000
00000011
00000000
00000000
00000000
,
00100100
00000000
00011000
00000000
00100100
00000000
00011000
00000000
,
00000000
00000000
00100000
00000000
00000000
00000000
00001000
00000000
,
00000000
00000000
00010000
00000000
00000000
00000000
01000000
00000000
,
01000000
00000000
10000000
00000000
00100000
00000000
00010000
00000000
,
00100100
00000000
00011000
00000000
00100100
00000000
00011000
00000000
,
00000000
00000000
00010000
00000000
00000000
00000000
00000100
00000000
,
00000000
00000000
00000010
00000000
00000000
00000000
00000001
00000000
,
00000100
00000000
00001000
00000000
00000010
00000000
00000001
00000000
,
00001000
00000000
00001000
00000000
00010000
00000000
00010000
00000000
,
00100000
00000000
00001000
00000000
00000100
00000000
00010000
00000000
,
00000000
00000000
00010000
00000000
00000000
00000000
01000000
00000000
,
00000000
00000000
00100000
00000000
00000000
00000000
10000000
00000000
,
00100000
00000000
00100000
00000000
00000100
00000000
00000100
00000000
,
00100000
00000000
00010000
00000000
00000100
00000000
00001000
00000000
,
00000000
00000000
00001000
00000000
00000001
00000000
00000100
00000000
,
00000000
00000000
00000010
00000000
00001000
00000000
00000001
00000000
,
00000000
00000000
00001000
00000000
00000000
00000000
00010000
00000000
,
00000000
00000000
00001000
00000000
00000000
00000000
00010000
00000000
,
00000000
00000000
00100000
00000000
00000000
00000000
01000000
00000000
,
00000000
00000000
00100000
00000000
00000000
00000000
01000000
00000000
,
00001000
00000000
00001000
00000000
00010000
00000000
00010000
00000000
,
00001000
00000000
00001000
00000000
00010000
00000000
00010000
00000000
,
00000010
00000000
00000010
00000000
00000100
00000000
00000100
00000000
,
00000100
00000000
00000001
00000000
00000010
00000000
00000000
00000000
,
00100000
00001000
00000100
00001000
00100000
00001000
00000100
00001000
,
00010000
00000000
00010000
00000000
00000100
00000000
00000100
00000000
,
00110000
00000000
00000000
00000000
10000000
10000000
10000000
00000000
,
01000000
01000000
10000000
10000000
00100000
00100000
00100000
00000000
,
00100000
00010000
00000100
00010000
00100000
00010000
00000100
00010000
,
00001000
00000000
00001000
00000000
00000100
00000000
00000100
00000000
,
00000011
00000000
00000000
00000000
00001000
00000000
00000000
00000000
,
00000100
00000100
00001000
00001000
00000010
00000010
00000010
00000000
,
00000000
00000000
00100000
00000000
00000000
00100000
00000000
00000000
,
00001000
00000000
00010000
00000000
00001000
00000000
00000000
00000000
,
00000000
00000000
01000000
00000000
00000000
01000000
00000000
00000000
,
10000000
00000000
00010000
00000000
10000000
00000000
00000000
00000000
,
00100000
00000000
00000100
00000000
00100000
00000100
00000000
00000000
,
00010000
00000000
00110000
00000000
00110000
00000000
00000000
00000000
,
00100000
00000000
00000100
00000000
00100000
00000100
00000000
00000000
,
00000001
00000000
00000101
00000000
00000101
00000000
00000000
00000000
,
00000001
00000000
00000001
00000000
00000000
00000100
00000000
00000000
,
00100000
00000000
00100000
00000000
00100000
00000000
00000000
00000000
,
00010000
00000000
00010000
00000000
00000000
00000100
00000000
00000000
,
00100000
00000000
00100000
00000000
10010000
00000000
00000000
00000000
,
10100000
00000000
00000000
00000000
01010000
00000000
00000000
00000000
,
00101000
00000000
00010100
00000000
00101000
00000000
00000000
00000000
,
00100100
00000000
00011000
00000000
00100100
00000000
00011000
00000000
,
00000000
00000000
00000010
00000000
00000000
00000000
00000001
00000000
,
00000000
00000000
00001000
00000000
00000000
00000000
00000100
00000000
,
00000100
00000000
00001000
00000000
00100000
00000000
00010000
00000000
,
00100100
00000000
00011000
00000000
00100100
00000000
00011000
00000000
,
00000000
00000000
00010000
00000000
00000000
00000000
01000000
00000000
,
00000000
00000000
00100000
00000000
00000000
00000000
10000000
00000000
,
00000100
00000000
00010000
00000000
00100000
00000000
00001000
00000000
,
00001000
00000000
00001000
00000000
00010000
00000000
00010000
00000000
,
00000010
00000000
00000001
00000000
00000100
00000000
00001000
00000000
,
00000000
00000000
00001000
00000000
00000000
00000000
00000100
00000000
,
00000000
00000000
00100000
00000000
00000000
00000000
00001000
00000000
,
00100000
00000000
00100000
00000000
00000100
00000000
00000100
00000000
,
00100000
00000000
00010000
00000000
01000000
00000000
10000000
00000000
,
00000000
00000000
00010000
00000000
10000000
00000000
01000000
00000000
,
00000000
00000000
00100000
00000000
00010000
00000000
00001000
00000000
,
00000000
00000000
00000000
00000000
00000000
00000000
00000000
00000000
,
00000000
00000000
00000000
00000000
00000000
00000000
00000000
00000000
,
00000000
00000000
00000000
00000000
00000000
00000000
00000000
00000000
,
00000000
00000000
00000000
00000000
00000000
00000000
00000000
00000000
,
00000000
00000000
00000000
00000000
00000000
00000000
00000000
00000000
,
00000000
00000000
00000000
00000000
00000000
00000000
00000000
00000000
,
00000000
00000000
00000000
00000000
00000000
00000000
00000000
00000000
,
00000000
00000000
00000000
00000000
00000000
00000000
00000000
00000000
,
00000000
00000000
00000000
00000000
00000000
00000000
00000000
00000000
,
00000000
00000000
00000000
00000000
00000000
00000000
00000000
00000000
,
00000000
00000000
00000000
00000000
00000000
00000000
00000000
00000000
,
00000000
00000000
00000000
00000000
00000000
00000000
00000000
00000000
,
00000000
00000000
00000000
00000000
00000000
00000000
00000000
00000000
,
00000000
00000000
00000000
00000000
00000000
00000000
00000000
00000000
,
00000000
00000000
00000000
00000000
00000000
00000000
00000000
00000000
,
00000000
00000000
00000000
00000000
00000000
00000000
00000000
00000000
,
00000000
00000000
00000000
00000000
00000000
00000000
00000000
00000000
,
00000000
00000000
00000000
00000000
00000000
00000000
00000000
00000000
,
00000000
00000000
00000000
00000000
00000000
00000000
00000000
00000000
,
00000000
00000000
00000000
00000000
00000000
00000000
00000000
00000000
,
00000000
00000000
00000000
00000000
00000000
00000000
00000000
00000000
,
00000000
00000000
00000000
00000000
00000000
00000000
00000000
00000000
,
00000000
00000000
00000000
00000000
00000000
00000000
00000000
00000000
,
00000000
00000000
00000000
00000000
00000000
00000000
00000000
00000000
,
00000000
00000000
00000000
00000000
00000000
00000000
00000000
00000000
,
00000000
00000000
00000000
00000000
00000000
00000000
00000000
00000000
,
00000000
00000000
00000000
00000000
00000000
00000000
00000000
00000000
,
00000000
00000000
00000000
00000000
00000000
00000000
00000000
00000000
,
00000000
00000000
00000000
00000000
00000000
00000000
00000000
00000000
,
00000000
00000000
00000000
00000000
00000000
00000000
00000000
00000000
,
00000000
00000000
00000000
00000000
00000000
00000000
00000000
00000000
,
00000000
00000000
00000000
00000000
00000000
00000000
00000000
00000000
,
00000000
00000000
00000000
00000000
00000000
00000000
00000000
00000000
,
00000000
00000000
00000000
00000000
00000000
00000000
00000000
00000000
,
00000000
00000000
00000000
00000000
00000000
00000000
00000000
00000000
,
00000000
00000000
00000000
00000000
00000000
00000000
00000000
00000000
,
00000000
00000000
00000000
00000000
00000000
00000000
00000000
00000000
,
00000000
00000000
00000000
00000000
00000000
00000000
00000000
00000000
,
00000000
00000000
00000000
00000000
00000000
00000000
00000000
00000000
,
00000000
00000000
00000000
00000000
00000000
00000000
00000000
00000000
,
00000000
00000000
00000000
00000000
00000000
00000000
00000000
00000000
,
00000000
00000000
00000000
00000000
00000000
00000000
00000000
00000000
,
00000000
00000000
00000000
00000000
00000000
00000000
00000000
00000000
,
00000000
00000000
00000000
00000000
00000000
00000000
00000000
00000000
,
00000000
00000000
00000000
00000000
00000000
00000000
00000000
00000000
,
00000000
00000000
00000000
00000000
00000000
00000000
00000000
00000000
,
00000000
00000000
00000000
00000000
00000000
00000000
00000000
00000000
,
00000000
00000000
00000000
00000000
00000000
00000000
00000000
00000000
,
00000000
00000000
00000000
00000000
00000000
00000000
00000000
00000000
,
00000000
00000000
00000000
00000000
00000000
00000000
00000000
00000000
,
00000000
00000000
00000000
00000000
00000000
00000000
00000000
00000000
,
00000000
00000000
00000000
00000000
00000000
00000000
00000000
00000000
,
00000000
00000000
00000000
00000000
00000000
00000000
00000000
00000000
,
00000000
00000000
00000000
00000000
00000000
00000000
00000000
00000000
,
00000000
00000000
00000000
00000000
00000000
00000000
00000000
00000000
,
00000000
00000000
00000000
00000000
00000000
00000000
00000000
00000000
,
00000000
00000000
00000000
00000000
00000000
00000000
00000000
00000000
,
00000000
00000000
00000000
00000000
00000000
00000000
00000000
00000000
,
00000000
00000000
00000000
00000000
00000000
00000000
00000000
00000000
,
00000000
00000000
00000000
00000000
00000000
00000000
00000000
00000000
,
00000000
00000000
00000000
00000000
00000000
00000000
00000000
00000000
,
00000000
00000000
00000000
00000000
00000000
00000000
00000000
00000000
,
00000000
00000000
00000000
00000000
00000000
00000000
00000000
00000000
,
00000000
00000000
00000000
00000000
00000000
00000000
00000000
00000000
,
00000000
00000000
00000000
00000000
00000000
00000000
00000000
00000000
,
00000000
00000000
00000000
00000000
00000000
00000000
00000000
00000000
,
00000000
00000000
00000000
00000000
00000000
00000000
00000000
00000000
,
00000000
00000000
00000000
00000000
00000000
00000000
00000000
00000000
,
00000000
00000000
00000000
00000000
00000000
00000000
00000000
00000000
,
00000000
00000000
00000000
00000000
00000000
00000000
00000000
00000000
,
00000000
00000000
00000000
00000000
00000000
00000000
00000000
00000000
,
00000000
00000000
00000000
00000000
00000000
00000000
00000000
00000000
,
00000000
00000000
00000000
00000000
00000000
00000000
00000000
00000000
,
00000000
00000000
00000000
00000000
00000000
00000000
00000000
00000000
,
00000000
00000000
00000000
00000000
00000000
00000000
00000000
00000000
,
00000000
00000000
00000000
00000000
00000000
00000000
00000000
00000000
,
00000000
00000000
00000000
00000000
00000000
00000000
00000000
00000000
,
00000000
00000000
00000000
00000000
00000000
00000000
00000000
00000000
,
00000000
00000000
00000000
00000000
00000000
00000000
00000000
00000000
,
00000000
00000000
00000000
00000000
00000000
00000000
00000000
00000000
,
00000000
00000000
00000000
00000000
00000000
00000000
00000000
00000000
,
00000000
00000000
00000000
00000000
00000000
00000000
00000000
00000000
,
00000000
00000000
00000000
00000000
00000000
00000000
00000000
00000000
,
00000000
00000000
00000000
00000000
00000000
00000000
00000000
00000000
,
00000000
00000000
00000000
00000000
00000000
00000000
00000000
00000000
,
00000000
00000000
00000000
00000000
00000000
00000000
00000000
00000000
,
00000000
00000000
00000000
00000000
00000000
00000000
00000000
00000000
,
00000000
00000000
00000000
00000000
00000000
00000000
00000000
00000000
,
00000000
00000000
00000000
00000000
00000000
00000000
00000000
00000000
,
00000000
00000000
00000000
00000000
00000000
00000000
00000000
00000000
,
00000000
00000000
00000000
00000000
00000000
00000000
00000000
00000000
,
00000000
00000000
00000000
00000000
00000000
00000000
00000000
00000000
,
00000000
00000000
00000000
00000000
00000000
00000000
00000000
00000000
,
00000000
00000000
00000000
00000000
00000000
00000000
00000000
00000000
,
00000000
00000000
00000000
00000000
00000000
00000000
00000000
00000000
,
00000000
00000000
00000000
00000000
00000000
00000000
00000000
00000000
,
00000000
00000000
00000000
00000000
00000000
00000000
00000000
00000000
,
00000000
00000000
00000000
00000000
00000000
00000000
00000000
00000000
,
00000000
00000000
00000000
00000000
00000000
00000000
00000000
00000000
,
00000000
00000000
00000000
00000000
00000000
00000000
00000000
00000000
,
00000000
00000000
00000000
00000000
00000000
00000000
00000000
00000000
,
00000000
00000000
00000000
00000000
00000000
00000000
00000000
00000000
,
00000000
00000000
00000000
00000000
00000000
00000000
00000000
00000000
,
00000000
00000000
00000000
00000000
00000000
00000000
00000000
00000000
,
00000000
00000000
00000000
00000000
00000000
00000000
00000000
00000000
,
00000000
00000000
00000000
00000000
00000000
00000000
00000000
00000000
,
00000000
00000000
00000000
00000000
00000000
00000000
00000000
00000000
,
00000000
00000000
00000000
00000000
00000000
00000000
00000000
00000000
,
00000000
00000000
00000000
00000000
00000000
00000000
00000000
00000000
,
00000000
00000000
00000000
00000000
00000000
00000000
00000000
00000000
,
00000000
00000000
00000000
00000000
00000000
00000000
00000000
00000000
,
00000000
00000000
00000000
00000000
00000000
00000000
00000000
00000000
,
00000000
00000000
00000000
00000000
00000000
00000000
00000000
00000000
,
00000000
00000000
00000000
00000000
00000000
00000000
00000000
00000000
,
00000000
00000000
00000000
00000000
00000000
00000000
00000000
00000000
,
;

//--------------- dance-double - ----------------
#NOTES:
     dance-double:
     :
     Medium:
     5:
     0,0,0,0,0:
00000000
00000000
00000000
00000000
00000000
00000000
00000000
00000000
,
10000000
00000000
10000000
00000000
00010000
00000000
00010000
00000000
,
01000000
00000000
10000000
00000000
00100000
00000000
00010000
00000000
,
00010000
00000000
00010000
00000000
00001000
00000000
00001000
00000000
,
00000100
00000000
00010000
00000000
00100000
00000000
00001000
00000000
,
00000010
00000010
00000010
00000000
00000100
00000000
00000100
00000000
,
00000000
00000000
00000101
00000000
00000101
00000000
00000000
00000000
,
00000100
00000100
00000100
00000000
00100000
00000000
00100000
00000000
,
00000000
00000000
00110000
00000000
00110000
00000000
00000000
00000000
,
00100000
00100000
00010000
00000000
00000000
00100000
00000000
00000000
,
10000000
01000000
00010000
00000000
10000000
00000000
00000000
00000000
,
00000100
00000100
00001000
00000000
00000000
00000100
00000000
00000000
,
00001000
00000000
00010000
00000000
00001000
00000000
00000000
00000000
,
00000010
00000000
00000100
00000000
00000010
00000100
00000000
00000000
,
00001000
00000000
00001010
00000000
00001010
00000000
00000000
00000000
,
00100000
00000000
00000100
00000000
00100000
00000100
00000000
00000000
,
00001000
00000000
00001100
00000000
00001100
00000000
00000000
00000000
,
10000000
01000000
00010000
00000000
00000000
01000000
00000000
00000000
,
00100000
00000000
00100000
00000000
00100000
00000000
00000000
00000000
,
00010000
00000100
00001000
00000000
00000000
00000100
00000000
00000000
,
00100000
00000000
00100000
00000000
00011000
00000000
00000000
00000000
,
00000011
00000000
00000000
00000000
00001100
00000000
00000000
00000000
,
00000011
00000000
00001100
00000000
00000011
00000000
00000000
00000000
,
00100100
00000000
00011000
00000000
00100100
00000000
00011000
00000000
,
00100000
00010000
00100000
00000000
00010000
00000000
00001000
00000000
,
00000000
00000000
00010000
00000000
00010000
00000000
01000000
00000000
,
01000000
00000000
10000000
00000000
00100000
00000000
00010000
00000000
,
00100100
00000000
00011000
00000000
00100100
00000000
00011000
00000000
,
00001000
00000100
00010000
00000000
00001000
00000000
00000100
00000000
,
00000010
00001000
00000010
00000000
00001000
00000000
00000001
00000000
,
00000100
00000001
00001000
00000000
00000010
00000000
00000001
00000000
,
00001000
00000000
00001000
00000000
00010000
00000000
00010000
00000000
,
00100000
00000000
00001000
00000000
00000100
00000000
00010000
00000000
,
10000000
00000000
00010000
00000000
10000000
00000000
01000000
00000000
,
00100000
00000000
00100000
00000000
00010000
00000000
10000000
00000000
,
00100000
00000000
00100000
00000000
00000100
00000000
00000100
00000000
,
00100000
00100000
00010000
00000000
00000100
00000000
00001000
00000000
,
00001000
00000100
00001000
00000000
00000001
00000000
00000100
00000000
,
00000010
00000001
00000010
00000000
00001000
00000000
00000001
00000000
,
00001000
00000000
00001000
00000000
00010000
00000000
00010000
00000000
,
00001000
00000000
00001000
00000000
00000100
00000000
00010000
00000000
,
00100000
00010000
00100000
00000000
10000000
00000000
01000000
00000000
,
00100000
10000000
00100000
00000000
10000000
00000000
01000000
00000000
,
00001000
00000100
00001000
00000000
00010000
00000000
00010000
00000000
,
00001000
00000100
00001000
00000000
00010000
00000000
00010000
00000000
,
00000010
00000001
00000010
00000000
00000100
00000000
00000100
00000000
,
00000100
00000000
00000001
00000000
00000010
00000000
00000000
00000000
,
00100000
00001000
00000100
00001000
00100000
00001000
00000100
00001000
,
00010000
00000000
00010000
00000000
00000100
00000000
00000100
00000000
,
00110000
00000000
00000000
00000000
10000000
10000000
10000000
00000000
,
01000000
01000000
10000000
10000000
00100000
00100000
00100000
00000000
,
00100000
00010000
00000100
00010000
00100000
00010000
00000100
00010000
,
00001000
00000000
00001000
00000000
00000100
00000000
00000100
00000000
,
00000011
00000000
00000000
00000000
00001000
00000000
00000000
00000000
,
00000100
00000100
00001000
00001000
00000010
00000010
00000010
00000000
,
00001000
00000100
00010000
00000000
00000000
00100000
00000000
00000000
,
00001000
00000000
00010000
00000000
00001000
00000000
00000000
00000000
,
00010000
01000000
10000000
00000000
00000000
01000000
00000000
00000000
,
10000000
00000000
00010000
00000000
10000000
00000000
00000000
00000000
,
00100000
00000000
00000100
00000000
00100000
00000100
00000000
00000000
,
00010000
00000000
00110000
00000000
00110000
00000000
00000000
00000000
,
00100000
00000000
00000100
00000000
00100000
00000100
00000000
00000000
,
00000001
00000000
00000101
00000000
00000101
00000000
00000000
00000000
,
00001000
00000100
00000001
00000000
00000000
00000100
00000000
00000000
,
00100000
00000000
00100000
00000000
00100000
00000000
00000000
00000000
,
00001000
00000100
00010000
00000000
00000000
00000100
00000000
00000000
,
00100000
00000000
00100000
00000000
10010000
00000000
00000000
00000000
,
10100000
00000000
00000000
00000000
01010000
00000000
00000000
00000000
,
00101000
00000000
00010100
00000000
00101000
00000000
00000000
00000000
,
00100100
00000000
00011000
00000000
00100100
00000000
00011000
00000000
,
00000010
00000000
00000010
00000000
00001000
00000000
00000001
00000000
,
00001000
00000000
00001000
00000000
00000001
00000000
00000100
00000000
,
00000100
00000000
00001000
00000000
00100000
00000000
00010000
00000000
,
00100100
00000000
00011000
00000000
00100100
00000000
00011000
00000000
,
00000000
00000000
00010000
00000000
10000000
00000000
01000000
00000000
,
00000000
00000000
00100000
00000000
00010000
00000000
10000000
00000000
,
00000100
00000000
00010000
00000000
00100000
00000000
00001000
00000000
,
00001000
00000000
00001000
00000000
00010000
00000000
00010000
00000000
,
00000010
00000000
00000001
00000000
00000100
00000000
00001000
00000000
,
00000000
00000000
00001000
00000000
00000001
00000000
00000100
00000000
,
00000000
00000000
00100000
00000000
00010000
00000000
00001000
00000000
,
00100000
00001000
00100000
00000000
00000100
00000000
00000100
00000000
,
00100000
00010000
00100000
00000000
01000000
00000000
10000000
00000000
,
10000000
01000000
00010000
00000000
10000000
00000000
01000000
00000000
,
00010000
00000100
00001000
00000000
00010000
00000000
00001000
00000000
,
00000000
00000000
00000000
00000000
00000000
00000000
00000000
00000000
,
00000000
00000000
00000000
00000000
00000000
00000000
00000000
00000000
,
00000000
00000000
00000000
00000000
00000000
00000000
00000000
00000000
,
00000000
00000000
00000000
00000000
00000000
00000000
00000000
00000000
,
00000000
00000000
00000000
00000000
00000000
00000000
00000000
00000000
,
00000000
00000000
00000000
00000000
00000000
00000000
00000000
00000000
,
00000000
00000000
00000000
00000000
00000000
00000000
00000000
00000000
,
00000000
00000000
00000000
00000000
00000000
00000000
00000000
00000000
,
00000000
00000000
00000000
00000000
00000000
00000000
00000000
00000000
,
00000000
00000000
00000000
00000000
00000000
00000000
00000000
00000000
,
00000000
00000000
00000000
00000000
00000000
00000000
00000000
00000000
,
00000000
00000000
00000000
00000000
00000000
00000000
00000000
00000000
,
00000000
00000000
00000000
00000000
00000000
00000000
00000000
00000000
,
00000000
00000000
00000000
00000000
00000000
00000000
00000000
00000000
,
00000000
00000000
00000000
00000000
00000000
00000000
00000000
00000000
,
00000000
00000000
00000000
00000000
00000000
00000000
00000000
00000000
,
00000000
00000000
00000000
00000000
00000000
00000000
00000000
00000000
,
00000000
00000000
00000000
00000000
00000000
00000000
00000000
00000000
,
00000000
00000000
00000000
00000000
00000000
00000000
00000000
00000000
,
00000000
00000000
00000000
00000000
00000000
00000000
00000000
00000000
,
00000000
00000000
00000000
00000000
00000000
00000000
00000000
00000000
,
00000000
00000000
00000000
00000000
00000000
00000000
00000000
00000000
,
00000000
00000000
00000000
00000000
00000000
00000000
00000000
00000000
,
00000000
00000000
00000000
00000000
00000000
00000000
00000000
00000000
,
00000000
00000000
00000000
00000000
00000000
00000000
00000000
00000000
,
00000000
00000000
00000000
00000000
00000000
00000000
00000000
00000000
,
00000000
00000000
00000000
00000000
00000000
00000000
00000000
00000000
,
00000000
00000000
00000000
00000000
00000000
00000000
00000000
00000000
,
00000000
00000000
00000000
00000000
00000000
00000000
00000000
00000000
,
00000000
00000000
00000000
00000000
00000000
00000000
00000000
00000000
,
00000000
00000000
00000000
00000000
00000000
00000000
00000000
00000000
,
00000000
00000000
00000000
00000000
00000000
00000000
00000000
00000000
,
00000000
00000000
00000000
00000000
00000000
00000000
00000000
00000000
,
00000000
00000000
00000000
00000000
00000000
00000000
00000000
00000000
,
00000000
00000000
00000000
00000000
00000000
00000000
00000000
00000000
,
00000000
00000000
00000000
00000000
00000000
00000000
00000000
00000000
,
00000000
00000000
00000000
00000000
00000000
00000000
00000000
00000000
,
00000000
00000000
00000000
00000000
00000000
00000000
00000000
00000000
,
00000000
00000000
00000000
00000000
00000000
00000000
00000000
00000000
,
00000000
00000000
00000000
00000000
00000000
00000000
00000000
00000000
,
00000000
00000000
00000000
00000000
00000000
00000000
00000000
00000000
,
00000000
00000000
00000000
00000000
00000000
00000000
00000000
00000000
,
00000000
00000000
00000000
00000000
00000000
00000000
00000000
00000000
,
00000000
00000000
00000000
00000000
00000000
00000000
00000000
00000000
,
00000000
00000000
00000000
00000000
00000000
00000000
00000000
00000000
,
00000000
00000000
00000000
00000000
00000000
00000000
00000000
00000000
,
00000000
00000000
00000000
00000000
00000000
00000000
00000000
00000000
,
00000000
00000000
00000000
00000000
00000000
00000000
00000000
00000000
,
00000000
00000000
00000000
00000000
00000000
00000000
00000000
00000000
,
00000000
00000000
00000000
00000000
00000000
00000000
00000000
00000000
,
00000000
00000000
00000000
00000000
00000000
00000000
00000000
00000000
,
00000000
00000000
00000000
00000000
00000000
00000000
00000000
00000000
,
00000000
00000000
00000000
00000000
00000000
00000000
00000000
00000000
,
00000000
00000000
00000000
00000000
00000000
00000000
00000000
00000000
,
00000000
00000000
00000000
00000000
00000000
00000000
00000000
00000000
,
00000000
00000000
00000000
00000000
00000000
00000000
00000000
00000000
,
00000000
00000000
00000000
00000000
00000000
00000000
00000000
00000000
,
00000000
00000000
00000000
00000000
00000000
00000000
00000000
00000000
,
00000000
00000000
00000000
00000000
00000000
00000000
00000000
00000000
,
00000000
00000000
00000000
00000000
00000000
00000000
00000000
00000000
,
00000000
00000000
00000000
00000000
00000000
00000000
00000000
00000000
,
00000000
00000000
00000000
00000000
00000000
00000000
00000000
00000000
,
00000000
00000000
00000000
00000000
00000000
00000000
00000000
00000000
,
00000000
00000000
00000000
00000000
00000000
00000000
00000000
00000000
,
00000000
00000000
00000000
00000000
00000000
00000000
00000000
00000000
,
00000000
00000000
00000000
00000000
00000000
00000000
00000000
00000000
,
00000000
00000000
00000000
00000000
00000000
00000000
00000000
00000000
,
00000000
00000000
00000000
00000000
00000000
00000000
00000000
00000000
,
00000000
00000000
00000000
00000000
00000000
00000000
00000000
00000000
,
00000000
00000000
00000000
00000000
00000000
00000000
00000000
00000000
,
00000000
00000000
00000000
00000000
00000000
00000000
00000000
00000000
,
00000000
00000000
00000000
00000000
00000000
00000000
00000000
00000000
,
00000000
00000000
00000000
00000000
00000000
00000000
00000000
00000000
,
00000000
00000000
00000000
00000000
00000000
00000000
00000000
00000000
,
00000000
00000000
00000000
00000000
00000000
00000000
00000000
00000000
,
00000000
00000000
00000000
00000000
00000000
00000000
00000000
00000000
,
00000000
00000000
00000000
00000000
00000000
00000000
00000000
00000000
,
00000000
00000000
00000000
00000000
00000000
00000000
00000000
00000000
,
00000000
00000000
00000000
00000000
00000000
00000000
00000000
00000000
,
00000000
00000000
00000000
00000000
00000000
00000000
00000000
00000000
,
00000000
00000000
00000000
00000000
00000000
00000000
00000000
00000000
,
00000000
00000000
00000000
00000000
00000000
00000000
00000000
00000000
,
00000000
00000000
00000000
00000000
00000000
00000000
00000000
00000000
,
00000000
00000000
00000000
00000000
00000000
00000000
00000000
00000000
,
00000000
00000000
00000000
00000000
00000000
00000000
00000000
00000000
,
00000000
00000000
00000000
00000000
00000000
00000000
00000000
00000000
,
00000000
00000000
00000000
00000000
00000000
00000000
00000000
00000000
,
00000000
00000000
00000000
00000000
00000000
00000000
00000000
00000000
,
00000000
00000000
00000000
00000000
00000000
00000000
00000000
00000000
,
00000000
00000000
00000000
00000000
00000000
00000000
00000000
00000000
,
00000000
00000000
00000000
00000000
00000000
00000000
00000000
00000000
,
00000000
00000000
00000000
00000000
00000000
00000000
00000000
00000000
,
00000000
00000000
00000000
00000000
00000000
00000000
00000000
00000000
,
00000000
00000000
00000000
00000000
00000000
00000000
00000000
00000000
,
00000000
00000000
00000000
00000000
00000000
00000000
00000000
00000000
,
00000000
00000000
00000000
00000000
00000000
00000000
00000000
00000000
,
00000000
00000000
00000000
00000000
00000000
00000000
00000000
00000000
,
00000000
00000000
00000000
00000000
00000000
00000000
00000000
00000000
,
00000000
00000000
00000000
00000000
00000000
00000000
00000000
00000000
,
00000000
00000000
00000000
00000000
00000000
00000000
00000000
00000000
,
00000000
00000000
00000000
00000000
00000000
00000000
00000000
00000000
,
00000000
00000000
00000000
00000000
00000000
00000000
00000000
00000000
,
00000000
00000000
00000000
00000000
00000000
00000000
00000000
00000000
,
00000000
00000000
00000000
00000000
00000000
00000000
00000000
00000000
,
00000000
00000000
00000000
00000000
00000000
00000000
00000000
00000000
,
00000000
00000000
00000000
00000000
00000000
00000000
00000000
00000000
,
00000000
00000000
00000000
00000000
00000000
00000000
00000000
00000000
,
00000000
00000000
00000000
00000000
00000000
00000000
00000000
00000000
,
00000000
00000000
00000000
00000000
00000000
00000000
00000000
00000000
,
00000000
00000000
00000000
00000000
00000000
00000000
00000000
00000000
,
00000000
00000000
00000000
00000000
00000000
00000000
00000000
00000000
,
00000000
00000000
00000000
00000000
00000000
00000000
00000000
00000000
,
00000000
00000000
00000000
00000000
00000000
00000000
00000000
00000000
,
00000000
00000000
00000000
00000000
00000000
00000000
00000000
00000000
,
00000000
00000000
00000000
00000000
00000000
00000000
00000000
00000000
,
;

//--------------- dance-double - ----------------
#NOTES:
     dance-double:
     :
     Hard:
     6:
     0,0,0,0,0:
00000000
00000000
00000000
00000000
00000000
00000000
00000000
00000000
,
10000000
00000000
10000000
00000000
00010000
00000000
00010000
00000000
,
01000000
00000000
10000000
00000000
00110000
00000000
00010000
00000000
,
00010000
00000000
00010000
00000000
00001000
00000000
00001000
00000000
,
00000100
00000000
00010000
00000000
00101000
00000000
00001000
00000000
,
00000010
00000010
00000010
00000000
00000100
00000000
00000100
00000000
,
00000000
00000000
00000101
00000000
00000101
00000000
00000000
00000000
,
00000100
00000100
00000100
00000000
00100000
00000000
00100000
00000000
,
00000000
00000000
00110000
00000000
00110000
00000000
00000000
00000000
,
00100000
00100000
00010000
00000000
00000000
00100000
00000000
00000000
,
10000000
01000000
00010000
00000000
10000000
00000000
00000000
00000000
,
00000100
00000100
00001000
00000000
00000000
00000100
00000000
00000000
,
00001000
00000000
00011000
00000000
00001000
00000000
00000000
00000000
,
00000010
00000000
00000100
00000000
00000010
00000100
00000000
00000000
,
00001000
00000000
00001010
00000000
00001010
00000000
00000000
00000000
,
00100000
00000000
00000100
00000000
00100000
00000100
00000000
00000000
,
00001000
00000000
00001100
00000000
00001100
00000000
00000000
00000000
,
10000000
01000000
00010000
00000000
00000000
01000000
00000000
00000000
,
00100000
00000000
10100000
00000000
00110000
00000000
00000000
00000000
,
00010000
00000100
00001000
00000000
00000000
00000100
00000000
00000000
,
00100000
00000000
00100000
00000000
00011000
00000000
00000000
00000000
,
00000011
00000000
00000001
00000000
00001100
00000000
00000000
00000000
,
00000011
00000000
00001100
00000000
00000011
00000000
00000000
00000000
,
00100100
00000000
00011000
00000000
00100100
00000000
00011000
00000000
,
00100000
00010000
00100000
00000000
00011000
00000000
00001000
00000000
,
00000000
00000000
00010000
00000000
01010000
00000000
01000000
00000000
,
01000000
00000000
10000000
00000000
00110000
00000000
00010000
00000000
,
00100100
00000000
00011000
00000000
00100100
00000000
00011000
00000000
,
00001000
00000100
00010000
00000000
00001100
00000000
00000100
00000000
,
00000010
00001000
00000010
00000000
00001001
00000000
00000001
00000000
,
00000100
00000001
00001000
00000000
00000011
00000000
00000001
00000000
,
00001000
00000000
00001000
00000000
00011000
00000000
00010000
00000000
,
00100000
00000000
00001000
00000000
00010100
00000000
00010000
00000000
,
10000000
00000000
00010000
00000000
11000000
00000000
01000000
00000000
,
00100000
00000000
00100000
00000000
10010000
00000000
10000000
00000000
,
00100000
00000000
00100000
00000000
00001100
00000000
00010100
00000000
,
00100000
00100000
00010000
00000000
00001100
00000000
00001000
00000000
,
00001000
00000100
00001000
00000000
00001001
00000000
00000100
00000000
,
00000010
00000001
00000010
00000000
00001000
00000000
00000001
00000000
,
00001000
00000000
00001000
00000000
00011000
00000000
00010000
00000000
,
00001000
00000000
00001000
00000000
00010100
00000000
00010000
00000000
,
00100000
00010000
00100000
00000000
11000000
00000000
01000000
00000000
,
00100000
10000000
00100000
00000000
11000000
00000000
01000000
00000000
,
00001000
00000100
00001000
00000000
00010000
00000000
00010000
00000000
,
00001000
00000100
00001000
00000000
00010000
00000000
00010000
00000000
,
00000010
00000001
00000010
00000000
00000100
00000000
00000100
00000000
,
00000101
00000000
00001001
00000000
00001010
00000000
00000000
00000000
,
00100000
00001000
00000100
00001000
00100000
00001000
00000100
00001000
,
00010000
00000000
00010000
00000000
00010100
00000000
00000100
00000000
,
00110000
00000000
00000000
00000000
10000000
10000000
10000000
00000000
,
01000000
01000000
10000000
10000000
00100000
00100000
00100000
00000000
,
00100000
00010000
00000100
00010000
00100000
00010000
00000100
00010000
,
00010000
00000000
00100000
00000000
00001000
00000000
00000100
00000000
,
00000011
00000000
00000100
00000000
00001000
00000000
00000100
00000000
,
00000100
00000100
00001000
00001000
00000010
00000010
00000010
00000000
,
00001000
00000100
00010000
00000000
00000000
00100000
00000000
00000000
,
00001000
00000100
00010000
00000000
00011000
00000000
00000000
00000000
,
00010000
01000000
10000000
00000000
00000000
01000000
00000000
00000000
,
10000000
00000000
00010000
00000000
10010000
00000000
00000000
00000000
,
00100000
00000000
00000100
00000000
00100000
00000100
00000000
00000000
,
00010000
00000000
00110000
00000000
00110000
00000000
00000000
00000000
,
00100000
00000000
00000100
00000000
00100000
00000100
00000000
00000000
,
00000001
00000000
00000101
00000000
00000101
00000000
00000000
00000000
,
00001000
00000100
00000001
00000000
00000000
00000100
00000000
00000000
,
00100000
00000000
00100100
00000000
00100000
00000000
00000000
00000000
,
00001000
00000100
00010000
00000000
00000000
00000100
00000000
00000000
,
00100000
00000000
00100000
00000000
10010000
00000000
00000000
00000000
,
10100000
00000000
10000000
00000000
01010000
00000000
00000000
00000000
,
00101000
00000000
00010100
00000000
00101000
00000000
00000000
00000000
,
00100100
00000000
00011000
00000000
00100100
00000000
00011000
00000000
,
00000010
00000000
00000010
00000000
00001001
00000000
00000001
00000000
,
00001000
00000000
00001000
00000000
00000101
00000000
00000100
00000000
,
00000100
00000000
00001000
00000000
00110000
00000000
00010000
00000000
,
00100100
00000000
00011000
00000000
00100100
00000000
00011000
00000000
,
00010000
00000000
00010000
00000000
10000000
00000000
01000000
00000000
,
00100000
00000000
00100000
00000000
10010000
00000000
10000000
00000000
,
00000100
00000000
00010000
00000000
00101000
00000000
00001000
00000000
,
00010000
00000000
00100000
00000000
00011000
00000000
00000100
00000000
,
00000010
00000000
00000001
00000000
00001100
00000000
00001000
00000000
,
00001000
00000000
00001000
00000000
00000101
00000000
00000100
00000000
,
00100000
00000000
00100000
00000000
00011000
00000000
00001000
00000000
,
00100000
00001000
00100000
00000000
00000100
00000000
00000100
00000000
,
00100000
00010000
00100000
00000000
01000000
00000000
10000000
00000000
,
10000000
01000000
00010000
00000000
10000000
00000000
01000000
00000000
,
00010000
00000100
00001000
00000000
00010000
00000000
00001000
00000000
,
00000000
00000000
00000000
00000000
00000000
00000000
00000000
00000000
,
00000000
00000000
00000000
00000000
00000000
00000000
00000000
00000000
,
00000000
00000000
00000000
00000000
00000000
00000000
00000000
00000000
,
00000000
00000000
00000000
00000000
00000000
00000000
00000000
00000000
,
00000000
00000000
00000000
00000000
00000000
00000000
00000000
00000000
,
00000000
00000000
00000000
00000000
00000000
00000000
00000000
00000000
,
00000000
00000000
00000000
00000000
00000000
00000000
00000000
00000000
,
00000000
00000000
00000000
00000000
00000000
00000000
00000000
00000000
,
00000000
00000000
00000000
00000000
00000000
00000000
00000000
00000000
,
00000000
00000000
00000000
00000000
00000000
00000000
00000000
00000000
,
00000000
00000000
00000000
00000000
00000000
00000000
00000000
00000000
,
00000000
00000000
00000000
00000000
00000000
00000000
00000000
00000000
,
00000000
00000000
00000000
00000000
00000000
00000000
00000000
00000000
,
00000000
00000000
00000000
00000000
00000000
00000000
00000000
00000000
,
00000000
00000000
00000000
00000000
00000000
00000000
00000000
00000000
,
00000000
00000000
00000000
00000000
00000000
00000000
00000000
00000000
,
00000000
00000000
00000000
00000000
00000000
00000000
00000000
00000000
,
00000000
00000000
00000000
00000000
00000000
00000000
00000000
00000000
,
00000000
00000000
00000000
00000000
00000000
00000000
00000000
00000000
,
00000000
00000000
00000000
00000000
00000000
00000000
00000000
00000000
,
00000000
00000000
00000000
00000000
00000000
00000000
00000000
00000000
,
00000000
00000000
00000000
00000000
00000000
00000000
00000000
00000000
,
00000000
00000000
00000000
00000000
00000000
00000000
00000000
00000000
,
00000000
00000000
00000000
00000000
00000000
00000000
00000000
00000000
,
00000000
00000000
00000000
00000000
00000000
00000000
00000000
00000000
,
00000000
00000000
00000000
00000000
00000000
00000000
00000000
00000000
,
00000000
00000000
00000000
00000000
00000000
00000000
00000000
00000000
,
00000000
00000000
00000000
00000000
00000000
00000000
00000000
00000000
,
00000000
00000000
00000000
00000000
00000000
00000000
00000000
00000000
,
00000000
00000000
00000000
00000000
00000000
00000000
00000000
00000000
,
00000000
00000000
00000000
00000000
00000000
00000000
00000000
00000000
,
00000000
00000000
00000000
00000000
00000000
00000000
00000000
00000000
,
00000000
00000000
00000000
00000000
00000000
00000000
00000000
00000000
,
00000000
00000000
00000000
00000000
00000000
00000000
00000000
00000000
,
00000000
00000000
00000000
00000000
00000000
00000000
00000000
00000000
,
00000000
00000000
00000000
00000000
00000000
00000000
00000000
00000000
,
00000000
00000000
00000000
00000000
00000000
00000000
00000000
00000000
,
00000000
00000000
00000000
00000000
00000000
00000000
00000000
00000000
,
00000000
00000000
00000000
00000000
00000000
00000000
00000000
00000000
,
00000000
00000000
00000000
00000000
00000000
00000000
00000000
00000000
,
00000000
00000000
00000000
00000000
00000000
00000000
00000000
00000000
,
00000000
00000000
00000000
00000000
00000000
00000000
00000000
00000000
,
00000000
00000000
00000000
00000000
00000000
00000000
00000000
00000000
,
00000000
00000000
00000000
00000000
00000000
00000000
00000000
00000000
,
00000000
00000000
00000000
00000000
00000000
00000000
00000000
00000000
,
00000000
00000000
00000000
00000000
00000000
00000000
00000000
00000000
,
00000000
00000000
00000000
00000000
00000000
00000000
00000000
00000000
,
00000000
00000000
00000000
00000000
00000000
00000000
00000000
00000000
,
00000000
00000000
00000000
00000000
00000000
00000000
00000000
00000000
,
00000000
00000000
00000000
00000000
00000000
00000000
00000000
00000000
,
00000000
00000000
00000000
00000000
00000000
00000000
00000000
00000000
,
00000000
00000000
00000000
00000000
00000000
00000000
00000000
00000000
,
00000000
00000000
00000000
00000000
00000000
00000000
00000000
00000000
,
00000000
00000000
00000000
00000000
00000000
00000000
00000000
00000000
,
00000000
00000000
00000000
00000000
00000000
00000000
00000000
00000000
,
00000000
00000000
00000000
00000000
00000000
00000000
00000000
00000000
,
00000000
00000000
00000000
00000000
00000000
00000000
00000000
00000000
,
00000000
00000000
00000000
00000000
00000000
00000000
00000000
00000000
,
00000000
00000000
00000000
00000000
00000000
00000000
00000000
00000000
,
00000000
00000000
00000000
00000000
00000000
00000000
00000000
00000000
,
00000000
00000000
00000000
00000000
00000000
00000000
00000000
00000000
,
00000000
00000000
00000000
00000000
00000000
00000000
00000000
00000000
,
00000000
00000000
00000000
00000000
00000000
00000000
00000000
00000000
,
00000000
00000000
00000000
00000000
00000000
00000000
00000000
00000000
,
00000000
00000000
00000000
00000000
00000000
00000000
00000000
00000000
,
00000000
00000000
00000000
00000000
00000000
00000000
00000000
00000000
,
00000000
00000000
00000000
00000000
00000000
00000000
00000000
00000000
,
00000000
00000000
00000000
00000000
00000000
00000000
00000000
00000000
,
00000000
00000000
00000000
00000000
00000000
00000000
00000000
00000000
,
00000000
00000000
00000000
00000000
00000000
00000000
00000000
00000000
,
00000000
00000000
00000000
00000000
00000000
00000000
00000000
00000000
,
00000000
00000000
00000000
00000000
00000000
00000000
00000000
00000000
,
00000000
00000000
00000000
00000000
00000000
00000000
00000000
00000000
,
00000000
00000000
00000000
00000000
00000000
00000000
00000000
00000000
,
00000000
00000000
00000000
00000000
00000000
00000000
00000000
00000000
,
00000000
00000000
00000000
00000000
00000000
00000000
00000000
00000000
,
00000000
00000000
00000000
00000000
00000000
00000000
00000000
00000000
,
00000000
00000000
00000000
00000000
00000000
00000000
00000000
00000000
,
00000000
00000000
00000000
00000000
00000000
00000000
00000000
00000000
,
00000000
00000000
00000000
00000000
00000000
00000000
00000000
00000000
,
00000000
00000000
00000000
00000000
00000000
00000000
00000000
00000000
,
00000000
00000000
00000000
00000000
00000000
00000000
00000000
00000000
,
00000000
00000000
00000000
00000000
00000000
00000000
00000000
00000000
,
00000000
00000000
00000000
00000000
00000000
00000000
00000000
00000000
,
00000000
00000000
00000000
00000000
00000000
00000000
00000000
00000000
,
00000000
00000000
00000000
00000000
00000000
00000000
00000000
00000000
,
00000000
00000000
00000000
00000000
00000000
00000000
00000000
00000000
,
00000000
00000000
00000000
00000000
00000000
00000000
00000000
00000000
,
00000000
00000000
00000000
00000000
00000000
00000000
00000000
00000000
,
00000000
00000000
00000000
00000000
00000000
00000000
00000000
00000000
,
00000000
00000000
00000000
00000000
00000000
00000000
00000000
00000000
,
00000000
00000000
00000000
00000000
00000000
00000000
00000000
00000000
,
00000000
00000000
00000000
00000000
00000000
00000000
00000000
00000000
,
00000000
00000000
00000000
00000000
00000000
00000000
00000000
00000000
,
00000000
00000000
00000000
00000000
00000000
00000000
00000000
00000000
,
00000000
00000000
00000000
00000000
00000000
00000000
00000000
00000000
,
00000000
00000000
00000000
00000000
00000000
00000000
00000000
00000000
,
00000000
00000000
00000000
00000000
00000000
00000000
00000000
00000000
,
00000000
00000000
00000000
00000000
00000000
00000000
00000000
00000000
,
00000000
00000000
00000000
00000000
00000000
00000000
00000000
00000000
,
00000000
00000000
00000000
00000000
00000000
00000000
00000000
00000000
,
00000000
00000000
00000000
00000000
00000000
00000000
00000000
00000000
,
00000000
00000000
00000000
00000000
00000000
00000000
00000000
00000000
,
00000000
00000000
00000000
00000000
00000000
00000000
00000000
00000000
,
00000000
00000000
00000000
00000000
00000000
00000000
00000000
00000000
,
00000000
00000000
00000000
00000000
00000000
00000000
00000000
00000000
,
00000000
00000000
00000000
00000000
00000000
00000000
00000000
00000000
,
00000000
00000000
00000000
00000000
00000000
00000000
00000000
00000000
,
00000000
00000000
00000000
00000000
00000000
00000000
00000000
00000000
,
00000000
00000000
00000000
00000000
00000000
00000000
00000000
00000000
,
00000000
00000000
00000000
00000000
00000000
00000000
00000000
00000000
,
00000000
00000000
00000000
00000000
00000000
00000000
00000000
00000000
,
00000000
00000000
00000000
00000000
00000000
00000000
00000000
00000000
,
00000000
00000000
00000000
00000000
00000000
00000000
00000000
00000000
,
00000000
00000000
00000000
00000000
00000000
00000000
00000000
00000000
,
;

//--------------- dance-solo - ----------------
#NOTES:
     dance-solo:
     :
     Easy:
     4:
     0,0,0,0,0:
000000
000000
000000
000000
000000
000000
000000
000000
,
000010
000000
000010
000000
000001
000000
000001
000000
,
001000
000000
100000
000000
010000
000000
000001
000000
,
000001
000000
000001
000000
100000
000000
100000
000000
,
001000
000000
000001
000000
000100
000000
100000
000000
,
000000
000000
000000
000000
000000
000000
000000
000000
,
000000
000000
101000
000000
101000
000000
000000
000000
,
001000
000000
001000
000000
000100
000000
000100
000000
,
000000
000000
000101
000000
000101
000000
000000
000000
,
000000
000000
000100
000000
000000
000100
000000
000000
,
100000
000000
000001
000000
100000
000000
000000
000000
,
000000
000000
001000
000000
000000
001000
000000
000000
,
100000
000000
000001
000000
100000
000000
000000
000000
,
000000
000000
000000
000000
000000
000000
000000
000000
,
000001
000000
010001
000000
010001
000000
000000
000000
,
000100
000000
001000
000000
000100
001000
000000
000000
,
100000
000000
101000
000000
101000
000000
000000
000000
,
000010
000000
000010
000000
000000
001000
000000
000000
,
010000
000000
010000
000000
010000
000000
000000
000000
,
000001
000000
000001
000000
000000
001000
000000
000000
,
000100
000000
000100
000000
100001
000000
000000
000000
,
000000
000000
000000
000000
000000
000000
000000
000000
,
110000
000000
001001
000000
110000
000000
000000
000000
,
001100
000000
100001
000000
001100
000000
100001
000000
,
000000
000000
000100
000000
000000
000000
100000
000000
,
000000
000000
000001
000000
000000
000000
001000
000000
,
001000
000000
100000
000000
010000
000000
000001
000000
,
001100
000000
100001
000000
001100
000000
100001
000000
,
000000
000000
000001
000000
000000
000000
001000
000000
,
000000
000000
000000
000000
000000
000000
000000
000000
,
001000
000000
000001
000000
010000
000000
100000
000000
,
100000
000000
100000
000000
000001
000000
000001
000000
,
000100
000000
100000
000000
001000
000000
000001
000000
,
000000
000000
000001
000000
000000
000000
001000
000000
,
000000
000000
010000
000000
000000
000000
100000
000000
,
000100
000000
000100
000000
001000
000000
001000
000000
,
000100
000000
000001
000000
001000
000000
100000
000000
,
000000
000000
000000
000000
000000
000000
000000
000000
,
000000
000000
010000
000000
000001
000000
100000
000000
,
000000
000000
100000
000000
000000
000000
000001
000000
,
000000
000000
100000
000000
000000
000000
000001
000000
,
000000
000000
000100
000000
000000
000000
001000
000000
,
000000
000000
010000
000000
000000
000000
001000
000000
,
100000
000000
100000
000000
000001
000000
000001
000000
,
100000
000000
100000
000000
000001
000000
000001
000000
,
000000
000000
000000
000000
000000
000000
000000
000000
,
001000
000000
100000
000000
010000
000000
000000
000000
,
000100
100000
001000
100000
000100
100000
001000
100000
,
000001
000000
000001
000000
001000
000000
001000
000000
,
000101
000000
000000
000000
000010
000010
000010
000000
,
001000
001000
100000
100000
010000
010000
010000
000000
,
000100
000001
001000
000001
000100
000001
001000
000001
,
100000
000000
100000
000000
001000
000000
001000
000000
,
000000
000000
000000
000000
000000
000000
000000
000000
,
001000
001000
000001
000001
010000
010000
010000
000000
,
000000
000000
000100
000000
000000
000100
000000
000000
,
100000
000000
000001
000000
100000
000000
000000
000000
,
000000
000000
001000
000000
000000
001000
000000
000000
,
100000
000000
000001
000000
100000
000000
000000
000000
,
000100
000000
001000
000000
000100
001000
000000
000000
,
000001
000000
000101
000000
000101
000000
000000
000000
,
000100
000000
001000
000000
000100
001000
000000
000000
,
100000
000000
101000
000000
101000
000000
000000
000000
,
000000
000000
000000
000000
000000
000000
000000
000000
,
000100
000000
000100
000000
000100
000000
000000
000000
,
000001
000000
000001
000000
000000
001000
000000
000000
,
010000
000000
010000
000000
100001
000000
000000
000000
,
000110
000000
000000
000000
001001
000000
000000
000000
,
100100
000000
001001
000000
100100
000000
000000
000000
,
001100
000000
100001
000000
001100
000000
100001
000000
,
000000
000000
010000
000000
000000
000000
100000
000000
,
000000
000000
000000
000000
000000
000000
000000
000000
,
001000
000000
100000
000000
000100
000000
000001
000000
,
001100
000000
100001
000000
001100
000000
100001
000000
,
000000
000000
000001
000000
000000
000000
001000
000000
,
000000
000000
000100
000000
000000
000000
000010
000000
,
001000
000000
000001
000000
000100
000000
100000
000000
,
100000
000000
100000
000000
000001
000000
000001
000000
,
010000
000000
100000
000000
001000
000000
000001
000000
,
000000
000000
000000
000000
000000
000000
000000
000000
,
000000
000000
000100
000000
000000
000000
100000
000000
,
000100
000000
000100
000000
001000
000000
001000
000000
,
010000
000000
000001
000000
001000
000000
100000
000000
,
000000
000000
000001
000000
000010
000000
001000
000000
,
000000
000000
000100
000000
000001
000000
100000
000000
,
000000
000000
000000
000000
000000
000000
000000
000000
,
000000
000000
000000
000000
000000
000000
000000
000000
,
000000
000000
000000
000000
000000
000000
000000
000000
,
000000
000000
000000
000000
000000
000000
000000
000000
,
000000
000000
000000
000000
000000
000000
000000
000000
,
000000
000000
000000
000000
000000
000000
000000
000000
,
000000
000000
000000
000000
000000
000000
000000
000000
,
000000
000000
000000
000000
000000
000000
000000
000000
,
000000
000000
000000
000000
000000
000000
000000
000000
,
000000
000000
000000
000000
000000
000000
000000
000000
,
000000
000000
000000
000000
000000
000000
000000
000000
,
000000
000000
000000
000000
000000
000000
000000
000000
,
000000
000000
000000
000000
000000
000000
000000
000000
,
000000
000000
000000
000000
000000
000000
000000
000000
,
000000
000000
000000
000000
000000
000000
000000
000000
,
000000
000000
000000
000000
000000
000000
000000
000000
,
000000
000000
000000
000000
000000
000000
000000
000000
,
000000
000000
000000
000000
000000
000000
000000
000000
,
000000
000000
000000
000000
000000
000000
000000
000000
,
000000
000000
000000
000000
000000
000000
000000
000000
,
000000
000000
000000
000000
000000
000000
000000
000000
,
000000
000000
000000
000000
000000
000000
000000
000000
,
000000
000000
000000
000000
000000
000000
000000
000000
,
000000
000000
000000
000000
000000
000000
000000
000000
,
000000
000000
000000
000000
000000
000000
000000
000000
,
000000
000000
000000
000000
000000
000000
000000
000000
,
000000
000000
000000
000000
000000
000000
000000
000000
,
000000
000000
000000
000000
000000
000000
000000
000000
,
000000
000000
000000
000000
000000
000000
000000
000000
,
000000
000000
000000
000000
000000
000000
000000
000000
,
000000
000000
000000
000000
000000
000000
000000
000000
,
000000
000000
000000
000000
000000
000000
000000
000000
,
000000
000000
000000
000000
000000
000000
000000
000000
,
000000
000000
000000
000000
000000
000000
000000
000000
,
000000
000000
000000
000000
000000
000000
000000
000000
,
000000
000000
000000
000000
000000
000000
000000
000000
,
000000
000000
000000
000000
000000
000000
000000
000000
,
000000
000000
000000
000000
000000
000000
000000
000000
,
000000
000000
000000
000000
000000
000000
000000
000000
,
000000
000000
000000
000000
000000
000000
000000
000000
,
000000
000000
000000
000000
000000
000000
000000
000000
,
000000
000000
000000
000000
000000
000000
000000
000000
,
000000
000000
000000
000000
000000
000000
000000
000000
,
000000
000000
000000
000000
000000
000000
000000
000000
,
000000
000000
000000
000000
000000
000000
000000
000000
,
000000
000000
000000
000000
000000
000000
000000
000000
,
000000
000000
000000
000000
000000
000000
000000
000000
,
000000
000000
000000
000000
000000
000000
000000
000000
,
000000
000000
000000
000000
000000
000000
000000
000000
,
000000
000000
000000
000000
000000
000000
000000
000000
,
000000
000000
000000
000000
000000
000000
000000
000000
,
000000
000000
000000
000000
000000
000000
000000
000000
,
000000
000000
000000
000000
000000
000000
000000
000000
,
000000
000000
000000
000000
000000
000000
000000
000000
,
000000
000000
000000
000000
000000
000000
000000
000000
,
000000
000000
000000
000000
000000
000000
000000
000000
,
000000
000000
000000
000000
000000
000000
000000
000000
,
000000
000000
000000
000000
000000
000000
000000
000000
,
000000
000000
000000
000000
000000
000000
000000
000000
,
000000
000000
000000
000000
000000
000000
000000
000000
,
000000
000000
000000
000000
000000
000000
000000
000000
,
000000
000000
000000
000000
000000
000000
000000
000000
,
000000
000000
000000
000000
000000
000000
000000
000000
,
000000
000000
000000
000000
000000
000000
000000
000000
,
000000
000000
000000
000000
000000
000000
000000
000000
,
000000
000000
000000
000000
000000
000000
000000
000000
,
000000
000000
000000
000000
000000
000000
000000
000000
,
000000
000000
000000
000000
000000
000000
000000
000000
,
000000
000000
000000
000000
000000
000000
000000
000000
,
000000
000000
000000
000000
000000
000000
000000
000000
,
000000
000000
000000
000000
000000
000000
000000
000000
,
000000
000000
000000
000000
000000
000000
000000
000000
,
000000
000000
000000
000000
000000
000000
000000
000000
,
000000
000000
000000
000000
000000
000000
000000
000000
,
000000
000000
000000
000000
000000
000000
000000
000000
,
000000
000000
000000
000000
000000
000000
000000
000000
,
000000
000000
000000
000000
000000
000000
000000
000000
,
000000
000000
000000
000000
000000
000000
000000
000000
,
000000
000000
000000
000000
000000
000000
000000
000000
,
000000
000000
000000
000000
000000
000000
000000
000000
,
000000
000000
000000
000000
000000
000000
000000
000000
,
000000
000000
000000
000000
000000
000000
000000
000000
,
000000
000000
000000
000000
000000
000000
000000
000000
,
000000
000000
000000
000000
000000
000000
000000
000000
,
000000
000000
000000
000000
000000
000000
000000
000000
,
000000
000000
000000
000000
000000
000000
000000
000000
,
000000
000000
000000
000000
000000
000000
000000
000000
,
000000
000000
000000
000000
000000
000000
000000
000000
,
000000
000000
000000
000000
000000
000000
000000
000000
,
000000
000000
000000
000000
000000
000000
000000
000000
,
000000
000000
000000
000000
000000
000000
000000
000000
,
000000
000000
000000
000000
000000
000000
000000
000000
,
000000
000000
000000
000000
000000
000000
000000
000000
,
000000
000000
000000
000000
000000
000000
000000
000000
,
000000
000000
000000
000000
000000
000000
000000
000000
,
000000
000000
000000
000000
000000
000000
000000
000000
,
000000
000000
000000
000000
000000
000000
000000
000000
,
000000
000000
000000
000000
000000
000000
000000
000000
,
000000
000000
000000
000000
000000
000000
000000
000000
,
000000
000000
000000
000000
000000
000000
000000
000000
,
000000
000000
000000
000000
000000
000000
000000
000000
,
000000
000000
000000
000000
000000
000000
000000
000000
,
000000
000000
000000
000000
000000
000000
000000
000000
,
000000
000000
000000
000000
000000
000000
000000
000000
,
000000
000000
000000
000000
000000
000000
000000
000000
,
000000
000000
000000
000000
000000
000000
000000
000000
,
000000
000000
000000
000000
000000
000000
000000
000000
,
000000
000000
000000
000000
000000
000000
000000
000000
,
000000
000000
000000
000000
000000
000000
000000
000000
,
000000
000000
000000
000000
000000
000000
000000
000000
,
000000
000000
000000
000000
000000
000000
000000
000000
,
000000
000000
000000
000000
000000
000000
000000
000000
,
000000
000000
000000
000000
000000
000000
000000
000000
,
000000
000000
000000
000000
000000
000000
000000
000000
,
000000
000000
000000
000000
000000
000000
000000
000000
,
;

//--------------- dance-solo - ----------------
#NOTES:
     dance-solo:
     :
     Medium:
     5:
     0,0,0,0,0:
000000
000000
000000
000000
000000
000000
000000
000000
,
000010
000000
000010
000000
000001
000000
000001
000000
,
001000
000000
100000
000000
010000
000000
000001
000000
,
000001
000000
000001
000000
100000
000000
100000
000000
,
001000
000000
000001
000000
000100
000000
100000
000000
,
000000
000000
000000
000000
000000
000000
000000
000000
,
000000
000000
101000
000000
101000
000000
000000
000000
,
001000
001000
001000
000000
000100
000000
000100
000000
,
000000
000000
000101
000000
000101
000000
000000
000000
,
000100
000100
000001
000000
000000
000100
000000
000000
,
100000
001000
000001
000000
100000
000000
000000
000000
,
001000
001000
100000
000000
000000
001000
000000
000000
,
100000
000000
000001
000000
100000
000000
000000
000000
,
000000
000000
000000
000000
000000
000000
000000
000000
,
000001
000000
010001
000000
010001
000000
000000
000000
,
000100
000000
001000
000000
000100
001000
000000
000000
,
100000
000000
101000
000000
101000
000000
000000
000000
,
000010
001000
000001
000000
000000
001000
000000
000000
,
010000
000000
010000
000000
010000
000000
000000
000000
,
000001
001000
100000
000000
000000
001000
000000
000000
,
000100
000000
000100
000000
100001
000000
000000
000000
,
000000
000000
000000
000000
000000
000000
000000
000000
,
110000
000000
001001
000000
110000
000000
000000
000000
,
001100
000000
100001
000000
001100
000000
100001
000000
,
000100
000001
000100
000000
000001
000000
100000
000000
,
000000
000000
000001
000000
000001
000000
001000
000000
,
001000
000000
100000
000000
010000
000000
000001
000000
,
001100
000000
100001
000000
001100
000000
100001
000000
,
100000
001000
000001
000000
100000
000000
001000
000000
,
000000
000000
000000
000000
000000
000000
000000
000000
,
001000
100000
000001
000000
010000
000000
100000
000000
,
100000
000000
100000
000000
000001
000000
000001
000000
,
000100
000000
100000
000000
001000
000000
000001
000000
,
000010
000000
000001
000000
000010
000000
001000
000000
,
010000
000000
010000
000000
000001
000000
100000
000000
,
000100
000000
000100
000000
001000
000000
001000
000000
,
000100
000100
000001
000000
001000
000000
100000
000000
,
000000
000000
000000
000000
000000
000000
000000
000000
,
010000
100000
010000
000000
000001
000000
100000
000000
,
100000
000000
100000
000000
000001
000000
000001
000000
,
100000
000000
100000
000000
001000
000000
000001
000000
,
000100
000001
000100
000000
000010
000000
001000
000000
,
010000
100000
010000
000000
100000
000000
001000
000000
,
100000
001000
100000
000000
000001
000000
000001
000000
,
100000
001000
100000
000000
000001
000000
000001
000000
,
000000
000000
000000
000000
000000
000000
000000
000000
,
001000
000000
100000
000000
010000
000000
000000
000000
,
000100
100000
001000
100000
000100
100000
001000
100000
,
000001
000000
000001
000000
001000
000000
001000
000000
,
000101
000000
000000
000000
000010
000010
000010
000000
,
001000
001000
100000
100000
010000
010000
010000
000000
,
000100
000001
001000
000001
000100
000001
001000
000001
,
100000
000000
100000
000000
001000
000000
001000
000000
,
000000
000000
000000
000000
000000
000000
000000
000000
,
001000
001000
000001
000001
010000
010000
010000
000000
,
100000
001000
000001
000000
000000
000100
000000
000000
,
100000
000000
000001
000000
100000
000000
000000
000000
,
000001
001000
000010
000000
000000
001000
000000
000000
,
100000
000000
000001
000000
100000
000000
000000
000000
,
000100
000000
001000
000000
000100
001000
000000
000000
,
000001
000000
000101
000000
000101
000000
000000
000000
,
000100
000000
001000
000000
000100
001000
000000
000000
,
100000
000000
101000
000000
101000
000000
000000
000000
,
000000
000000
000000
000000
000000
000000
000000
000000
,
000100
000000
000100
000000
000100
000000
000000
000000
,
100000
001000
000001
000000
000000
001000
000000
000000
,
010000
000000
010000
000000
100001
000000
000000
000000
,
000110
000000
000000
000000
001001
000000
000000
000000
,
100100
000000
001001
000000
100100
000000
000000
000000
,
001100
000000
100001
000000
001100
000000
100001
000000
,
010000
000000
010000
000000
000001
000000
100000
000000
,
000000
000000
000000
000000
000000
000000
000000
000000
,
001000
000000
100000
000000
000100
000000
000001
000000
,
001100
000000
100001
000000
001100
000000
100001
000000
,
000000
000000
000001
000000
100000
000000
001000
000000
,
000000
000000
000100
000000
000001
000000
000010
000000
,
001000
000000
000001
000000
000100
000000
100000
000000
,
100000
000000
100000
000000
000001
000000
000001
000000
,
010000
000000
100000
000000
001000
000000
000001
000000
,
000000
000000
000000
000000
000000
000000
000000
000000
,
000000
000000
000100
000000
000001
000000
100000
000000
,
000100
100000
000100
000000
001000
000000
001000
000000
,
010000
000001
010000
000000
001000
000000
100000
000000
,
000010
001000
000001
000000
000010
000000
001000
000000
,
000001
001000
100000
000000
000001
000000
100000
000000
,
000000
000000
000000
000000
000000
000000
000000
000000
,
000000
000000
000000
000000
000000
000000
000000
000000
,
000000
000000
000000
000000
000000
000000
000000
000000
,
000000
000000
000000
000000
000000
000000
000000
000000
,
000000
000000
000000
000000
000000
000000
000000
000000
,
000000
000000
000000
000000
000000
000000
000000
000000
,
000000
000000
000000
000000
000000
000000
000000
000000
,
000000
000000
000000
000000
000000
000000
000000
000000
,
000000
000000
000000
000000
000000
000000
000000
000000
,
000000
000000
000000
000000
000000
000000
000000
000000
,
000000
000000
000000
000000
000000
000000
000000
000000
,
000000
000000
000000
000000
000000
000000
000000
000000
,
000000
000000
000000
000000
000000
000000
000000
000000
,
000000
000000
000000
000000
000000
000000
000000
000000
,
000000
000000
000000
000000
000000
000000
000000
000000
,
000000
000000
000000
000000
000000
000000
000000
000000
,
000000
000000
000000
000000
000000
000000
000000
000000
,
000000
000000
000000
000000
000000
000000
000000
000000
,
000000
000000
000000
000000
000000
000000
000000
000000
,
000000
000000
000000
000000
000000
000000
000000
000000
,
000000
000000
000000
000000
000000
000000
000000
000000
,
000000
000000
000000
000000
000000
000000
000000
000000
,
000000
000000
000000
000000
000000
000000
000000
000000
,
000000
000000
000000
000000
000000
000000
000000
000000
,
000000
000000
000000
000000
000000
000000
000000
000000
,
000000
000000
000000
000000
000000
000000
000000
000000
,
000000
000000
000000
000000
000000
000000
000000
000000
,
000000
000000
000000
000000
000000
000000
000000
000000
,
000000
000000
000000
000000
000000
000000
000000
000000
,
000000
000000
000000
000000
000000
000000
000000
000000
,
000000
000000
000000
000000
000000
000000
000000
000000
,
000000
000000
000000
000000
000000
000000
000000
000000
,
000000
000000
000000
000000
000000
000000
000000
000000
,
000000
000000
000000
000000
000000
000000
000000
000000
,
000000
000000
000000
000000
000000
000000
000000
000000
,
000000
000000
000000
000000
000000
000000
000000
000000
,
000000
000000
000000
000000
000000
000000
000000
000000
,
000000
000000
000000
000000
000000
000000
000000
000000
,
000000
000000
000000
000000
000000
000000
000000
000000
,
000000
000000
000000
000000
000000
000000
000000
000000
,
000000
000000
000000
000000
000000
000000
000000
000000
,
000000
000000
000000
000000
000000
000000
000000
000000
,
000000
000000
000000
000000
000000
000000
000000
000000
,
000000
000000
000000
000000
000000
000000
000000
000000
,
000000
000000
000000
000000
000000
000000
000000
000000
,
000000
000000
000000
000000
000000
000000
000000
000000
,
000000
000000
000000
000000
000000
000000
000000
000000
,
000000
000000
000000
000000
000000
000000
000000
000000
,
000000
000000
000000
000000
000000
000000
000000
000000
,
000000
000000
000000
000000
000000
000000
000000
000000
,
000000
000000
000000
000000
000000
000000
000000
000000
,
000000
000000
000000
000000
000000
000000
000000
000000
,
000000
000000
000000
000000
000000
000000
000000
000000
,
000000
000000
000000
000000
000000
000000
000000
000000
,
000000
000000
000000
000000
000000
000000
000000
000000
,
000000
000000
000000
000000
000000
000000
000000
000000
,
000000
000000
000000
000000
000000
000000
000000
000000
,
000000
000000
000000
000000
000000
000000
000000
000000
,
000000
000000
000000
000000
000000
000000
000000
000000
,
000000
000000
000000
000000
000000
000000
000000
000000
,
000000
000000
000000
000000
000000
000000
000000
000000
,
000000
000000
000000
000000
000000
000000
000000
000000
,
000000
000000
000000
000000
000000
000000
000000
000000
,
000000
000000
000000
000000
000000
000000
000000
000000
,
000000
000000
000000
000000
000000
000000
000000
000000
,
000000
000000
000000
000000
000000
000000
000000
000000
,
000000
000000
000000
000000
000000
000000
000000
000000
,
000000
000000
000000
000000
000000
000000
000000
000000
,
000000
000000
000000
000000
000000
000000
000000
000000
,
000000
000000
000000
000000
000000
000000
000000
000000
,
000000
000000
000000
000000
000000
000000
000000
000000
,
000000
000000
000000
000000
000000
000000
000000
000000
,
000000
000000
000000
000000
000000
000000
000000
000000
,
000000
000000
000000
000000
000000
000000
000000
000000
,
000000
000000
000000
000000
000000
000000
000000
000000
,
000000
000000
000000
000000
000000
000000
000000
000000
,
000000
000000
000000
000000
000000
000000
000000
000000
,
000000
000000
000000
000000
000000
000000
000000
000000
,
000000
000000
000000
000000
000000
000000
000000
000000
,
000000
000000
000000
000000
000000
000000
000000
000000
,
000000
000000
000000
000000
000000
000000
000000
000000
,
000000
000000
000000
000000
000000
000000
000000
000000
,
000000
000000
000000
000000
000000
000000
000000
000000
,
000000
000000
000000
000000
000000
000000
000000
000000
,
000000
000000
000000
000000
000000
000000
000000
000000
,
000000
000000
000000
000000
000000
000000
000000
000000
,
000000
000000
000000
000000
000000
000000
000000
000000
,
000000
000000
000000
000000
000000
000000
000000
000000
,
000000
000000
000000
000000
000000
000000
000000
000000
,
000000
000000
000000
000000
000000
000000
000000
000000
,
000000
000000
000000
000000
000000
000000
000000
000000
,
000000
000000
000000
000000
000000
000000
000000
000000
,
000000
000000
000000
000000
000000
000000
000000
000000
,
000000
000000
000000
000000
000000
000000
000000
000000
,
000000
000000
000000
000000
000000
000000
000000
000000
,
000000
000000
000000
000000
000000
000000
000000
000000
,
000000
000000
000000
000000
000000
000000
000000
000000
,
000000
000000
000000
000000
000000
000000
000000
000000
,
000000
000000
000000
000000
000000
000000
000000
000000
,
000000
000000
000000
000000
000000
000000
000000
000000
,
000000
000000
000000
000000
000000
000000
000000
000000
,
000000
000000
000000
000000
000000
000000
000000
000000
,
000000
000000
000000
000000
000000
000000
000000
000000
,
000000
000000
000000
000000
000000
000000
000000
000000
,
000000
000000
000000
000000
000000
000000
000000
000000
,
000000
000000
000000
000000
000000
000000
000000
000000
,
000000
000000
000000
000000
000000
000000
000000
000000
,
000000
000000
000000
000000
000000
000000
000000
000000
,
000000
000000
000000
000000
000000
000000
000000
000000
,
000000
000000
000000
000000
000000
000000
000000
000000
,
000000
000000
000000
000000
000000
000000
000000
000000
,
000000
000000
000000
000000
000000
000000
000000
000000
,
000000
000000
000000
000000
000000
000000
000000
000000
,
000000
000000
000000
000000
000000
000000
000000
000000
,
000000
000000
000000
000000
000000
000000
000000
000000
,
;

//--------------- dance-solo - ----------------
#NOTES:
     dance-solo:
     :
     Hard:
     6:
     0,0,0,0,0:
000000
000000
000000
000000
000000
000000
000000
000000
,
000010
000000
000010
000000
000001
000000
000001
000000
,
001000
000000
100000
000000
010001
000000
000001
000000
,
000001
000000
000001
000000
100000
000000
100000
000000
,
001000
000000
000001
000000
100100
000000
100000
000000
,
000000
000000
000000
000000
000000
000000
000000
000000
,
000000
000000
101000
000000
101000
000000
000000
000000
,
001000
001000
001000
000000
000100
000000
000100
000000
,
000000
000000
000101
000000
000101
000000
000000
000000
,
000100
000100
000001
000000
000000
000100
000000
000000
,
100000
001000
000001
000000
100000
000000
000000
000000
,
001000
001000
100000
000000
000000
001000
000000
000000
,
100000
000000
100001
000000
100000
000000
000000
000000
,
000000
000000
000000
000000
000000
000000
000000
000000
,
000001
000000
010001
000000
010001
000000
000000
000000
,
000100
000000
001000
000000
000100
001000
000000
000000
,
100000
000000
101000
000000
101000
000000
000000
000000
,
000010
001000
000001
000000
000000
001000
000000
000000
,
010000
000000
110000
000000
010001
000000
000000
000000
,
000001
001000
100000
000000
000000
001000
000000
000000
,
000100
000000
000100
000000
100001
000000
000000
000000
,
000000
000000
000000
000000
000000
000000
000000
000000
,
110000
000000
001001
000000
110000
000000
000000
000000
,
001100
000000
100001
000000
001100
000000
100001
000000
,
000100
000001
000100
000000
100001
000000
100000
000000
,
000000
000000
000001
000000
001001
000000
001000
000000
,
001000
000000
100000
000000
010001
000000
000001
000000
,
001100
000000
100001
000000
001100
000000
100001
000000
,
100000
001000
000001
000000
101000
000000
001000
000000
,
000000
000000
000000
000000
000000
000000
000000
000000
,
001000
100000
000001
000000
110000
000000
100000
000000
,
100000
000000
100000
000000
100001
000000
000001
000000
,
000100
000000
100000
000000
001001
000000
000001
000000
,
000010
000000
000001
000000
001010
000000
001000
000000
,
010000
000000
010000
000000
100001
000000
100000
000000
,
000100
000000
000100
000000
101000
000000
001001
000000
,
000100
000100
000001
000000
101000
000000
100000
000000
,
000000
000000
000000
000000
000000
000000
000000
000000
,
010000
100000
010000
000000
000001
000000
100000
000000
,
100000
000000
100000
000000
100001
000000
000001
000000
,
100000
000000
100000
000000
001001
000000
000001
000000
,
000100
000001
000100
000000
001010
000000
001000
000000
,
010000
100000
010000
000000
101000
000000
001000
000000
,
100000
001000
100000
000000
000001
000000
000001
000000
,
100000
001000
100000
000000
000001
000000
000001
000000
,
000000
000000
000000
000000
000000
000000
000000
000000
,
101000
000000
100001
000000
010001
000000
000000
000000
,
000100
100000
001000
100000
000100
100000
001000
100000
,
000001
000000
000001
000000
001001
000000
001000
000000
,
000101
000000
000000
000000
000010
000010
000010
000000
,
001000
001000
100000
100000
010000
010000
010000
000000
,
000100
000001
001000
000001
000100
000001
001000
000001
,
000001
000000
000100
000000
100000
000000
001000
000000
,
000000
000000
000000
000000
000000
000000
000000
000000
,
001000
001000
000001
000001
010000
010000
010000
000000
,
100000
001000
000001
000000
000000
000100
000000
000000
,
100000
001000
000001
000000
100001
000000
000000
000000
,
000001
001000
000010
000000
000000
001000
000000
000000
,
100000
000000
000001
000000
100001
000000
000000
000000
,
000100
000000
001000
000000
000100
001000
000000
000000
,
000001
000000
000101
000000
000101
000000
000000
000000
,
000100
000000
001000
000000
000100
001000
000000
000000
,
100000
000000
101000
000000
101000
000000
000000
000000
,
000000
000000
000000
000000
000000
000000
000000
000000
,
000100
000000
001100
000000
000100
000000
000000
000000
,
100000
001000
000001
000000
000000
001000
000000
000000
,
010000
000000
010000
000000
100001
000000
000000
000000
,
000110
000000
000010
000000
001001
000000
000000
000000
,
100100
000000
001001
000000
100100
000000
000000
000000
,
001100
000000
100001
000000
001100
000000
100001
000000
,
010000
000000
010000
000000
100001
000000
100000
000000
,
000000
000000
000000
000000
000000
000000
000000
000000
,
001000
000000
100000
000000
000101
000000
000001
000000
,
001100
000000
100001
000000
001100
000000
100001
000000
,
000001
000000
000001
000000
100000
000000
001000
000000
,
000100
000000
000100
000000
000011
000000
000010
000000
,
001000
000000
000001
000000
100100
000000
100000
000000
,
000001
000000
000100
000000
100001
000000
001000
000000
,
010000
000000
100000
000000
001001
000000
000001
000000
,
000000
000000
000000
000000
000000
000000
000000
000000
,
000100
000000
000100
000000
100001
000000
100000
000000
,
000100
100000
000100
000000
001000
000000
001000
000000
,
010000
000001
010000
000000
001000
000000
100000
000000
,
000010
001000
000001
000000
000010
000000
001000
000000
,
000001
001000
100000
000000
000001
000000
100000
000000
,
000000
000000
000000
000000
000000
000000
000000
000000
,
000000
000000
000000
000000
000000
000000
000000
000000
,
000000
000000
000000
000000
000000
000000
000000
000000
,
000000
000000
000000
000000
000000
000000
000000
000000
,
000000
000000
000000
000000
000000
000000
000000
000000
,
000000
000000
000000
000000
000000
000000
000000
000000
,
000000
000000
000000
000000
000000
000000
000000
000000
,
000000
000000
000000
000000
000000
000000
000000
000000
,
000000
000000
000000
000000
000000
000000
000000
000000
,
000000
000000
000000
000000
000000
000000
000000
000000
,
000000
000000
000000
000000
000000
000000
000000
000000
,
000000
000000
000000
000000
000000
000000
000000
000000
,
000000
000000
000000
000000
000000
000000
000000
000000
,
000000
000000
000000
000000
000000
000000
000000
000000
,
000000
000000
000000
000000
000000
000000
000000
000000
,
000000
000000
000000
000000
000000
000000
000000
000000
,
000000
000000
000000
000000
000000
000000
000000
000000
,
000000
000000
000000
000000
000000
000000
000000
000000
,
000000
000000
000000
000000
000000
000000
000000
000000
,
000000
000000
000000
000000
000000
000000
000000
000000
,
000000
000000
000000
000000
000000
000000
000000
000000
,
000000
000000
000000
000000
000000
000000
000000
000000
,
000000
000000
000000
000000
000000
000000
000000
000000
,
000000
000000
000000
000000
000000
000000
000000
000000
,
000000
000000
000000
000000
000000
000000
000000
000000
,
000000
000000
000000
000000
000000
000000
000000
000000
,
000000
000000
000000
000000
000000
000000
000000
000000
,
000000
000000
000000
000000
000000
000000
000000
000000
,
000000
000000
000000
000000
000000
000000
000000
000000
,
000000
000000
000000
000000
000000
000000
000000
000000
,
000000
000000
000000
000000
000000
000000
000000
000000
,
000000
000000
000000
000000
000000
000000
000000
000000
,
000000
000000
000000
000000
000000
000000
000000
000000
,
000000
000000
000000
000000
000000
000000
000000
000000
,
000000
000000
000000
000000
000000
000000
000000
000000
,
000000
000000
000000
000000
000000
000000
000000
000000
,
000000
000000
000000
000000
000000
000000
000000
000000
,
000000
000000
000000
000000
000000
000000
000000
000000
,
000000
000000
000000
000000
000000
000000
000000
000000
,
000000
000000
000000
000000
000000
000000
000000
000000
,
000000
000000
000000
000000
000000
000000
000000
000000
,
000000
000000
000000
000000
000000
000000
000000
000000
,
000000
000000
000000
000000
000000
000000
000000
000000
,
000000
000000
000000
000000
000000
000000
000000
000000
,
000000
000000
000000
000000
000000
000000
000000
000000
,
000000
000000
000000
000000
000000
000000
000000
000000
,
000000
000000
000000
000000
000000
000000
000000
000000
,
000000
000000
000000
000000
000000
000000
000000
000000
,
000000
000000
000000
000000
000000
000000
000000
000000
,
000000
000000
000000
000000
000000
000000
000000
000000
,
000000
000000
000000
000000
000000
000000
000000
000000
,
000000
000000
000000
000000
000000
000000
000000
000000
,
000000
000000
000000
000000
000000
000000
000000
000000
,
000000
000000
000000
000000
000000
000000
000000
000000
,
000000
000000
000000
000000
000000
000000
000000
000000
,
000000
000000
000000
000000
000000
000000
000000
000000
,
000000
000000
000000
000000
000000
000000
000000
000000
,
000000
000000
000000
000000
000000
000000
000000
000000
,
000000
000000
000000
000000
000000
000000
000000
000000
,
000000
000000
000000
000000
000000
000000
000000
000000
,
000000
000000
000000
000000
000000
000000
000000
000000
,
000000
000000
000000
000000
000000
000000
000000
000000
,
000000
000000
000000
000000
000000
000000
000000
000000
,
000000
000000
000000
000000
000000
000000
000000
000000
,
000000
000000
000000
000000
000000
000000
000000
000000
,
000000
000000
000000
000000
000000
000000
000000
000000
,
000000
000000
000000
000000
000000
000000
000000
000000
,
000000
000000
000000
000000
000000
000000
000000
000000
,
000000
000000
000000
000000
000000
000000
000000
000000
,
000000
000000
000000
000000
000000
000000
000000
000000
,
000000
000000
000000
000000
000000
000000
000000
000000
,
000000
000000
000000
000000
000000
000000
000000
000000
,
000000
000000
000000
000000
000000
000000
000000
000000
,
000000
000000
000000
000000
000000
000000
000000
000000
,
000000
000000
000000
000000
000000
000000
000000
000000
,
000000
000000
000000
000000
000000
000000
000000
000000
,
000000
000000
000000
000000
000000
000000
000000
000000
,
000000
000000
000000
000000
000000
000000
000000
000000
,
000000
000000
000000
000000
000000
000000
000000
000000
,
000000
000000
000000
000000
000000
000000
000000
000000
,
000000
000000
000000
000000
000000
000000
000000
000000
,
000000
000000
000000
000000
000000
000000
000000
000000
,
000000
000000
000000
000000
000000
000000
000000
000000
,
000000
000000
000000
000000
000000
000000
000000
000000
,
000000
000000
000000
000000
000000
000000
000000
000000
,
000000
000000
000000
000000
000000
000000
000000
000000
,
000000
000000
000000
000000
000000
000000
000000
000000
,
000000
000000
000000
000000
000000
000000
000000
000000
,
000000
000000
000000
000000
000000
000000
000000
000000
,
000000
000000
000000
000000
000000
000000
000000
000000
,
000000
000000
000000
000000
000000
000000
000000
000000
,
000000
000000
000000
000000
000000
000000
000000
000000
,
000000
000000
000000
000000
000000
000000
000000
000000
,
000000
000000
000000
000000
000000
000000
000000
000000
,
000000
000000
000000
000000
000000
000000
000000
000000
,
000000
000000
000000
000000
000000
000000
000000
000000
,
000000
000000
000000
000000
000000
000000
000000
000000
,
000000
000000
000000
000000
000000
000000
000000
000000
,
000000
000000
000000
000000
000000
000000
000000
000000
,
000000
000000
000000
000000
000000
000000
000000
000000
,
000000
000000
000000
000000
000000
000000
000000
000000
,
000000
000000
000000
000000
000000
000000
000000
000000
,
000000
000000
000000
000000
000000
000000
000000
000000
,
000000
000000
000000
000000
000000
000000
000000
000000
,
0000
