#TITLE:Buffalo Bill;
#SUBTITLE:;
#ARTIST:Zippers;
#TITLETRANSLIT:;
#SUBTITLETRANSLIT:;
#ARTISTTRANSLIT:;
#GENRE:;
#CREDIT:;
#BANNER:Buffalo Bill.jpg;
#BACKGROUND:Buffalo Bill-bg.jpg;
#LYRICSPATH:;
#CDTITLE:S08.jpg;
#MUSIC:Buffalo Bill.ogg;
#OFFSET:0.000000;
#SAMPLESTART:45.362000;
#SAMPLELENGTH:13.958000;
#SELECTABLE:YES;
#BPMS:0.000000=137.554993
;
#STOPS:
;
#BGCHANGES:;
#KEYSOUNDS:;
#ATTACKS:;

//---------------dance-single - ----------------
#NOTES:
     dance-single:
     :
     Easy:
     3:
     0.181772,0.257851,0.160104,0.000000,0.000000,151.000000,132.000000,19.000000,0.000000,0.000000,0.000000,0.181772,0.257851,0.160104,0.000000,0.000000,151.000000,132.000000,19.000000,0.000000,0.000000,0.000000:
0000
0000
0000
0000
,
0000
0000
0000
0000
,
0000
0000
0000
0000
,
1000
0000
1000
0000
,
1000
0000
1000
0000
,
0100
0000
0100
0000
,
1100
0000
0101
0000
,
1001
0000
0100
0000
,
0010
0000
0001
0000
,
0110
0000
1100
0000
,
0101
0000
0010
0000
,
1100
0000
0101
0100
,
1000
0000
0001
0000
,
0100
0000
0010
0000
,
0100
0000
0001
0000
,
0001
0000
0100
0000
,
0001
0000
0001
0000
,
1000
0000
0001
0000
,
1000
0000
0001
0000
,
0010
0000
0001
0000
,
1000
0000
1000
0000
,
0100
0000
0100
0000
,
0010
0000
1001
0000
,
1000
0000
1000
0000
,
0001
0000
1000
0000
,
1000
0000
0001
0000
,
0001
0000
0010
0000
,
0100
0000
0010
0000
,
1001
0000
0001
0000
,
0100
0000
0001
0000
,
0010
0000
0101
0000
,
1000
0000
0010
0000
,
1001
0000
0010
0000
,
0100
0000
0001
0000
,
1000
0000
0001
0000
,
0010
0000
0010
0000
,
0010
0000
0001
0000
,
1000
0000
0001
0000
,
0001
0000
0010
0000
,
0001
0000
0100
0000
,
0001
0000
1000
0000
,
1000
0000
0100
0000
,
0001
0000
0100
0000
,
1001
0000
1100
0000
,
0100
0000
0010
0000
,
1000
0000
0001
0000
,
1000
0000
0010
0000
,
1000
0000
0010
0000
,
0010
0000
0110
0000
,
0001
0000
0100
0000
,
0100
0000
0110
0000
,
0100
0000
0110
0000
,
0001
0000
0010
0000
,
0100
0000
0001
0000
,
0001
0000
1000
0000
,
0100
0000
0010
0000
,
1000
0000
1000
0000
,
1000
0000
0001
0000
,
1001
0000
0010
0000
,
0100
0000
0100
0000
,
0010
0000
0100
0000
,
0010
0000
0010
0000
,
1000
0000
0001
0000
,
0100
0000
0100
0000
,
0001
0000
0010
0000
,
0001
0000
0100
0000
,
0100
0000
0001
0000
,
1000
0000
0100
0000
,
1001
0000
0000
0000
;

//---------------dance-single - ----------------
#NOTES:
     dance-single:
     :
     Medium:
     4:
     0.359933,0.399628,0.227516,0.000000,0.000000,299.000000,272.000000,27.000000,0.000000,0.000000,0.000000,0.359933,0.399628,0.227516,0.000000,0.000000,299.000000,272.000000,27.000000,0.000000,0.000000,0.000000:
0000
0000
0000
0000
,
0000
0000
0000
0000
,
0000
0000
0000
0000
,
1000
1000
1000
1000
,
1000
0001
1000
0001
,
0100
0010
0100
0010
,
1100
0000
0101
0000
,
1001
0000
0100
0000
,
0010
0001
0001
1000
,
0110
0000
1100
0000
,
0101
1001
0010
0010
,
1100
0100
0101
0100
,
1000
1000
0001
0001
,
0100
0000
0001
0000
0010
0010
0010
0000
,
0100
1000
0001
0000
0001
0000
0001
0000
,
0001
1000
0010
0000
0100
0000
0100
0000
,
0001
0001
0001
1000
,
1000
0000
0001
0010
0001
0000
0001
0000
,
1000
0000
0010
0001
0100
0000
0100
0000
,
0010
1000
0001
1000
,
1000
0010
1000
1000
,
0100
0001
0100
0010
,
0010
0000
0001
0001
1001
0000
0010
0000
,
1000
0010
1000
0100
,
0001
1000
1000
0100
,
1000
0001
0001
0001
,
0001
0000
0100
0100
0010
0000
0010
0000
,
0100
0000
0100
0010
0010
0000
0010
0000
,
1001
1001
0001
0010
,
0100
0000
0010
0010
0001
0000
1000
0000
,
0010
0100
0101
1000
,
1000
0001
0010
1001
,
1001
0010
0010
0100
,
0100
1000
0001
0010
,
1000
0100
0001
0010
,
0010
1000
0010
1000
,
0010
0000
1000
0000
0001
0001
0001
0000
,
1000
0100
0001
0001
,
0001
0000
0001
0000
0010
0010
0100
0000
,
0001
0000
1000
0000
0100
0100
0010
0000
,
0001
0001
1000
0000
1000
0000
1000
0000
,
1000
1000
0010
0000
0100
0000
0100
0000
,
0001
1000
1000
0000
0100
0000
0011
0000
,
1001
1010
1100
0001
,
0100
0001
0010
0100
,
1000
0100
0001
0010
,
1000
0100
0010
0010
,
1000
1000
0010
0010
,
0010
1000
0110
0001
,
0001
1000
0100
0100
,
0100
0110
0110
1000
,
0100
0110
0110
1000
,
0001
1000
0010
0010
,
0100
0010
0001
0001
,
0001
0100
1000
1000
,
0100
0001
0010
1000
,
1000
1000
1000
0101
,
1000
1000
0001
0010
,
1001
1001
0010
0010
,
0100
0100
0000
0001
,
0010
1000
0100
0001
,
0010
1000
0010
1000
,
1000
1000
0001
0010
,
0100
0100
0100
0100
,
0001
0000
0001
0000
0010
0010
0100
0000
,
0001
0000
1000
0000
0100
0100
0010
0000
,
0100
0000
0001
0000
0001
0010
1000
0000
,
1000
0000
0010
0000
0100
0100
0100
0000
;

//---------------dance-single - ----------------
#NOTES:
     dance-single:
     :
     Hard:
     7:
     0.426141,0.485262,0.412899,0.000000,0.000000,354.000000,305.000000,49.000000,0.000000,0.000000,0.000000,0.426141,0.485262,0.412899,0.000000,0.000000,354.000000,305.000000,49.000000,0.000000,0.000000,0.000000:
0000
0000
0000
0000
,
0000
0000
0000
0000
,
0000
0000
0000
0000
,
0001
0100
0001
0000
1000
0100
1000
0000
,
0010
0100
0010
0000
0001
1000
0001
0000
,
0001
0010
1000
0000
1000
0001
0100
0000
,
1100
0100
0001
0000
0101
0100
1000
0000
,
1001
1000
0100
0100
,
0010
0000
0001
0000
0001
0100
1000
0000
,
0110
0011
1100
1100
,
0101
0000
1001
0000
0010
1000
0010
0000
,
1100
0100
0101
0100
,
1000
0000
1000
0000
0001
0100
0001
0000
,
0100
0010
0001
0000
0010
0010
0010
0000
,
0100
1000
0001
0000
0001
0000
0010
0000
,
0001
1000
0100
0000
0100
0000
0100
0000
,
0001
0000
0001
0100
0001
0000
1000
0000
,
1000
0000
0001
0010
0001
0000
0001
0000
,
1000
0000
0010
0001
0100
0000
0100
0000
,
0010
0000
1000
0100
0001
0000
1000
0000
,
1000
0000
0010
1000
0001
0000
1000
0000
,
0100
1001
0100
0010
,
1000
0001
0110
0010
,
1000
0010
1001
0100
,
0001
1000
1001
0100
,
1000
0001
1001
0001
,
0001
0000
0100
0100
0010
0000
0010
0000
,
0100
0000
0100
0010
0010
0000
0010
0000
,
1001
1001
0001
0010
,
0100
0000
0010
0010
0001
0000
1000
0000
,
0010
0100
0101
1000
,
1000
0001
0010
1001
,
1001
0010
0010
1100
,
0100
1000
1001
0010
,
1000
0100
1001
0010
,
0010
1000
0110
1000
,
0010
0000
1000
0000
0001
0001
0001
0000
,
1000
0000
0100
0000
0001
1000
0001
0000
,
0001
0000
1001
0000
0010
0010
0100
0000
,
0001
0000
1001
0000
0100
0100
0010
0000
,
0001
0001
1000
0000
1000
0000
1001
0000
,
1000
1000
0010
0000
0100
0000
0100
0000
,
0001
1000
1000
0000
0100
0000
0011
0000
,
1001
1010
1100
0001
,
0100
0000
0001
1000
0010
0000
0100
0000
,
1000
0000
0100
1000
0001
0000
0010
0000
,
1000
0000
0100
0001
0010
0000
0010
0000
,
1000
1000
0110
0010
,
0010
1000
0110
0001
,
0001
1001
0100
0110
,
0100
0110
0110
1000
,
0100
0110
0110
1000
,
0001
1000
0110
0010
,
0100
0000
0010
0000
0001
1000
0001
0000
,
0001
0000
0100
0000
1000
0100
1000
0000
,
0100
0000
0001
0000
0010
0001
1000
0000
,
1000
0100
1000
0000
1000
0010
0101
0000
,
1000
0001
1000
0000
0001
1000
0010
0000
,
1001
1001
0010
0010
,
0100
0110
0100
0001
,
0010
1000
0110
0001
,
0010
1001
0010
1000
,
1000
0000
1000
1000
0001
0000
0010
0000
,
0100
0101
0100
0100
,
0001
0000
0001
0000
0010
0010
0100
0000
,
0001
0000
1000
0000
1100
0100
0010
0000
,
0100
0000
0001
0000
0001
0010
1000
0000
,
1000
0000
0010
0000
0100
0100
0100
0000
;

//---------------dance-double - ----------------
#NOTES:
     dance-double:
     :
     Easy:
     3:
     0.181772,0.257851,0.160104,0.000000,0.000000,151.000000,132.000000,19.000000,0.000000,0.000000,0.000000,0.181772,0.257851,0.160104,0.000000,0.000000,151.000000,132.000000,19.000000,0.000000,0.000000,0.000000:
00000000
00000000
00000000
00000000
,
00000000
00000000
00000000
00000000
,
00000000
00000000
00000000
00000000
,
10000000
00000000
10000000
00000000
,
10000000
00000000
10000000
00000000
,
01000000
00000000
01000000
00000000
,
11000000
00000000
01010000
00000000
,
00011000
00000000
00000100
00000000
,
00100000
00000000
00010000
00000000
,
00000110
00000000
00000101
00000000
,
00001100
00000000
00000010
00000000
,
00000101
00000000
00001100
00000100
,
00000001
00000000
00001000
00000000
,
00000100
00000000
00100000
00000000
,
00000100
00000000
00010000
00000000
,
00010000
00000000
01000000
00000000
,
00010000
00000000
00010000
00000000
,
10000000
00000000
00010000
00000000
,
10000000
00000000
00010000
00000000
,
00100000
00000000
00010000
00000000
,
00001000
00000000
00001000
00000000
,
00000100
00000000
00000100
00000000
,
00000010
00000000
00001001
00000000
,
00000001
00000000
00000001
00000000
,
00001000
00000000
00000001
00000000
,
00001000
00000000
00010000
00000000
,
00010000
00000000
00100000
00000000
,
01000000
00000000
00100000
00000000
,
10010000
00000000
00010000
00000000
,
01000000
00000000
00010000
00000000
,
00100000
00000000
01010000
00000000
,
00001000
00000000
00100000
00000000
,
00011000
00000000
00100000
00000000
,
00000100
00000000
00001000
00000000
,
00000001
00000000
00001000
00000000
,
00100000
00000000
00100000
00000000
,
00100000
00000000
00010000
00000000
,
10000000
00000000
00010000
00000000
,
00010000
00000000
00100000
00000000
,
00010000
00000000
01000000
00000000
,
00010000
00000000
10000000
00000000
,
00001000
00000000
00000100
00000000
,
00010000
00000000
00000100
00000000
,
00001001
00000000
00000101
00000000
,
00000100
00000000
00000010
00000000
,
00000001
00000000
00001000
00000000
,
00000001
00000000
00000010
00000000
,
00001000
00000000
00100000
00000000
,
00100000
00000000
00100100
00000000
,
00010000
00000000
01000000
00000000
,
01000000
00000000
01100000
00000000
,
01000000
00000000
01100000
00000000
,
00010000
00000000
00100000
00000000
,
00000100
00000000
00010000
00000000
,
00010000
00000000
00001000
00000000
,
00000100
00000000
00000010
00000000
,
00000001
00000000
00000001
00000000
,
00000001
00000000
00001000
00000000
,
00001001
00000000
00000010
00000000
,
00000100
00000000
00000100
00000000
,
00100000
00000000
00000100
00000000
,
00100000
00000000
00100000
00000000
,
10000000
00000000
00010000
00000000
,
01000000
00000000
01000000
00000000
,
00010000
00000000
00100000
00000000
,
00010000
00000000
00000100
00000000
,
00000100
00000000
00010000
00000000
,
00000001
00000000
00000100
00000000
,
00001001
00000000
00000000
00000000
;

//---------------dance-double - ----------------
#NOTES:
     dance-double:
     :
     Medium:
     4:
     0.359933,0.399628,0.227516,0.000000,0.000000,299.000000,272.000000,27.000000,0.000000,0.000000,0.000000,0.359933,0.399628,0.227516,0.000000,0.000000,299.000000,272.000000,27.000000,0.000000,0.000000,0.000000:
00000000
00000000
00000000
00000000
,
00000000
00000000
00000000
00000000
,
00000000
00000000
00000000
00000000
,
10000000
10000000
10000000
10000000
,
10000000
00010000
10000000
00010000
,
01000000
00100000
01000000
00100000
,
11000000
00000000
01010000
00000000
,
00011000
00000000
00000100
00000000
,
00100000
00010000
00010000
00001000
,
00000110
00000000
00000101
00000000
,
00001100
00001001
00000010
00000010
,
00000101
00000100
00001100
00000100
,
00000001
00000001
00001000
00001000
,
00000100
00000000
00010000
00000000
00100000
00100000
00100000
00000000
,
00000100
00001000
00010000
00000000
00010000
00000000
00010000
00000000
,
00010000
10000000
00100000
00000000
01000000
00000000
01000000
00000000
,
00010000
00010000
00010000
10000000
,
10000000
00000000
00010000
00100000
00010000
00000000
00010000
00000000
,
10000000
00000000
00100000
00010000
01000000
00000000
01000000
00000000
,
00100000
00001000
00010000
00001000
,
00001000
00100000
00001000
00001000
,
00000100
00001000
00000100
00000010
,
00000010
00000000
00001000
00001000
00001001
00000000
00000010
00000000
,
00000001
00000010
00000001
00000100
,
00001000
00000001
00000001
00000100
,
00001000
00010000
00010000
00010000
,
00010000
00000000
00000100
00000100
00100000
00000000
00100000
00000000
,
01000000
00000000
01000000
00100000
00100000
00000000
00100000
00000000
,
10010000
10010000
00010000
00100000
,
01000000
00000000
00100000
00100000
00010000
00000000
10000000
00000000
,
00100000
01000000
01010000
10000000
,
00001000
00010000
00100000
00011000
,
00011000
00100000
00100000
00000100
,
00000100
00000001
00001000
00000010
,
00000001
00000100
00001000
00000010
,
00000010
00000001
00000010
00000001
,
00000010
00000000
00000001
00000000
00001000
00001000
00001000
00000000
,
00001000
00000100
00010000
00010000
,
00010000
00000000
00010000
00000000
00100000
00100000
00000100
00000000
,
00010000
00000000
10000000
00000000
01000000
01000000
00100000
00000000
,
00010000
00010000
10000000
00000000
10000000
00000000
10000000
00000000
,
10000000
10000000
00100000
00000000
01000000
00000000
01000000
00000000
,
00010000
10000000
10000000
00000000
01000000
00000000
00110000
00000000
,
00011000
00101000
00001100
00010000
,
00000100
00010000
00100000
00000100
,
00000001
00000100
00001000
00000010
,
00000001
00000100
00000010
00000010
,
00000001
00000001
00000010
00000010
,
00000010
00000001
00000110
00001000
,
00010000
00001000
00000100
00000100
,
00000100
00100100
00100100
00001000
,
01000000
01100000
01100000
10000000
,
00010000
10000000
00100000
00100000
,
01000000
00100000
00010000
00010000
,
00010000
01000000
10000000
10000000
,
00000100
00010000
00100000
00001000
,
00001000
00001000
00001000
00010100
,
00000001
00000001
00001000
00000010
,
00001001
00001001
00000010
00000010
,
00000100
00000100
00000000
00001000
,
00000010
00000001
00000100
00001000
,
00100000
00001000
00100000
00001000
,
00001000
00001000
00010000
00100000
,
00000100
00000100
00000100
00000100
,
00001000
00000000
00001000
00000000
00000010
00000010
00000100
00000000
,
00001000
00000000
00000001
00000000
00000100
00000100
00000010
00000000
,
00000100
00000000
00001000
00000000
00001000
00000010
00000001
00000000
,
00000001
00000000
00000010
00000000
00000100
00000100
00000100
00000000
;

//---------------dance-double - ----------------
#NOTES:
     dance-double:
     :
     Hard:
     7:
     0.426141,0.485262,0.412899,0.000000,0.000000,354.000000,305.000000,49.000000,0.000000,0.000000,0.000000,0.426141,0.485262,0.412899,0.000000,0.000000,354.000000,305.000000,49.000000,0.000000,0.000000,0.000000:
00000000
00000000
00000000
00000000
,
00000000
00000000
00000000
00000000
,
00000000
00000000
00000000
00000000
,
00010000
01000000
00010000
00000000
10000000
01000000
10000000
00000000
,
00100000
01000000
00100000
00000000
00010000
10000000
00010000
00000000
,
00010000
00100000
10000000
00000000
10000000
00010000
01000000
00000000
,
11000000
01000000
00010000
00000000
01010000
01000000
10000000
00000000
,
00011000
00001000
00000100
00000100
,
00100000
00000000
00010000
00000000
00010000
00000100
00001000
00000000
,
00000110
00001010
00000101
00000101
,
00001100
00000000
00001001
00000000
00000010
00000001
00000010
00000000
,
00000101
00000100
00001100
00000100
,
00000001
00000000
00000001
00000000
00001000
00000100
00001000
00000000
,
00000100
00100000
00010000
00000000
00100000
00100000
00100000
00000000
,
00000100
00001000
00010000
00000000
00010000
00000000
00100000
00000000
,
00010000
10000000
01000000
00000000
01000000
00000000
01000000
00000000
,
00010000
00000000
00010000
01000000
00010000
00000000
10000000
00000000
,
10000000
00000000
00010000
00100000
00010000
00000000
00010000
00000000
,
10000000
00000000
00100000
00010000
01000000
00000000
01000000
00000000
,
00100000
00000000
00001000
00000100
00010000
00000000
00001000
00000000
,
00001000
00000000
00100000
00001000
00010000
00000000
00001000
00000000
,
00000100
00001001
00000100
00000010
,
00000001
00001000
00000110
00000010
,
00000001
00000010
00001001
00000100
,
00001000
00000001
00001001
00000100
,
00001000
00010000
00011000
00010000
,
00010000
00000000
00000100
00000100
00100000
00000000
00100000
00000000
,
00000100
00000000
00000100
00100000
00100000
00000000
00100000
00000000
,
10010000
10010000
00010000
00100000
,
01000000
00000000
00100000
00100000
00010000
00000000
10000000
00000000
,
00100000
01000000
01010000
10000000
,
10000000
00010000
00100000
10010000
,
00011000
00100000
00100000
00001100
,
00000100
00001000
00011000
00100000
,
00000001
00000100
00001001
00000010
,
00000010
00000001
00000110
00000001
,
00000010
00000000
00000001
00000000
00001000
00001000
00001000
00000000
,
00000001
00000000
00000100
00000000
00001000
00000001
00001000
00000000
,
00010000
00000000
00011000
00000000
00100000
00100000
00000100
00000000
,
00010000
00000000
00011000
00000000
00000100
00000100
00100000
00000000
,
00010000
00010000
10000000
00000000
10000000
00000000
10010000
00000000
,
10000000
10000000
00100000
00000000
01000000
00000000
01000000
00000000
,
00010000
10000000
10000000
00000000
01000000
00000000
00110000
00000000
,
10010000
10100000
11000000
00010000
,
00000100
00000000
00010000
00001000
00100000
00000000
00000100
00000000
,
00001000
00000000
00000100
00001000
00010000
00000000
00100000
00000000
,
00000001
00000000
00000100
00001000
00000010
00000000
00000010
00000000
,
00000001
00000001
00000110
00000010
,
00000010
00000001
00000110
00001000
,
00001000
00001001
00000100
00000110
,
00000100
00100100
00100100
00001000
,
00000100
00100100
00100100
00001000
,
00010000
10000000
01100000
00100000
,
01000000
00000000
00100000
00000000
00010000
10000000
00010000
00000000
,
00010000
00000000
01000000
00000000
10000000
01000000
10000000
00000000
,
01000000
00000000
00010000
00000000
00100000
00010000
10000000
00000000
,
00001000
00000100
00001000
00000000
00001000
00100000
00010100
00000000
,
00001000
00010000
00001000
00000000
00010000
00001000
00100000
00000000
,
00001001
00001001
00000010
00000010
,
00000100
00000110
00000100
00001000
,
00000010
00000001
00000110
00001000
,
00000010
00001001
00000010
00000001
,
00001000
00000000
00001000
00001000
00010000
00000000
00100000
00000000
,
00000100
00010100
00000100
00000100
,
00010000
00000000
00010000
00000000
00100000
00100000
01000000
00000000
,
00010000
00000000
10000000
00000000
11000000
01000000
00100000
00000000
,
01000000
00000000
00010000
00000000
00010000
00100000
10000000
00000000
,
10000000
00000000
00100000
00000000
01000000
01000000
01000000
00000000
;

//---------------dance-solo - ----------------
#NOTES:
     dance-solo:
     :
     Easy:
     3:
     0.181772,0.257851,0.160104,0.000000,0.000000,151.000000,132.000000,19.000000,0.000000,0.000000,0.000000,0.181772,0.257851,0.160104,0.000000,0.000000,151.000000,132.000000,19.000000,0.000000,0.000000,0.000000:
// measure 0
000000
000000
000000
000000
,  // measure 1
000000
000000
000000
000000
,  // measure 2
000000
000000
000000
000000
,  // measure 3
000010
000000
000010
000000
,  // measure 4
100000
000000
100000
000000
,  // measure 5
001000
000000
001000
000000
,  // measure 6
101000
000000
001001
000000
,  // measure 7
100001
000000
001000
000000
,  // measure 8
000100
000000
000001
000000
,  // measure 9
001100
000000
001010
000000
,  // measure 10
001001
000000
010000
000000
,  // measure 11
001010
000000
001001
001000
,  // measure 12
100000
000000
000001
000000
,  // measure 13
001000
000000
000100
000000
,  // measure 14
001000
000000
000001
000000
,  // measure 15
000001
000000
001000
000000
,  // measure 16
000001
000000
000001
000000
,  // measure 17
000010
000000
000001
000000
,  // measure 18
100000
000000
000001
000000
,  // measure 19
000100
000000
000001
000000
,  // measure 20
100000
000000
100000
000000
,  // measure 21
001000
000000
001000
000000
,  // measure 22
010000
000000
100001
000000
,  // measure 23
000010
000000
000010
000000
,  // measure 24
000001
000000
100000
000000
,  // measure 25
100000
000000
000001
000000
,  // measure 26
000001
000000
000100
000000
,  // measure 27
001000
000000
000100
000000
,  // measure 28
100001
000000
000001
000000
,  // measure 29
001000
000000
000001
000000
,  // measure 30
010000
000000
001001
000000
,  // measure 31
100000
000000
000100
000000
,  // measure 32
100001
000000
000100
000000
,  // measure 33
001000
000000
000001
000000
,  // measure 34
100000
000000
000001
000000
,  // measure 35
000100
000000
000100
000000
,  // measure 36
000100
000000
000001
000000
,  // measure 37
000010
000000
000001
000000
,  // measure 38
000001
000000
010000
000000
,  // measure 39
000001
000000
001000
000000
,  // measure 40
000001
000000
100000
000000
,  // measure 41
100000
000000
001000
000000
,  // measure 42
000001
000000
001000
000000
,  // measure 43
000011
000000
001010
000000
,  // measure 44
001000
000000
010000
000000
,  // measure 45
000010
000000
000001
000000
,  // measure 46
100000
000000
010000
000000
,  // measure 47
100000
000000
000100
000000
,  // measure 48
000100
000000
001100
000000
,  // measure 49
000001
000000
001000
000000
,  // measure 50
001000
000000
011000
000000
,  // measure 51
001000
000000
001100
000000
,  // measure 52
000001
000000
010000
000000
,  // measure 53
001000
000000
000001
000000
,  // measure 54
000001
000000
100000
000000
,  // measure 55
001000
000000
000100
000000
,  // measure 56
100000
000000
100000
000000
,  // measure 57
000010
000000
000001
000000
,  // measure 58
100001
000000
010000
000000
,  // measure 59
001000
000000
001000
000000
,  // measure 60
000100
000000
001000
000000
,  // measure 61
000100
000000
000100
000000
,  // measure 62
100000
000000
000001
000000
,  // measure 63
001000
000000
001000
000000
,  // measure 64
000001
000000
010000
000000
,  // measure 65
000001
000000
001000
000000
,  // measure 66
001000
000000
000001
000000
,  // measure 67
000010
000000
001000
000000
,  // measure 68
100001
000000
000000
000000
;

//---------------dance-solo - ----------------
#NOTES:
     dance-solo:
     :
     Medium:
     4:
     0.361136,0.399628,0.235942,0.000000,0.000000,300.000000,272.000000,28.000000,0.000000,0.000000,0.000000,0.361136,0.399628,0.235942,0.000000,0.000000,300.000000,272.000000,28.000000,0.000000,0.000000,0.000000:
// measure 0
000000
000000
000000
000000
,  // measure 1
000000
000000
000000
000000
,  // measure 2
000000
000000
000000
000000
,  // measure 3
000010
000010
000010
000010
,  // measure 4
100000
000001
100000
000001
,  // measure 5
001000
000100
001000
000100
,  // measure 6
101000
000000
001001
000000
,  // measure 7
100001
000000
001000
000000
,  // measure 8
000100
000001
000001
100000
,  // measure 9
001100
000000
001010
000000
,  // measure 10
001001
100001
010000
010000
,  // measure 11
001010
001000
001001
001000
,  // measure 12
100000
100000
000001
000001
,  // measure 13
001000
000000
000001
000000
000100
000100
000100
000000
,  // measure 14
001000
100000
000001
000000
000001
000000
000001
000000
,  // measure 15
000001
000010
000100
000000
001000
000000
001000
000000
,  // measure 16
000001
000001
000001
100000
,  // measure 17
000010
000000
000001
000100
000001
000000
000001
000000
,  // measure 18
100000
000000
010000
000001
001000
000000
001000
000000
,  // measure 19
000100
100000
000001
100000
,  // measure 20
100000
000100
100000
100000
,  // measure 21
001000
000001
001000
000100
,  // measure 22
010000
000000
000001
000001
100001
000000
010000
000000
,  // measure 23
000010
000100
000010
001000
,  // measure 24
000001
100000
100000
001000
,  // measure 25
100000
000001
000001
000001
,  // measure 26
000001
000000
001000
001000
000100
000000
000100
000000
,  // measure 27
001000
000000
001000
000100
000100
000000
000100
000000
,  // measure 28
100001
100001
000001
010000
,  // measure 29
001000
000000
000100
000100
010001
000000
000010
000000
,  // measure 30
010000
001000
001001
100000
,  // measure 31
100000
000001
000100
100001
,  // measure 32
100001
000100
000100
001000
,  // measure 33
001000
000010
000001
000100
,  // measure 34
100000
001000
000001
010000
,  // measure 35
000100
000010
000100
000010
,  // measure 36
010000
000000
100000
000000
000001
000001
000001
000000
,  // measure 37
100000
001000
000001
000001
,  // measure 38
000001
000000
000001
000000
000100
000100
001000
000000
,  // measure 39
000001
000000
000010
000000
001000
001000
000100
000000
,  // measure 40
000001
000001
100000
000000
100000
000000
100000
000000
,  // measure 41
000010
000010
000100
000000
001000
000000
001000
000000
,  // measure 42
000001
100000
100000
000000
001000
000000
010001
000000
,  // measure 43
100001
100100
101000
000001
,  // measure 44
001000
000001
000100
001000
,  // measure 45
000010
001000
000001
000100
,  // measure 46
100000
001000
010000
010000
,  // measure 47
000010
000010
000100
000100
,  // measure 48
010000
100000
011000
000001
,  // measure 49
000001
100000
001000
001000
,  // measure 50
001000
001100
001100
100000
,  // measure 51
001000
001100
001100
000010
,  // measure 52
000001
100000
010000
010000
,  // measure 53
001000
000100
000001
000001
,  // measure 54
000001
001000
100000
100000
,  // measure 55
001000
000001
000100
100000
,  // measure 56
100000
100000
100000
001001
,  // measure 57
000010
000010
000001
000100
,  // measure 58
100001
100001
010000
010000
,  // measure 59
001000
001000
000000
000001
,  // measure 60
010000
100000
001000
000001
,  // measure 61
000100
100000
000100
100000
,  // measure 62
100000
100000
000001
000100
,  // measure 63
001000
001000
001000
001000
,  // measure 64
000001
000000
000001
000000
010000
010000
001000
000000
,  // measure 65
000001
000000
000010
000000
001000
001000
000100
000000
,  // measure 66
001000
000000
000001
000000
000001
010000
100000
000000
,  // measure 67
000010
000000
000100
000000
001000
001000
001000
000000
;

//---------------dance-solo - ----------------
#NOTES:
     dance-solo:
     :
     Hard:
     7:
     0.427345,0.485262,0.421326,0.000000,0.000000,355.000000,305.000000,50.000000,0.000000,0.000000,0.000000,0.427345,0.485262,0.421326,0.000000,0.000000,355.000000,305.000000,50.000000,0.000000,0.000000,0.000000:
// measure 0
000000
000000
000000
000000
,  // measure 1
000000
000000
000000
000000
,  // measure 2
000000
000000
000000
000000
,  // measure 3
000001
001000
000001
000000
000010
001000
000010
000000
,  // measure 4
010000
001000
010000
000000
000001
100000
000001
000000
,  // measure 5
000001
000100
000010
000000
000010
000001
001000
000000
,  // measure 6
101000
001000
000001
000000
001001
001000
100000
000000
,  // measure 7
100001
100000
001000
001000
,  // measure 8
000100
000000
000001
000000
000001
001000
100000
000000
,  // measure 9
001100
000101
001010
001010
,  // measure 10
001001
000000
100001
000000
010000
100000
010000
000000
,  // measure 11
001010
001000
001001
001000
,  // measure 12
100000
000000
100000
000000
000001
001000
000001
000000
,  // measure 13
001000
000100
000001
000000
000100
000100
000100
000000
,  // measure 14
001000
100000
000001
000000
000001
000000
000100
000000
,  // measure 15
000001
000010
001000
000000
001000
000000
001000
000000
,  // measure 16
000001
000000
000001
001000
000001
000000
100000
000000
,  // measure 17
000010
000000
000001
000100
000001
000000
000001
000000
,  // measure 18
100000
000000
010000
000001
001000
000000
001000
000000
,  // measure 19
000100
000000
100000
001000
000001
000000
100000
000000
,  // measure 20
100000
000000
000100
100000
000001
000000
100000
000000
,  // measure 21
001000
000011
001000
000100
,  // measure 22
100000
000001
011000
010000
,  // measure 23
000010
000100
000011
001000
,  // measure 24
000001
100000
100001
001000
,  // measure 25
100000
000001
100001
000001
,  // measure 26
000001
000000
001000
001000
000100
000000
000100
000000
,  // measure 27
001000
000000
001000
000100
000100
000000
000100
000000
,  // measure 28
100001
100001
000001
010000
,  // measure 29
001000
000000
000100
000100
010001
000000
000010
000000
,  // measure 30
010000
001000
001001
100000
,  // measure 31
000010
000001
000100
000011
,  // measure 32
100001
000100
000100
101000
,  // measure 33
001000
100000
100001
000100
,  // measure 34
100000
001000
100001
010000
,  // measure 35
000100
000010
001100
000010
,  // measure 36
010000
000000
100000
000000
000001
000001
000001
000000
,  // measure 37
000010
000000
001000
000000
000001
000010
000001
000000
,  // measure 38
000001
000000
100001
000000
000100
000100
001000
000000
,  // measure 39
000001
000000
100001
000000
001000
001000
000100
000000
,  // measure 40
000001
000001
100000
000000
100000
000000
100001
000000
,  // measure 41
000010
000010
000100
000000
001000
000000
001000
000000
,  // measure 42
000001
100000
100000
000000
001000
000000
010001
000000
,  // measure 43
000011
000110
001010
000001
,  // measure 44
001000
000000
000001
100000
000100
000000
001000
000000
,  // measure 45
100000
000000
001000
100000
000001
000000
000100
000000
,  // measure 46
100000
000000
001000
000001
010000
000000
010000
000000
,  // measure 47
000010
000010
001100
000100
,  // measure 48
010000
100000
011000
000001
,  // measure 49
000001
000011
001000
001100
,  // measure 50
001000
001100
001100
100000
,  // measure 51
001000
001100
001100
100000
,  // measure 52
000001
100000
011000
010000
,  // measure 53
001000
000000
000100
000000
000001
000010
000001
000000
,  // measure 54
000001
000000
001000
000000
100000
001000
100000
000000
,  // measure 55
001000
000000
000001
000000
000100
000001
000010
000000
,  // measure 56
100000
001000
100000
000000
100000
000100
001001
000000
,  // measure 57
100000
000001
100000
000000
000001
100000
000100
000000
,  // measure 58
100001
100001
010000
010000
,  // measure 59
001000
001100
001000
000001
,  // measure 60
010000
100000
011000
000001
,  // measure 61
000100
000011
000100
000010
,  // measure 62
100000
000000
100000
100000
000001
000000
000100
000000
,  // measure 63
001000
001001
001000
001000
,  // measure 64
000001
000000
000001
000000
010000
010000
001000
000000
,  // measure 65
000001
000000
000010
000000
001010
001000
000100
000000
,  // measure 66
001000
000000
000001
000000
000001
010000
100000
000000
,  // measure 67
000010
000000
000100
000000
001000
001000
001000
000000
;
