#VERSION:0.83;
#TITLE:SA-KU-RA;
#SUBTITLE:;
#ARTIST:HITOMITOI;
#TITLETRANSLIT:;
#SUBTITLETRANSLIT:;
#ARTISTTRANSLIT:;
#GENRE:J-Pop VGM;
#ORIGIN:;
#CREDIT:Super Monkey Ball Step & Roll ;
#BANNER:SA-KU-RA.png;
#BACKGROUND:SA-KU-RA-bg.png;
#PREVIEWVID:;
#JACKET:SA-KU-RA-jacket.png;
#CDIMAGE:;
#DISCIMAGE:;
#LYRICSPATH:;
#CDTITLE:cuzco.png;
#MUSIC:SA-KU-RA.ogg;
#OFFSET:0.000000;
#SAMPLESTART:65.459869;
#SAMPLELENGTH:15.459994;
#SELECTABLE:YES;
#DISPLAYBPM:132.000000;
#BPMS:0.000=132.000,
252.000=130.000,
252.125=128.000,
252.250=126.000,
252.375=124.000,
252.500=122.000,
252.625=120.000,
252.750=118.000,
252.875=116.000,
253.000=114.000,
253.167=110.000,
253.333=106.000,
253.500=102.000,
253.667=98.000,
253.833=94.000,
254.000=90.000,
254.250=84.000,
254.500=78.000,
254.750=72.000,
255.000=66.000,
255.250=52.000,
255.500=35.000,
255.750=17.080,
256.000=16.500;
#STOPS:;
#DELAYS:;
#WARPS:;
#TIMESIGNATURES:0.000=4=4;
#TICKCOUNTS:0.000=4;
#COMBOS:0.000=1;
#SPEEDS:0.000=1.000=0.000=0;
#SCROLLS:0.000=1.000;
#FAKES:;
#LABELS:0.000=Intro,
12.000=,
16.000=Instrumental,
48.000=Verse 1,
112.000=Verse 2,
144.000=Chorus 1,
176.000=Bridge,
208.000=Chorus 2,
248.000=Outro,
256.000=End;
#BGCHANGES:;
#KEYSOUNDS:;
#ATTACKS:
;

//---------------dance-single - Smooth.----------------
#NOTEDATA:;
#CHARTNAME:C8 X11;
#STEPSTYPE:dance-single;
#DESCRIPTION:Smooth.;
#CHARTSTYLE:Pad;
#DIFFICULTY:Hard;
#METER:8;
#RADARVALUES:0.454762,0.480000,0.133333,0.591667,0.070833,382.000000,366.000000,16.000000,71.000000,0.000000,0.000000,0.000000,0.000000,0.000000,0.454762,0.480000,0.133333,0.591667,0.070833,382.000000,366.000000,16.000000,71.000000,0.000000,0.000000,0.000000,0.000000,0.000000;
#CREDIT:CuzcoBlocko;
#DISPLAYBPM:132.000000;
#NOTES:
// measure 0
0000
0000
0000
0000
,  // measure 1
0000
0000
0000
0000
,  // measure 2
0000
0000
0000
0000
,  // measure 3
2000
0000
0000
0000
3001
0010
0010
0001
,  // measure 4
2001
0000
3010
0100
0001
0010
0100
1000
,  // measure 5
0200
0000
0010
0000
1300
0010
0100
0010
,  // measure 6
2000
0000
3001
0100
0010
0001
0010
1000
,  // measure 7
0002
0000
0010
0000
1003
0100
0010
0001
,  // measure 8
2000
0000
3100
0010
0200
0000
0301
0100
,  // measure 9
2000
0000
0010
0000
3001
1000
0001
0100
,  // measure 10
0020
0000
0130
0001
2000
0000
3100
0010
,  // measure 11
0002
0000
0010
0000
0000
0010
0000
0000
1000
0000
0000
1000
0000
0000
0103
0000
,  // measure 12
0120
0000
1030
0001
2000
0000
3100
0010
,  // measure 13
0001
0100
0010
1000
0000
0010
0100
0001
,  // measure 14
2000
0000
3001
0010
0200
0000
1300
0001
,  // measure 15
0100
0010
1000
0001
0000
0100
0010
0100
,  // measure 16
2000
0000
3100
0010
2000
0000
3100
0010
,  // measure 17
0001
0010
0100
0001
0000
0100
0010
0100
,  // measure 18
0002
0000
0103
0010
0002
0000
1003
0010
,  // measure 19
0100
0001
1000
0010
0000
1010
0000
0000
,  // measure 20
0210
0000
0301
1000
0200
0000
0310
0100
,  // measure 21
0020
0000
1000
0000
0100
0000
0031
0100
,  // measure 22
0020
0000
0130
0010
0200
0000
0302
0010
,  // measure 23
0023
0000
1000
0000
0100
0000
0031
0100
,  // measure 24
2000
0000
3100
0010
2000
0000
3001
1000
,  // measure 25
0020
0000
0100
0000
0001
0000
1030
0100
,  // measure 26
0002
0000
0103
0010
0200
0000
2300
0001
,  // measure 27
3002
0000
0000
0000
0203
0000
0000
0000
0320
0000
0000
0000
1030
0001
0010
0100
,  // measure 28
2000
0000
0100
0000
3010
1000
0100
0020
,  // measure 29
0000
0031
1000
0010
0001
0000
0110
0100
,  // measure 30
0002
0000
0010
0000
1003
0000
0100
0020
,  // measure 31
0000
0000
0031
0000
0010
0000
0100
0000
0001
0000
0000
0000
0110
0000
0100
0010
,  // measure 32
0002
0000
0010
0000
1003
0001
0100
0020
,  // measure 33
0000
0130
1000
0100
0000
0001
1001
0001
,  // measure 34
0020
0230
2300
3002
,  // measure 35
0203
0000
0010
0000
0301
1000
1000
0000
,  // measure 36
1200
0000
0310
0001
1000
0020
0001
0000
,  // measure 37
0130
0010
1000
0001
0100
0000
0001
0000
,  // measure 38
0020
0000
0130
1000
0100
0020
1000
0000
,  // measure 39
0130
0010
0001
1000
0100
0000
1000
0000
,  // measure 40
0020
0000
0130
0001
1000
0020
0001
0000
,  // measure 41
0130
0001
1000
0001
0010
0000
0100
1000
,  // measure 42
0010
0001
0100
1000
,  // measure 43
0001
0100
1000
0100
0001
0010
0100
0000
,  // measure 44
0011
0000
0000
0000
1000
0000
0000
0000
0010
0000
0000
0010
1000
0000
0002
0000
,  // measure 45
0100
0003
0001
0000
1000
0000
0000
0000
0100
0000
0020
0000
0001
0000
0000
0000
,  // measure 46
0130
0000
0000
0000
1000
0000
0000
0000
0001
0000
0000
0001
0010
0000
0200
0000
,  // measure 47
0010
0300
0100
0000
1000
0000
0000
0000
0010
0000
0200
0000
0001
0000
0000
0000
,  // measure 48
0310
0000
0000
0000
1000
0000
0000
0000
0100
0000
0000
0100
0010
0000
0002
0000
,  // measure 49
1000
0003
0001
0000
0100
0000
0000
0000
0010
0000
2000
0000
0001
0000
0000
0000
,  // measure 50
3010
0000
0000
0000
1000
0000
0000
0000
0001
0000
0000
0001
1000
0000
0010
0000
,  // measure 51
1010
0011
0101
1100
,  // measure 52
2001
0000
0000
3001
0010
0000
0100
0000
1000
0000
0020
0000
0001
0000
0000
0000
,  // measure 53
0130
0001
0001
0010
0100
0010
0001
0000
,  // measure 54
0021
0000
0000
0130
1000
0000
0001
0000
0100
0000
0020
0000
0001
0000
0000
0000
,  // measure 55
0130
0010
0010
1000
0001
0010
0100
0000
,  // measure 56
1200
0000
0000
0310
0001
0000
1000
0000
0010
0000
0200
0000
1000
0000
0000
0000
,  // measure 57
0310
1000
1000
0001
0010
0000
0100
1000
,  // measure 58
0010
0000
0000
0010
0002
0000
0000
0000
0103
0000
0000
0100
2000
0000
0000
0000
,  // measure 59
3001
0000
1000
0010
1000
0000
0001
0000
0010
0000
0100
0000
1000
0000
0001
0000
,  // measure 60
0100
0000
0000
0100
2000
0000
0000
0000
3010
0000
0000
0010
0002
0000
0000
0000
,  // measure 61
1003
0010
0100
0010
1000
0001
0010
0100
,  // measure 62
2000
0010
3002
0010
,  // measure 63
2000
0000
0000
0000
,  // measure 64
3003
0000
0000
0000
;

//---------------dance-double - First doubles chart I'm submitting to a contest. Maybe it's good, but I don't know.----------------
#NOTEDATA:;
#CHARTNAME:C8 X11;
#STEPSTYPE:dance-double;
#DESCRIPTION:First doubles chart I'm submitting to a contest. Maybe it's good, but I don't know.;
#CHARTSTYLE:Pad;
#DIFFICULTY:Hard;
#METER:8;
#RADARVALUES:0.450000,0.453333,0.125000,0.558333,0.087500,378.000000,363.000000,15.000000,67.000000,0.000000,0.000000,0.000000,0.000000,0.000000,0.450000,0.453333,0.125000,0.558333,0.087500,378.000000,363.000000,15.000000,67.000000,0.000000,0.000000,0.000000,0.000000,0.000000;
#CREDIT:CuzcoBlocko;
#DISPLAYBPM:132.000000;
#NOTES:
00000000
00000000
00000000
00000000
,
00000000
00000000
00000000
00000000
,
00000000
00000000
00000000
00000000
,
00020000
00000000
00000000
00000000
10030000
00100000
00100000
01000000
,
00020000
00000000
10030000
01000000
00100000
10000000
00100000
01000000
,
20000000
00000000
00100000
00000000
30010000
00100000
01000000
00100000
,
00002000
00000000
00013000
00000010
00000100
00001000
00000100
00000010
,
00002000
00000000
00000001
00000000
00003100
00000010
00000001
00001000
,
00000200
00000000
00001300
00000010
00000200
00000000
00001300
00000100
,
00000020
00000000
00000100
00000000
00010030
00001000
00100000
01000000
,
20000000
00000000
30100000
01000000
00020000
00000000
00130000
01000000
,
10000000
00000000
01000000
00000000
00000000
00010000
00000000
00000000
00001000
00000000
00000000
00000100
00000000
00000000
00000001
00000000
,
00000201
00000000
00000310
00001000
00000002
00000000
00000013
00000100
,
00001000
00000100
00000010
00000001
00000000
00000010
00000100
00001000
,
00000020
00000000
00000130
00000001
00002000
00000000
00003001
00000010
,
00000100
00001000
00000010
00000100
00000000
00000010
00001000
00000100
,
00000002
00000000
00000103
00000010
00000002
00000000
00001003
00000010
,
00000100
00000001
00000010
00000100
00000000
00010000
00100000
01000000
,
20000000
00000000
31000000
00100000
20000000
00000000
30100000
01000000
,
00010000
00000000
00100000
00000000
00000000
01000000
00000000
00000000
10000000
00000000
00000000
00100000
00000000
00000000
01000000
00000000
,
02100000
00000000
03010000
00100000
02000000
00000000
13000000
00010000
,
00200000
00000000
10000000
00000000
00010000
00000000
01300000
10000000
,
00020000
00000000
01030000
00100000
20000000
00000000
30200000
01000000
,
02300000
00000000
10000000
00000000
00100000
00000000
03010000
00100000
,
20000000
00000000
30100000
01000000
20000000
00000000
31000000
00010000
,
00002000
00000000
00010000
00000000
00000010
00000000
00013000
00000010
,
00000002
00000000
00000013
00000100
00000002
00000000
00000103
00000010
,
00002000
00000000
00000000
00000000
00003020
00000000
00000000
00000000
00000230
00000000
00000000
00000000
00000301
00000010
00000100
00001000
,
00000002
00000000
00000010
00000000
00001003
00000010
00000100
00000020
,
00000000
00000130
00000001
00000010
00001000
00000000
00011000
00010000
,
02000000
00000000
00100000
00000000
13000000
00000000
00010000
02000000
,
00000000
00000000
03010000
00000000
01000000
00000000
00100000
00000000
10000000
00000000
00000000
00000000
10100000
00000000
00100000
01000000
,
00020000
00000000
00100000
00000000
01030000
00100000
01000000
00002000
,
00000000
00013000
00000010
00000100
00000001
00000000
00000011
00000010
,
00000200
00002300
00003002
00000203
,
00000320
00000000
00000230
00000000
00002300
00010000
00013000
00000000
,
00012000
00000000
00103000
01000000
10000000
02000000
00010000
00000000
,
03100000
00010000
10000000
00100000
01000000
00000000
00010000
00000000
,
00200000
00000000
01300000
10000000
00100000
02000000
10000000
00000000
,
03100000
10000000
00010000
00100000
01000000
00000000
00010000
00000000
,
00002000
00000000
00013000
00000100
00001000
00000020
00000001
00000000
,
00000130
00000010
00001000
00000001
00000010
00000000
00000100
00001000
,
00000010
00000001
00000100
00001000
,
00000010
00000000
00000100
00000000
00000000
00001000
00000000
00000000
00010000
00000000
00000000
01000000
00000000
00000000
10000000
00000000
,
00010000
00000000
00000000
00000000
00010000
00000000
00000000
00000000
00100000
00000000
00000000
00100000
00010000
00000000
20000000
00000000
,
00100000
30000000
10000000
00000000
00010000
00000000
00000000
00000000
01000000
00000000
00200000
00000000
10000000
00000000
00000000
00000000
,
01300000
00000000
00000000
00000000
00010000
00000000
00000000
00000000
00100000
00000000
00000000
00100000
00001000
00000000
00020000
00000000
,
00031000
00010000
00000100
00000000
00000010
00000002
00001000
00000000
,
00000013
00000000
00000000
00000000
00000100
00000000
00000000
00000000
00000010
00000000
00000000
00000010
00000001
00000000
00002000
00000000
,
00000010
00003000
00001000
00000000
00000100
00000000
00000000
00000000
00001000
00000000
00000020
00000000
00001000
00000000
00000000
00000000
,
00000130
00000000
00000000
00000000
00000010
00000000
00000000
00000000
00001000
00000000
00000000
00001000
00000001
00000000
00000000
00000000
,
00000011
00001100
00011000
01010000
,
10200000
00000000
00000000
01300000
00010000
00000000
10000000
00000000
01000000
00000000
00200000
00000000
10000000
00000000
00000000
00000000
,
01300000
00100000
00010000
01000000
10000000
00000000
11000000
00000000
,
02100000
00000000
00000000
03100000
10000000
00000000
01000000
00000000
00100000
00000000
02000000
00000000
00010000
00000000
00000000
00000000
,
03100000
00001000
00010000
00000010
00000100
00000000
00000101
00000000
,
00000210
00000000
00000000
00000301
00001000
00000000
00000001
00000000
00000100
00000000
00000020
00000000
00000001
00000000
00000000
00000000
,
00000130
00000010
00001000
00000100
00010000
00000000
00001000
00100000
,
01000000
00000000
00000000
01000000
00010000
00000000
00000000
00000000
00100000
00000000
00000000
00100000
10000000
00000000
00000000
00000000
,
00010000
00000000
01000000
00100000
01000000
00000000
00010000
00000000
00100000
00000000
10000000
00000000
00100000
00000000
00010000
00000000
,
01000000
00000000
00000000
01000000
10000000
00000000
00000000
00000000
00100000
00000000
00000000
00100000
00010000
00000000
00000000
00000000
,
01000000
00010000
00100000
00001000
00010000
00000100
00000010
00000001
,
00000020
00001030
00000020
00000031
,
00002000
00000000
00000000
00000000
,
00003000
00000000
00000000
00000000
;

//---------------dance-single - Most of this is Ctrl+R! c\;----------------
#NOTEDATA:;
#CHARTNAME:C2 X3;
#STEPSTYPE:dance-single;
#DESCRIPTION:Most of this is Ctrl+R! c\;;
#CHARTSTYLE:Pad;
#DIFFICULTY:Beginner;
#METER:2;
#RADARVALUES:0.176190,0.236250,0.166667,0.000000,0.000000,148.000000,128.000000,20.000000,0.000000,0.000000,0.000000,0.000000,0.000000,0.000000,0.176190,0.236250,0.166667,0.000000,0.000000,148.000000,128.000000,20.000000,0.000000,0.000000,0.000000,0.000000,0.000000,0.000000;
#CREDIT:CuzcoBlocko;
#DISPLAYBPM:132.000000;
#NOTES:
0000
0000
0000
0000
,
0000
0000
0000
0000
,
0000
0000
0000
0000
,
0000
0000
0000
0000
,
1000
0000
0001
0000
,
1000
0000
0000
0000
,
0010
0000
0100
0000
,
0010
0000
0000
0000
,
1000
0000
0001
0000
,
1000
0000
0000
0000
,
0100
0000
0010
0000
,
0100
0100
0100
0000
,
0110
0000
0010
0000
,
0000
0000
0000
0000
,
0001
0000
0001
0000
,
0000
0000
0000
0000
,
1000
0000
1000
0000
,
0000
0000
0000
0000
,
0010
0000
0010
0000
,
0100
0100
0100
0000
,
1001
0000
0001
0000
,
1000
1000
1000
0000
,
0100
0000
0010
0000
,
0100
0100
0100
0000
,
1000
0000
0001
0000
,
0100
0100
0100
0000
,
0010
0000
0100
0000
,
0001
0001
0001
0000
,
1001
0000
1000
0000
,
0001
0000
0000
0110
,
0010
0000
0100
0000
,
0010
0000
0000
1001
,
0001
0000
1000
0000
,
0001
0001
0000
1001
,
0001
0000
1000
0000
,
0100
0100
0100
0000
,
0110
0000
0100
0000
,
0010
0000
0000
0000
,
1001
0000
0001
0000
,
1000
0000
0000
0000
,
0110
0000
0010
0000
,
0100
0000
0000
0000
,
1000
0000
0001
0000
,
1001
0000
0000
0000
,
1000
1000
1000
1000
,
1000
0000
0001
0000
,
0001
0001
0001
0001
,
0001
0000
1000
0000
,
0100
0100
0100
0100
,
0100
0000
0010
0000
,
0010
0010
0010
0000
,
1000
1000
1000
0000
,
1001
0000
0110
0000
,
1000
1000
1000
0000
,
0110
0000
1001
0000
,
0010
0010
0010
0000
,
1001
0000
0110
0000
,
0001
0001
0001
0000
,
1000
1000
1000
0000
,
1001
0000
0110
0000
,
0010
0010
0010
0000
,
0110
0000
1001
0000
,
1000
1000
1000
0000
,
0001
0000
0000
0000
;

//---------------dance-single - Contains a photo finish ending.----------------
#NOTEDATA:;
#CHARTNAME:C4 X6;
#STEPSTYPE:dance-single;
#DESCRIPTION:Contains a photo finish ending.;
#CHARTSTYLE:Pad;
#DIFFICULTY:Easy;
#METER:3;
#RADARVALUES:0.241667,0.266667,0.091667,0.316667,0.000000,203.000000,192.000000,11.000000,38.000000,0.000000,0.000000,0.000000,0.000000,0.000000,0.241667,0.266667,0.091667,0.316667,0.000000,203.000000,192.000000,11.000000,38.000000,0.000000,0.000000,0.000000,0.000000,0.000000;
#CREDIT:CuzcoBlocko;
#DISPLAYBPM:132.000000;
#NOTES:
0000
0000
0000
0000
,
0000
0000
0000
0000
,
0000
0000
0000
0000
,
0000
0000
1000
0010
,
2000
3000
0001
0010
,
0002
0003
1000
0010
,
0200
0300
0001
0010
,
0200
0300
1000
0001
,
0200
0300
0010
1000
,
0002
0000
0003
1000
,
0200
0300
0010
0001
,
2002
0000
3003
0000
,
0001
0000
0100
0000
,
0010
1000
0001
0010
,
0100
0000
1000
0000
,
0100
0010
0001
0100
,
0010
0000
0001
0000
,
0010
0100
0001
0010
,
1000
0000
0010
0100
,
1000
0001
0100
0100
,
0110
0000
1001
0000
,
0002
0023
0230
2300
,
3001
0000
1000
0000
,
0020
0230
0302
2003
,
3100
0000
0001
0000
,
0200
2300
3020
0230
,
0310
0000
0001
0000
,
0020
2030
3002
0003
,
1001
0000
0001
0001
,
0001
0000
0010
0110
,
0010
0000
0100
0100
,
0100
0000
1000
1001
,
1000
0000
0001
0001
,
0001
0100
0010
0110
,
0010
1000
0010
0010
,
0020
0000
0030
0110
,
2002
3003
0001
0010
,
0001
1000
0010
0100
,
0020
0030
0100
0010
,
1000
0001
0010
0100
,
0020
0030
0001
1000
,
0010
0100
0001
0010
,
1000
0100
0001
0100
,
0020
0000
0030
0000
,
1001
0001
0001
0010
,
0100
0100
0100
1000
,
0001
0001
0001
0100
,
0010
0010
0010
1000
,
0001
0001
0001
0010
,
1000
1000
1000
0100
,
0001
0010
0100
1000
,
0010
0001
0100
1000
,
2002
3003
0001
0010
,
0100
0001
0100
1000
,
0002
0003
0100
0010
,
0001
0010
0100
0001
,
0020
0030
0100
1000
,
0100
0001
0100
0010
,
0001
0100
1000
0010
,
0002
0000
0003
1000
,
0100
0001
0010
1000
,
0002
0000
0003
0100
,
0001
0010
0100
0002
,
2000
0000
0000
0000
,
3003
0000
0000
0000
;

//---------------dance-single - Should be good for what it is.----------------
#NOTEDATA:;
#CHARTNAME:C6 X9;
#STEPSTYPE:dance-single;
#DESCRIPTION:Should be good for what it is.;
#CHARTSTYLE:Pad;
#DIFFICULTY:Medium;
#METER:6;
#RADARVALUES:0.367857,0.373333,0.133333,0.483333,0.016667,309.000000,293.000000,16.000000,58.000000,0.000000,0.000000,0.000000,0.000000,0.000000,0.367857,0.373333,0.133333,0.483333,0.016667,309.000000,293.000000,16.000000,58.000000,0.000000,0.000000,0.000000,0.000000,0.000000;
#CREDIT:Cuzco;
#DISPLAYBPM:132.000000;
#NOTES:
0000
0000
0000
0000
,
0000
0000
0000
0000
,
0000
0000
0000
0000
,
0000
0000
0000
0000
0100
0010
0010
0000
,
1002
0000
0203
0000
0310
0100
0001
1000
,
0200
0000
0320
0000
0031
1000
0010
0100
,
0020
0000
0230
0000
0301
1000
0100
0010
,
0002
0000
2003
0000
3001
0010
0100
1000
,
0002
0000
0103
0010
2000
0000
3010
0100
,
0002
0000
2003
0000
0000
3001
0010
0100
,
2000
0000
3100
0010
0002
0000
1003
0010
,
0200
0302
2003
3100
,
0110
0010
0001
1000
,
0010
0100
0001
0020
0000
0230
1000
0300
,
0100
0010
0001
1000
,
0010
0100
0001
2000
0000
3020
0100
0030
,
0102
1003
0100
0010
,
0001
0010
0100
0002
0000
0203
0010
0300
,
0010
0000
0001
0000
1000
0000
0100
0010
,
0000
0100
2000
0010
0000
0020
3030
0000
,
0102
1003
0100
0010
,
0002
0023
0230
2300
,
3001
0100
0010
0200
,
2300
0000
3200
0000
0320
1000
2030
0000
,
3001
0010
0100
1000
,
0200
0320
2030
3020
,
0130
1000
0001
0100
,
0002
0000
0203
0000
2300
0000
3100
0010
,
1000
0000
0100
0010
0001
0000
1000
0001
,
0000
0100
0010
0100
0001
0000
1001
0000
,
0001
0000
0010
0001
1000
0000
0100
1000
,
0000
0100
0010
0100
1000
0000
1100
0000
,
1001
0000
0001
0000
0200
0000
0310
1000
,
0000
0100
0001
0100
0000
1000
0001
0000
,
0100
0010
0020
1030
,
0002
0000
0000
0000
0000
0010
0013
0000
,
1100
0000
1000
0000
0001
0100
0010
0000
,
0100
0010
1000
0001
0100
0000
0001
0000
,
1000
0000
0001
0000
0010
0100
0010
0000
,
0100
1000
0001
0010
0100
0000
0010
0000
,
0001
0000
1000
0010
0100
0001
0010
0000
,
0100
1000
0001
1000
0100
0000
1000
0010
,
0100
0010
1000
0001
,
0200
0010
0010
0310
,
1010
0000
0000
0000
0010
0000
0000
0000
0100
0000
0000
0100
0000
0000
0100
0000
,
0000
0101
0000
0000
1000
0002
0000
0003
,
0010
0000
0000
0000
0100
0000
0000
0000
1000
0000
0000
1000
0000
0000
1000
0000
,
0000
1100
0000
0000
0010
0002
0000
0003
,
1000
0000
0000
0000
0010
0000
0000
0000
0100
0000
0000
0100
0000
0000
0100
0000
,
0000
0110
0000
0000
1000
0002
0000
0003
,
0100
0000
0000
0000
0001
0000
0000
0000
1000
0000
0000
1000
0000
0000
2000
0000
,
0001
0010
0001
3100
,
0011
0000
0001
0000
0010
0100
1000
0000
,
0001
0100
1000
0100
0001
0000
0001
0000
,
0010
0000
0100
0000
1000
0100
0010
0000
,
1000
0010
0001
0010
0100
0000
0100
0000
,
1000
0000
0001
0000
1000
0010
0100
0000
,
0001
0100
1000
0100
0001
0000
1000
0100
,
0010
1000
0001
0010
,
2000
0000
0001
0001
3001
0000
1000
0010
,
0100
1000
0001
0100
,
1000
0100
1000
0100
1000
0000
0001
0000
,
0202
0303
2002
3003
,
0022
0000
0000
0000
,
0033
0000
0000
0000
;

//---------------dance-double - Rhythms are mostly copied from singles. Eh.----------------
#NOTEDATA:;
#CHARTNAME:C3 X5;
#STEPSTYPE:dance-double;
#DESCRIPTION:Rhythms are mostly copied from singles. Eh.;
#CHARTSTYLE:Pad;
#DIFFICULTY:Easy;
#METER:3;
#RADARVALUES:0.245238,0.293333,0.108333,0.300000,0.000000,206.000000,193.000000,13.000000,36.000000,0.000000,0.000000,0.000000,0.000000,0.000000,0.245238,0.293333,0.108333,0.300000,0.000000,206.000000,193.000000,13.000000,36.000000,0.000000,0.000000,0.000000,0.000000,0.000000;
#CREDIT:CuzcoBlocko;
#DISPLAYBPM:132.000000;
#NOTES:
00000000
00000000
00000000
00000000
,
00000000
00000000
00000000
00000000
,
00000000
00000000
00000000
00000000
,
00000000
00000000
00000100
00000010
,
00002002
00003003
00000001
00000100
,
00000020
00000030
00000100
00000010
,
00002000
00003000
00001000
00000001
,
00000020
00000030
00000100
00000010
,
00000002
00000003
00000100
00000010
,
00002000
00003000
00000100
00000010
,
00000002
00000003
00000100
00000010
,
00020000
00000000
00030000
00011000
,
00001000
00000000
00100000
00000000
,
00000000
01000000
00100000
00010000
,
10000000
00000000
00010000
00000000
,
00000000
01000000
00100000
01000000
,
10000000
00000000
01000000
00000000
,
00000000
00100000
10000000
01000000
,
00010000
00000000
01000000
10000000
,
00010000
00100000
00001000
00010000
,
00011000
00001000
00010000
00000000
,
00000200
00000320
00000032
00002003
,
00003100
00000000
00000010
00000000
,
00002000
00003020
00000230
00002300
,
00003002
00000003
00001000
00000000
,
00000020
00000230
00002300
00003200
,
00000310
00000000
00001000
00000000
,
00000002
00000023
00000230
00010300
,
00011000
00000000
00001000
00100000
,
00100000
00000000
01000000
01100000
,
01000000
00000000
10000000
00010000
,
10000000
00000000
00010000
10010000
,
00010000
00000000
10000000
00100000
,
10000000
01000000
01000000
01100000
,
01000000
10000000
00010000
00100000
,
00002000
00000000
00003000
00010000
,
00021000
00000000
00030100
00000010
,
00000100
00001000
00000001
00001000
,
00000020
00000030
00000100
00001000
,
00000100
00000010
00000100
00000001
,
00002000
00003000
00000100
00000010
,
00000100
00010000
00001000
01000000
,
00100000
00010000
01000000
00100000
,
00020000
00000000
00030000
00000000
,
10010000
10000000
00100000
00100000
,
01000000
00100000
00000000
01100000
,
10010000
00010000
10000000
10000000
,
01000000
10000000
00000000
01000000
,
01100000
00100000
00010000
00100000
,
01000000
10000000
00010000
01000000
,
00100000
01000000
00010000
10000000
,
01000000
00010000
00100000
10000000
,
10010000
00010000
00100000
01000000
,
00100000
00010000
10000000
00010000
,
02000000
03000000
00100000
00010000
,
00100000
01000000
10000000
00010000
,
00200000
01300000
00100000
00001000
,
00010000
00000010
00000001
00000010
,
00001000
00000100
00000001
00000010
,
00002000
00000000
00003000
00000001
,
00000100
00001000
00000010
00000001
,
00002000
00000000
00003000
00000100
,
00000001
00000100
00001000
00000002
,
00002000
00000000
00000000
00000000
,
00003003
00000000
00000000
00000000
;

//---------------dance-double - Um...----------------
#NOTEDATA:;
#CHARTNAME:C6 X9;
#STEPSTYPE:dance-double;
#DESCRIPTION:Um...;
#CHARTSTYLE:Pad;
#DIFFICULTY:Medium;
#METER:6;
#RADARVALUES:0.366667,0.400000,0.091667,0.483333,0.016667,308.000000,297.000000,11.000000,58.000000,0.000000,0.000000,0.000000,0.000000,0.000000,0.366667,0.400000,0.091667,0.483333,0.016667,308.000000,297.000000,11.000000,58.000000,0.000000,0.000000,0.000000,0.000000,0.000000;
#CREDIT:CuzcoBlocko;
#DISPLAYBPM:132.000000;
#NOTES:
00000000
00000000
00000000
00000000
,
00000000
00000000
00000000
00000000
,
00000000
00000000
00000000
00000000
,
00000000
00000000
00000000
00000000
00002000
00010000
00013000
00000000
,
00021000
00000000
00030100
00000000
00000010
00000001
00001000
00000001
,
00002000
00000000
00003001
00000000
00000100
00000010
00000100
00000001
,
00002000
00000000
00003001
00000000
00000010
00000100
00001000
00000100
,
00000020
00000000
00000130
00000000
00000100
00001000
00000001
00001000
,
00000020
00000000
00010030
00001000
00200000
00000000
01300000
10000000
,
00020000
00000000
20030000
00000000
30010000
01000000
00100000
01000000
,
00020000
00000000
10030000
01000000
00200000
00000000
01300000
10000000
,
00020000
20030000
00200000
30300000
,
01010000
01000000
00001000
00010000
,
00000100
00000010
00000001
00001000
00000000
00000020
00000100
00000000
,
00001030
00000001
00000010
00000001
,
00001000
00000100
00000010
00000001
00000000
00002000
00000001
00000000
,
00003010
00000100
00000001
00001000
,
00000100
00000010
00000001
00000010
00000000
00000200
00001000
00000000
,
00000310
00000001
00001000
00000010
,
00010000
00001000
00200000
10000000
00000000
00020000
00330000
00000000
,
10010000
00010000
01000000
00100000
,
00020000
00230000
20300000
32000000
,
03100000
00010000
10000000
02000000
,
03020000
02030000
23000000
30020000
,
01030000
00100000
10000000
01000000
,
00020000
00032000
00003020
00000032
,
00001003
00000010
00000100
00000001
,
00002000
00000000
00003200
00000000
00000320
00000000
00000031
00000010
,
00000001
00000000
00001000
00000001
00000010
00000000
00000100
00000010
,
00000000
00000100
00001000
00000001
00000100
00000000
00001000
00000000
,
00010000
00000000
01000000
00010000
01000000
00000000
00100000
00010000
,
00000000
10000000
00100000
01000000
00000000
00000000
11000000
00000000
,
10010000
00000000
10000000
00100000
01000000
00000000
01000000
00100000
,
00000000
01000000
10000000
01000000
00010000
00000000
01010000
00000000
,
00020000
00230000
02300000
23000000
,
30020000
00000000
00000000
00000000
00000000
00100000
00130000
00000000
,
00102000
00000000
00013000
00000000
00000100
00001000
00000010
00000000
,
00000100
00000001
00000100
00000010
00000100
00000000
00000001
00000000
,
00002000
00000000
00003100
00000000
00000010
00000100
00000010
00000000
,
00000001
00001000
00000001
00000010
00000100
00000000
00001000
00000000
,
00000002
00000000
00001003
00000000
00000001
00000100
00000010
00000000
,
00000100
00000010
00001000
00000001
00000100
00000000
00000001
00000010
,
00000100
00000001
00000010
00001000
,
00010000
00000000
01000000
00000000
00100000
00000000
01000000
00100000
,
00010000
00000000
00000000
00000000
00100000
00000000
00000000
00000000
01000000
00000000
00000000
01000000
00000000
00000000
00020000
00000000
,
00000000
10030000
00000000
00000000
01000000
00200000
01300000
00000000
,
10000000
00000000
00000000
00000000
00010000
00000000
00000000
00000000
01000000
00000000
00000000
01000000
00000000
00000000
00020000
00000000
,
00000000
10030000
00000000
00000000
01000000
00200000
01300000
00000000
,
00100000
00000000
00000000
00000000
00010000
00000000
00000000
00000000
10000000
00000000
00000000
10000000
00000000
00000000
00020000
00000000
,
00000000
10030000
00100000
00000000
01000000
00200000
01300000
00000000
,
00010000
00000000
00000000
00000000
00100000
00000000
00000000
00000000
00001000
00000000
00000000
00001000
00000000
00000000
00010000
00000000
,
00001000
00010000
00000010
00000100
,
00000201
00000000
00000301
00000000
00001000
00000100
00000010
00000000
,
00000100
00001000
00000001
00001000
00000100
00000000
00000010
00000000
,
00000200
00000000
00001300
00000000
00000001
00000100
00000010
00000000
,
00000100
00000010
00001000
00000010
00000100
00000000
00000001
00000000
,
00002000
00000000
00003100
00000000
00000010
00000001
00000010
00000000
,
00000100
00001000
00000010
00001000
00000100
00000000
00000100
00000010
,
00000001
00000100
00001000
00010000
,
00100000
10000000
01000000
00100000
00010000
00000000
10000000
01000000
,
00100000
01000000
00010000
00001000
,
00000010
00000001
00000100
00000010
00000100
00000000
00000001
00000000
,
00000022
00000033
00002200
00003300
,
00022000
00000000
00000000
00000000
,
00033000
00000000
00000000
00000000
;
