#VERSION:0.83;
#TITLE:Mewtwo;
#SUBTITLE:;
#ARTIST:Moldavite;
#TITLETRANSLIT:;
#SUBTITLETRANSLIT:;
#ARTISTTRANSLIT:;
#GENRE:Trap;
#ORIGIN:;
#CREDIT:Feraligatr;
#BANNER:Mewtwo.png;
#BACKGROUND:Mewtwo-bg.png;
#PREVIEWVID:;
#JACKET:Mewtwo-jacket.png;
#CDIMAGE:;
#DISCIMAGE:;
#LYRICSPATH:;
#CDTITLE:cuzco.png;
#MUSIC:Mewtwo.ogg;
#OFFSET:0.013000;
#SAMPLESTART:39.987000;
#SAMPLELENGTH:20.000000;
#SELECTABLE:YES;
#DISPLAYBPM:96.000000;
#BPMS:0.000=48.000,
16.000=96.000,
47.000=48.000,
47.250=96.000,
47.500=192.000,
48.000=96.000,
55.000=48.000,
55.250=96.000,
55.500=192.000,
56.000=96.000,
71.000=48.000,
71.250=96.000,
71.500=192.000,
72.000=96.000,
103.000=48.000,
103.250=96.000,
103.500=192.000,
104.000=96.000,
143.000=48.000,
143.250=96.000,
143.500=192.000,
144.000=96.000,
151.000=48.000,
151.250=96.000,
151.500=192.000,
152.000=96.000,
167.000=48.000,
167.250=96.000,
167.500=192.000,
168.000=96.000;
#STOPS:;
#DELAYS:;
#WARPS:;
#TIMESIGNATURES:0.000=4=4;
#TICKCOUNTS:0.000=4;
#COMBOS:0.000=1;
#SPEEDS:0.000=1.000=0.000=0;
#SCROLLS:0.000=1.000;
#FAKES:;
#LABELS:0.000=Song Start;
#BGCHANGES:;
#KEYSOUNDS:;
#ATTACKS:
;

//---------------dance-single - I TRIED. LET THE MAN KNOW I TRIED.----------------
#NOTEDATA:;
#CHARTNAME:C 9 X 14;
#STEPSTYPE:dance-single;
#DESCRIPTION:I TRIED. LET THE MAN KNOW I TRIED.;
#CHARTSTYLE:Pad;
#DIFFICULTY:Hard;
#METER:9;
#RADARVALUES:0.553143,0.580800,0.304000,0.720000,0.680000,484.000000,446.000000,38.000000,90.000000,33.000000,0.000000,34.000000,0.000000,0.000000,0.553143,0.580800,0.304000,0.720000,0.680000,484.000000,446.000000,38.000000,90.000000,33.000000,0.000000,34.000000,0.000000,0.000000;
#CREDIT:CuzcoBlocko;
#DISPLAYBPM:96.000000;
#NOTES:
// measure 0
0000
0M00
0000
M000
0000
0M00
0000
0000
0000
0M00
0000
000M
0000
0M00
0000
0000
,  // measure 1
0000
0M00
0000
M000
0000
0M00
0000
0000
0000
000M
0000
0M00
0000
M000
0000
0000
,  // measure 2
2000
0100
0000
0001
0000
0100
0000
0000
3002
0100
0000
1000
0000
0100
0000
0000
,  // measure 3
2003
0100
0000
0001
0000
0100
0000
0000
3020
0100
0000
1000
0000
0100
0001
0000
,  // measure 4
203M
0100
3002
0100
2003
0100
3001
0000
,  // measure 5
0002
0100
2003
0100
3002
0100
1003
0000
,  // measure 6
1000
2000
0100
0000
3002
0000
0100
0000
2003
0000
0100
0000
3001
0000
0000
0000
,  // measure 7
0001
0002
0100
0000
2003
0000
0100
0000
3002
0000
0010
0000
1003
0000
0000
0000
,  // measure 8
1000
1010
0001
0011
1000
0110
1000
1000
,  // measure 9
0001
0011
1000
1010
0001
0110
0001
0001
,  // measure 10
0100
0001
0010
0001
1000
0100
0001
0100
0010
0001
0100
0010
1000
0010
0100
0001
,  // measure 11
2000
0000
0000
3010
0000
0000
0100
0000
0000
0010
0000
0000
2000
0000
0000
3001
0000
0000
0010
0000
0000
0100
0000
0000
2000
0000
0000
3100
0000
0000
0040
0000
0400
0000
0000
0000
0000
0000
0000
0000
0000
0000
0000
0000
0000
0000
0000
0000
M33M
0000
0000
0000
0MM0
0000
0000
0000
0000
0000
0000
0000
0000
0000
0000
0000
,  // measure 12
1200
0000
0010
0310
0001
0000
0010
0001
2000
0000
0010
0000
3001
0100
0010
0000
,  // measure 13
0201
0000
0010
0310
1000
0000
0010
1000
0001
0000
0011
0000
2000
0MMM
0000
0000
,  // measure 14
3001
2000
0010
3010
0100
0000
0010
1000
0002
0000
0010
0000
1003
0100
0010
0000
,  // measure 15
0001
0200
0010
0310
0001
0000
0010
0100
0001
0000
1010
0000
1000
0001
0040
0030
,  // measure 16
2001
0000
0010
3010
0100
0000
0010
0000
1000
0000
1010
0000
0001
2000
0010
0000
,  // measure 17
3200
0000
0010
0310
1000
0000
0010
0100
1000
0000
0011
0000
0002
0000
MMM0
0000
,  // measure 18
1003
0002
0010
0013
0100
0000
0010
0001
1000
0000
1010
0000
1000
0002
0010
0000
,  // measure 19
1003
0000
0200
0000
0010
0000
0310
0000
1000
0000
0000
0000
0010
0000
0001
0000
1000
0000
0000
0000
0011
0000
0000
0000
0002
0000
1000
0000
0000
1003
0000
0000
,  // measure 20
1020
0000
0130
1000
0100
0000
0402
0300
0103
0010
0001
0010
0200
0301
1000
0100
,  // measure 21
0020
0000
0130
0001
0100
0000
4200
3000
1300
0100
0010
1000
0020
0130
1000
0100
,  // measure 22
0020
0031
0100
0010
1000
0000
2040
0030
3010
0100
1000
0100
0020
0130
0001
1000
,  // measure 23
0020
1030
0100
0010
4000
3040
0230
1300
0004
0403
0310
1000
0002
0043
0100
0030
,  // measure 24
0021
0000
0100
0000
1000
0000
0230
0000
1300
0001
0010
0001
2000
3001
0100
0000
,  // measure 25
0200
0000
0310
0100
1000
0000
0200
0000
0301
1000
0010
1000
0004
0000
0000
0000
,  // measure 26
2003
3100
0010
0100
0001
0100
0020
0130
1000
0010
0100
0010
0002
0013
0100
0010
,  // measure 27
2000
0000
0000
3001
0000
0000
1000
0000
0000
0100
0000
0000
0010
0000
0000
0001
0000
0000
0100
0000
0000
0010
0000
0000
0200
0000
0000
0301
0000
0000
4000
0000
0040
0000
0000
0000
0000
0000
0000
0000
0000
0000
0000
0000
3030
0000
0000
0000
0440
0000
0000
0000
0000
0000
0000
0000
0000
0000
0000
0000
0330
0000
0000
0000
,  // measure 28
2001
0000
0000
0000
0000
0000
0000
0000
3010
0000
0000
0000
0100
0000
0000
0000
0010
0000
0000
0000
0000
0000
0000
0000
0010
0000
0000
0000
0000
0000
0000
0000
1000
0000
0000
0000
0000
0000
0000
0000
1000
0040
0000
0000
0000
0000
0000
0000
0130
0000
0000
0000
0002
0000
0000
0000
0100
0000
0000
0000
0000
0000
0000
0000
,  // measure 29
1003
0000
0000
0000
0001
0000
0000
0000
0010
0000
0000
0000
0001
0000
0000
0000
1000
0000
0000
0000
0000
0000
0000
0000
0100
0000
0000
0000
1000
0000
0000
0000
0001
0000
0000
0000
0000
0000
0000
0000
0001
4000
0000
0000
0000
0000
0000
0000
3200
0000
0000
0000
0000
0000
0000
0000
0310
0000
0000
0000
0000
0000
0000
0000
,  // measure 30
1002
0000
0000
0000
0000
0000
0000
0000
0013
0000
0000
0000
0100
0000
0000
0000
0010
0000
0000
0000
0000
0000
0000
0000
0010
0000
0000
0000
0000
0000
0000
0000
0100
0000
0000
0000
0000
0000
0000
0000
0100
4000
0000
0000
0000
0000
0000
0000
3001
0000
0000
0000
2000
0000
0000
0000
0010
0000
0000
0000
0000
0000
0000
0000
,  // measure 31
3001
0000
0000
0000
0010
0000
0001
0000
0010
0000
0001
0000
0010
0000
0000
0000
0001
0000
0000
0000
0000
0000
0000
0000
1000
0000
0000
0000
0001
0000
0000
0000
1000
0000
0000
0000
0000
0000
0000
0000
1000
0040
0000
0000
0000
0000
0000
0000
0130
0000
0000
0000
0010
0000
0000
0000
MM04
0000
0000
0000
0000
0000
0000
0000
,  // measure 32
0013
1000
0000
1000
0010
0000
0100
0001
0100
0010
0001
00M1
0100
0002
1000
0000
,  // measure 33
0013
0001
1000
0001
0010
0000
0400
0340
0130
0010
1000
10M0
0200
0000
0010
0000
,  // measure 34
1300
0010
0000
0010
1000
0000
0001
M010
0100
0010
1000
20M0
0100
0000
0001
0000
,  // measure 35
3010
1000
0001
1000
0010
0000
4000
3040
0130
0010
0001
00M2
2000
00M0
3003
0000
,  // measure 36
0021
0000
0000
0000
1000
0000
0230
0000
0000
0000
0000
0000
1300
0020
0000
0030
,  // measure 37
2010
0000
0000
3020
0001
0000
0230
0000
0000
0000
0320
0030
1010
0000
0000
0000
,  // measure 38
1200
0000
0000
0000
0310
0000
0140
0000
0130
0010
0100
0010
0001
2000
0100
3000
,  // measure 39
2100
0000
0000
3100
0004
0000
0103
0010
0400
0000
0310
0100
4000
0040
0000
3030
,  // measure 40
0201
0000
0010
0000
1300
0000
1200
0000
0010
0000
0301
0000
1000
0200
0010
0300
,  // measure 41
0021
0000
0130
0020
1000
0030
4020
3000
1000
0000
0230
0300
1100
0000
0000
0000
,  // measure 42
1200
0000
0010
0000
0301
0000
0204
0000
0003
0000
0010
0000
1300
0002
0000
0003
,  // measure 43
1020
0000
0130
0020
0001
0030
0021
0000
0100
0000
2030
0000
3004
0040
0000
0000
,  // measure 44
MM33
0000
0000
0000
;

//---------------dance-single - Surprisingly filled with 8ths.----------------
#NOTEDATA:;
#CHARTNAME:C 5 X 8;
#STEPSTYPE:dance-single;
#DESCRIPTION:Surprisingly filled with 8ths.;
#CHARTSTYLE:Pad;
#DIFFICULTY:Easy;
#METER:5;
#RADARVALUES:0.246857,0.281600,0.232000,0.304000,0.000000,216.000000,187.000000,29.000000,38.000000,0.000000,0.000000,0.000000,0.000000,0.000000,0.246857,0.281600,0.232000,0.304000,0.000000,216.000000,187.000000,29.000000,38.000000,0.000000,0.000000,0.000000,0.000000,0.000000;
#CREDIT:CuzcoBlocko;
#DISPLAYBPM:96.000000;
#NOTES:
0000
0000
0000
0000
,
0000
0000
0000
0000
,
0002
0003
2000
3000
,
0002
0003
0020
0030
,
2200
0000
3300
0000
,
0022
0000
0033
0000
,
0202
0000
0303
0000
,
2020
0000
3030
0000
,
1000
0100
0010
0100
,
1000
0001
0100
0010
,
0100
0100
1000
1000
0010
0010
0001
0001
,
2002
0000
0000
3000
0000
0000
0010
0000
0020
0000
0000
0000
0033
0000
0000
0000
,
0011
0000
0001
0010
0100
0000
1000
0000
,
1010
0000
0010
1000
0001
0000
1000
0000
,
1100
0000
1000
0100
0010
0000
0001
0000
,
0101
0000
0100
0010
1000
0010
0100
0000
,
0101
0000
1000
0100
1000
0000
0100
0000
,
0011
0000
1000
0010
0001
0010
0100
0000
,
1010
0000
0001
0010
0001
0000
0010
0000
,
1100
0000
0001
0010
1000
0010
0100
0000
,
1001
0000
0001
1000
0200
0000
0010
0000
,
1300
0000
1000
0001
0200
0000
0010
0000
,
0301
0000
1000
0001
0200
0000
1000
0000
,
0310
0000
1000
0001
0010
0200
0010
0000
,
1300
0000
1000
0002
0010
0000
0103
0000
,
0001
0000
0001
2000
0010
0000
3100
0000
,
0100
0100
0001
0001
0010
0010
1000
1000
,
1001
0000
0001
0010
0000
1000
0010
0100
,
1000
0000
0100
0010
0002
0000
1003
0000
,
0001
0000
0100
0010
2000
0000
3001
0000
,
0101
0000
0010
1000
0002
1000
1003
0000
,
1100
0000
0010
0001
2000
0001
3001
0000
,
0101
0000
0100
0010
0200
0001
0301
0000
,
1010
0000
1000
0010
2000
0001
3001
0000
,
1100
0000
0100
0010
0200
1000
1300
0000
,
0011
0000
0001
0010
0002
2000
3003
0000
,
0201
0010
0000
0301
,
0102
1000
0000
0013
,
1200
0010
0000
1300
,
0021
0100
1000
0130
,
0012
1000
0000
0013
,
2100
0001
0010
3001
,
0102
1000
0010
1003
,
2010
0001
0000
0100
,
3000
0000
0000
0000
;

//---------------dance-single - Hi.----------------
#NOTEDATA:;
#CHARTNAME:C 2 X 3;
#STEPSTYPE:dance-single;
#DESCRIPTION:Hi.;
#CHARTSTYLE:Pad;
#DIFFICULTY:Beginner;
#METER:2;
#RADARVALUES:0.107429,0.140800,0.080000,0.000000,0.000000,94.000000,84.000000,10.000000,0.000000,0.000000,0.000000,0.000000,0.000000,0.000000,0.107429,0.140800,0.080000,0.000000,0.000000,94.000000,84.000000,10.000000,0.000000,0.000000,0.000000,0.000000,0.000000,0.000000;
#CREDIT:CuzcoBlocko;
#DISPLAYBPM:96.000000;
#NOTES:
0000
0000
0000
0000
,
0000
0000
0000
0000
,
0000
0000
0000
0000
,
0000
0000
0000
0000
,
1000
0000
0000
0000
,
0001
0000
0000
0000
,
1000
0000
0000
0000
,
0010
0000
0000
0000
,
1000
0000
1000
0000
,
0001
0000
0001
0000
,
1000
1000
1000
0000
,
0001
0001
0001
0000
,
1001
0000
0100
0000
,
0010
0000
0100
0000
,
1001
0000
0100
0000
,
0010
0000
0100
0000
,
1001
0000
1000
1000
,
1000
0000
0001
0000
,
1001
0000
0010
0010
,
0010
0000
0100
0000
,
1001
0000
1000
0000
,
0010
0000
1000
0000
,
1001
0000
0001
0000
,
0010
0000
0001
0000
,
1000
0000
0100
0100
,
0100
0000
0010
0010
,
0010
0000
0100
0100
,
0100
0000
1001
0000
,
1000
1000
1000
0000
,
0001
0001
0001
0000
,
0100
0100
0100
0000
,
0010
0010
0010
0000
,
1000
1000
1000
0000
,
0001
0001
0001
0000
,
0010
0010
0010
0000
,
0100
0100
0100
0000
,
1001
0000
0000
0000
,
1000
0000
0000
0000
,
0001
0000
0000
0000
,
0010
0000
0000
0000
,
1001
0000
0000
0000
,
0001
0000
0000
0000
,
1000
0000
0000
0000
,
0010
0000
0000
0000
,
1001
0000
0000
0000
;

//---------------dance-single - Don't do things last minute style, okay?----------------
#NOTEDATA:;
#CHARTNAME:C 7 X 11;
#STEPSTYPE:dance-single;
#DESCRIPTION:Don't do things last minute style, okay?;
#CHARTSTYLE:Pad;
#DIFFICULTY:Medium;
#METER:7;
#RADARVALUES:0.344000,0.387200,0.376000,0.576000,0.120000,301.000000,254.000000,47.000000,72.000000,41.000000,0.000000,23.000000,0.000000,0.000000,0.344000,0.387200,0.376000,0.576000,0.120000,301.000000,254.000000,47.000000,72.000000,41.000000,0.000000,23.000000,0.000000,0.000000;
#CREDIT:CuzcoBlocko;
#DISPLAYBPM:48.000000:96.000000;
#NOTES:
// measure 0
0000
0000
0000
0000
,  // measure 1
0000
0000
0000
0000
,  // measure 2
2000
000M
0000
000M
0000
000M
0000
0000
3200
000M
0000
000M
0000
000M
0000
0000
,  // measure 3
0320
000M
0000
000M
0000
000M
0000
0000
2030
000M
0000
000M
0000
000M
00M0
0000
,  // measure 4
3010
0M00
0010
0M00
0010
0M00
0010
0000
,  // measure 5
0001
0M00
0001
0M00
0001
0M00
0001
0000
,  // measure 6
1000
0001
0M00
0000
1000
0000
0M00
0000
1000
0000
0M00
0000
1000
0000
0000
0000
,  // measure 7
0010
1000
0M00
0000
0010
0000
0M00
0000
0010
0000
000M
0000
0010
0000
0000
0000
,  // measure 8
1000
2000
3001
0002
1003
2000
301M
M010
,  // measure 9
0001
0002
1003
2000
3001
0002
M013
001M
,  // measure 10
1000
1010
0100
0101
1000
1100
0010
0011
,  // measure 11
0120
0000
0000
1000
0000
0000
0031
0000
4004
0000
0000
0000
3003
0000
0000
0000
,  // measure 12
1020
0000
0000
0000
0031
0000
0010
0100
0010
0000
0000
0000
1010
0000
0000
0000
,  // measure 13
1002
0000
0000
0000
0013
0000
0100
0010
0100
0000
1000
0000
1100
0000
0000
0000
,  // measure 14
0021
0000
0000
0000
1030
0000
0010
0100
0010
0000
0000
0000
0011
0000
0000
0000
,  // measure 15
1002
0000
0000
1003
0010
0000
0100
0010
0100
0000
0001
0000
0401
0000
0000
0000
,  // measure 16
0310
2000
0100
3002
0203
0302
1003
0002
,  // measure 17
1003
0002
0010
2003
3200
2300
3001
0000
,  // measure 18
1001
0002
0100
2003
3200
2300
3001
2000
,  // measure 19
3010
0000
2000
3001
0020
0000
0032
0000
0203
0000
0302
0000
1003
0040
0000
0030
,  // measure 20
1020
0000
0000
0000
0031
0000
0010
0000
4000
0000
0000
0000
3400
0000
0000
0300
,  // measure 21
0021
0000
0000
1030
0010
0000
0100
0000
4000
0000
0000
0000
3100
0000
0000
0000
,  // measure 22
0021
0000
0000
0000
1030
0000
0010
0000
0004
0000
0000
0000
0403
0000
0000
0300
,  // measure 23
1020
0000
0000
0031
0040
0000
0130
0000
0104
0000
0000
0003
4001
0000
0000
0000
,  // measure 24
3002
M013
001M
2000
301M
M010
0200
0010
,  // measure 25
2300
310M
M100
0002
M103
010M
0040
0000
,  // measure 26
0032
1000
0100
2003
0100
0001
3020
0130
,  // measure 27
0120
0000
0000
0001
0000
0000
1030
0000
4004
0000
0000
0000
3000
0000
0000
0003
,  // measure 28
0201
0010
0010
0320
1000
1030
1001
0000
,  // measure 29
2000
0010
0001
3200
0010
0310
1001
0000
,  // measure 30
1200
0010
0010
0320
0001
0031
1001
0000
,  // measure 31
0002
0010
1000
0203
0010
0310
1001
0000
,  // measure 32
1000
0010
0000
0010
1000
0000
0100
0000
0001
0000
0100
0000
2000
0000
0000
0000
,  // measure 33
3001
0010
0001
0100
1000
0100
0101
0000
,  // measure 34
0001
0010
0000
0010
0001
0000
0100
0000
1000
0000
0100
0000
0001
0000
0000
0000
,  // measure 35
1000
0000
0010
0000
1000
0000
0100
0000
0001
0000
0100
0000
0110
MMMM
0000
0000
,  // measure 36
1200
0000
0310
0012
0000
0000
1003
0000
,  // measure 37
0201
0000
0310
2010
0000
3001
1001
0000
,  // measure 38
0021
0000
0130
2004
0000
0003
3010
0000
,  // measure 39
0210
0000
0000
0000
4300
0000
0000
0000
3400
0000
0000
0300
0102
0000
0400
0303
,  // measure 40
2001
0000
3010
0201
0000
0000
0310
0000
,  // measure 41
0210
0000
0301
0024
0003
1000
0130
0000
,  // measure 42
1002
0000
0013
4200
3000
0000
0310
0000
,  // measure 43
0200
0000
0000
0300
1000
0000
2100
0000
0001
0000
3040
0000
0034
0000
0000
0000
,  // measure 44
1003
0000
0000
0000
;
