#VERSION:0.83;
#TITLE:MY BABY MAMA...??;
#SUBTITLE:;
#ARTIST:Anquette?;
#TITLETRANSLIT:class sing;
#SUBTITLETRANSLIT:;
#ARTISTTRANSLIT:Anquette x Andre 3000 (mashed up by CuzcoBlocko);
#GENRE:Shitty Mashup;
#ORIGIN:;
#CREDIT:I'm sorry.;
#BANNER:MY BABY MAMA.png;
#BACKGROUND:MY BABY MAMA-bg.png;
#PREVIEWVID:;
#JACKET:;
#CDIMAGE:;
#DISCIMAGE:;
#LYRICSPATH:;
#CDTITLE:;
#MUSIC:MY BABY MAMA.mp3;
#OFFSET:-0.060000;
#SAMPLESTART:0.060000;
#SAMPLELENGTH:0.435079;
#SELECTABLE:YES;
#BPMS:0.000=137.906;
#STOPS:;
#DELAYS:;
#WARPS:;
#TIMESIGNATURES:0.000=4=4;
#TICKCOUNTS:0.000=4;
#COMBOS:0.000=1;
#SPEEDS:0.000=1.000=0.000=0;
#SCROLLS:0.000=1.000;
#FAKES:;
#LABELS:0.000=Song Start;
#BGCHANGES:0.000=MY BABY MAMA.avi=1.600=0=0=0=StretchNoLoop====,
1.000=MY BABY MAMA.avi=1.000=0=0=1=====,
99999=-nosongbg-=1.000=0=0=0 // don't automatically add -songbackground-
;
#KEYSOUNDS:;
#ATTACKS:
;

//---------------dance-single - Mmmmm~! I love chocolate cake.----------------
#NOTEDATA:;
#CHARTNAME:C 9 X 13;
#STEPSTYPE:dance-single;
#DESCRIPTION:Mmmmm~! I love chocolate cake.;
#CHARTSTYLE:Pad;
#DIFFICULTY:Hard;
#METER:9;
#RADARVALUES:0.740224,0.736755,0.539747,0.863595,1.241418,240.000000,215.000000,25.000000,40.000000,177.000000,0.000000,0.000000,0.000000,0.000000,0.740224,0.736755,0.539747,0.863595,1.241418,240.000000,215.000000,25.000000,40.000000,177.000000,0.000000,0.000000,0.000000,0.000000;
#CREDIT:CuzcoBlocko;
#NOTES:
// measure 0
0000
0000
0000
0000
,  // measure 1
0000
0000
0000
0000
0000
0000
0000
0000
0000
0000
0000
M000
0M0M
00M0
000M
0000
,  // measure 2
M001
M100
M000
M000
M101
M000
M100
M001
M000
M000
M011
M000
M010
M100
M000
M000
,  // measure 3
M000
M000
M110
M000
M110
M000
M100
M010
M001
M100
M000
M100
M001
M000
M100
M010
,  // measure 4
1M00
0000
0M01
0000
0M00
0000
1M00
0000
0M00
0000
10M0
0000
01M0
0000
00M0
0000
10M0
0000
000M
0100
000M
0000
001M
0000
000M
0000
001M
0000
0001
0000
0000
0000
,  // measure 5
01M0
0000
0000
0000
1000
0000
000M
0000
0100
0000
001M
0000
1000
0000
0M00
0000
0001
0000
0000
1000
00M0
0000
0100
0000
000M
0000
0100
0000
0010
0000
0000
0000
,  // measure 6
0012
1000
0203
0010
0302
2003
3020
0230
,  // measure 7
0010
0302
0023
0230
1000
0320
0230
0302
,  // measure 8
0203
0010
2300
0001
3020
2030
3002
0203
,  // measure 9
0010
0302
0203
0320
1000
0230
2300
3100
,  // measure 10
0102
0000
1000
0000
1003
0001
0100
0000
0010
0100
0000
0000
0001
1000
0100
0000
,  // measure 11
0010
0000
0000
0000
0000
0000
0000
0000
100M
0000
0000
0000
0M00
0000
0000
0000
001M
0000
0000
0000
M100
0000
0000
0000
1000
0000
0000
0000
0000
0000
0000
0000
0001
0000
0000
0000
1000
0000
0000
0000
0000
0000
0000
0000
0000
0000
0000
0000
0010
0000
0000
0000
M100
0000
0000
000M
0020
M000
0000
000M
0000
0000
0M00
0000
,  // measure 12
1030
0000
0000
0000
0000
0000
0000
0000
0000
0000
0000
0000
0001
0000
0000
0000
0M00
0000
0000
0000
0000
0000
0000
0000
1000
0000
0000
0000
0000
0000
0000
0000
00M0
0000
0000
0000
0100
0000
0000
0000
0000
0000
0000
0000
0000
0000
0000
0000
0000
0000
0000
0000
0000
0000
000M
0000
0000
0000
0000
0000
M010
0000
0000
0000
0000
0000
0000
0000
0000
0000
0000
0000
0000
0000
0000
0000
0000
0000
0000
0000
0000
0000
0000
0000
0100
0000
0000
0000
0000
0000
0000
0000
0000
0000
0000
0000
100M
0000
0000
0000
0000
0000
0000
0000
0000
0000
0000
0000
0000
0000
0000
0000
0000
0000
0000
0000
0000
0000
0000
0000
0000
0000
0000
0000
0000
0000
0000
0000
0000
0000
0000
0000
0001
0000
0000
0000
0000
0000
0000
0000
0000
0000
0000
0000
0100
0000
0000
0000
0000
0000
0000
0000
0000
0000
0000
0000
00M0
0000
0000
0000
0000
0000
0000
0000
0000
0000
0000
0000
1001
0000
0000
0000
0000
0000
00M0
0000
0000
0000
0000
0000
0000
0000
0000
0000
0000
0000
0M00
0000
0000
0000
0000
0000
,  // measure 13
0001
0000
0M00
0000
10M0
0000
010M
0000
M010
0000
010M
0000
M001
00M0
M000
0000
01M0
0000
0010
M000
0001
0000
1M00
0000
0000
00M0
0000
0000
1001
0000
0000
0000
,  // measure 14
0201
0000
0000
0310
1000
0000
0001
0010
0100
1000
0100
0010
0002
0000
0010
0000
,  // measure 15
1003
1010
MMMM
1001
MMMM
0011
MMMM
1001
,  // measure 16
1200
0000
0000
0310
0001
0000
0010
0100
0010
0001
1000
0001
0100
0000
010M
001M
,  // measure 17
000M
0000
001M
0000
100M
0000
000M
0000
110M
0000
000M
0000
100M
0000
010M
0000
002M
0000
000M
0000
000M
0000
013M
0000
100M
0000
0100
00M0
0000
0000
M010
0000
,  // measure 18
0002
1000
0000
1003
0100
0000
0110
0000
0100
0010
0001
1000
0000
0000
1010
0000
,  // measure 19
0020
0000
0000
0031
0010
0000
1000
0000
0001
0000
0010
0000
1200
0000
0000
0000
,  // measure 20
M310
M000
0001
0000
M2M1
0000
000M
000M
0310
0000
1M0M
0000
12M0
00M0
0000
0000
,  // measure 21
0320
0000
000M
1030
001M
0000
M001
M000
M100
M000
001M
0000
MM02
0000
0M13
M100
,  // measure 22
001M
0000
0000
000M
1000
0000
000M
0000
0001
0000
0M00
0000
10M0
0000
0000
0000
110M
0000
000M
0000
0000
0000
01M0
0000
0010
0000
000M
0000
M001
0000
0000
0000
,  // measure 23
M010
0000
010M
0000
10M0
0M00
00M1
0100
M000
M201
0000
00M0
0310
M000
010M
0000
,  // measure 24
00M1
0000
M100
0000
10M0
0M00
01M0
0000
M010
M000
0101
0000
00M1
M0M0
1000
0001
,  // measure 25
0M10
0000
0000
M000
0100
0000
M000
0000
0001
0000
0000
0000
M100
0000
0010
0000
000M
0000
1200
000M
0000
0000
000M
0000
0310
0000
M000
0000
0M01
0000
0000
0000
,  // measure 26
2MM2
3003
0000
0000
;

//---------------dance-single - Shockingly short.----------------
#NOTEDATA:;
#CHARTNAME:C 6 X 10;
#STEPSTYPE:dance-single;
#DESCRIPTION:Shockingly short.;
#CHARTSTYLE:Pad;
#DIFFICULTY:Medium;
#METER:6;
#RADARVALUES:0.508904,0.477136,0.388618,0.453387,0.140334,165.000000,147.000000,18.000000,21.000000,0.000000,0.000000,0.000000,0.000000,0.000000,0.508904,0.477136,0.388618,0.453387,0.140334,165.000000,147.000000,18.000000,21.000000,0.000000,0.000000,0.000000,0.000000,0.000000;
#CREDIT:CuzcoBlocko;
#NOTES:
0000
0000
0000
0000
,
0000
0000
0000
0000
,
1000
0001
0000
0000
0000
0000
0001
1000
0000
0000
0000
0000
1000
0100
0000
0000
,
0000
0010
0010
0001
1000
0000
1001
0001
,
0200
0010
0310
0000
0101
0000
1010
0000
,
2000
0100
3100
0000
0011
0000
1100
0000
,
2000
0000
3200
0000
1300
0010
1000
2000
,
0000
3001
0010
0002
0000
1003
0010
0001
,
0020
0000
2030
0000
3001
0010
0100
0200
,
0000
1300
0010
0200
0000
0301
0020
0000
,
0230
0010
0310
0000
0011
0000
1001
0000
,
0002
0100
0103
0000
1010
0000
0110
0000
,
0100
0000
0001
0000
1000
0000
0100
0000
0001
0000
0000
0100
0000
0000
1000
0000
,
0001
0100
0010
0100
1000
0100
0001
0100
,
0110
0000
0000
0010
0000
0000
0100
0000
1000
0000
0010
0000
0001
0000
0010
0000
,
0000
0110
0000
1001
0000
0101
0000
0100
,
0110
0000
0000
0010
0000
0000
0100
0000
0001
0000
0010
0000
1000
0000
0020
0000
,
0001
0000
1000
0000
0001
0000
0130
1000
,
1200
0000
1300
0000
0001
0200
0310
0200
,
0301
0010
0100
1000
0100
0010
0011
0000
,
0001
1000
0000
0000
0000
0000
1000
0001
0000
0000
0000
0000
0001
0100
0000
0000
,
0000
0010
0010
1000
0001
0000
1001
0001
,
2000
0000
0100
0000
3100
0000
0010
0000
0001
0000
0000
1000
0000
0000
0001
0000
,
2000
0000
0010
0000
3010
0000
1000
0000
0001
0000
0000
0010
0000
0000
0001
0000
,
0002
0000
0010
0000
0013
0000
0100
0000
1000
0000
0000
0010
0000
0000
1000
0000
,
0002
0000
0100
0000
0103
0000
0010
0000
1000
0000
0000
0001
0000
0000
0010
0000
,
0110
0000
0000
0000
;

//---------------dance-single - Now who the fuck that is?----------------
#NOTEDATA:;
#CHARTNAME:C 3 X 5;
#STEPSTYPE:dance-single;
#DESCRIPTION:Now who the fuck that is?;
#CHARTSTYLE:Pad;
#DIFFICULTY:Easy;
#METER:3;
#RADARVALUES:0.286837,0.364869,0.280668,0.194309,0.000000,93.000000,80.000000,13.000000,9.000000,0.000000,0.000000,0.000000,0.000000,0.000000,0.286837,0.364869,0.280668,0.194309,0.000000,93.000000,80.000000,13.000000,9.000000,0.000000,0.000000,0.000000,0.000000,0.000000;
#CREDIT:CuzcoBlocko;
#NOTES:
0000
0000
0000
0000
,
0000
0000
0000
0000
,
0220
0000
0000
0000
,
0000
0000
0000
0330
,
1001
0000
0000
0000
,
0001
0100
0010
1000
,
1010
1001
0001
1000
,
0100
0010
0100
0010
,
0010
0001
1000
0001
,
0100
0010
1000
0010
,
0220
0000
0000
0330
,
0010
0100
0001
0000
,
1000
0100
0010
0000
,
0001
1000
0100
0000
,
0101
0000
0010
0001
,
1000
0010
0001
0100
,
1100
0000
0000
0000
0010
0000
0001
2000
,
0000
0000
0000
3001
,
2002
3003
0001
0100
,
0010
0001
0010
1010
,
1000
1001
0001
0011
,
0010
1000
0010
0011
,
0001
0000
0001
0100
0010
0000
1000
0000
,
1000
0000
0100
0010
0002
0000
1003
0000
,
1000
0000
1000
0100
0010
0000
0001
0000
,
0001
0000
0100
0010
2000
0000
3001
0000
,
1001
0000
0000
0000
;

//---------------dance-single - 4 8 15 16 23 42----------------
#NOTEDATA:;
#CHARTNAME:C 1 X 1;
#STEPSTYPE:dance-single;
#DESCRIPTION:4 8 15 16 23 42;
#CHARTSTYLE:Pad;
#DIFFICULTY:Beginner;
#METER:1;
#RADARVALUES:0.129539,0.168401,0.129539,0.000000,0.000000,42.000000,36.000000,6.000000,0.000000,0.000000,0.000000,0.000000,0.000000,0.000000,0.129539,0.168401,0.129539,0.000000,0.000000,42.000000,36.000000,6.000000,0.000000,0.000000,0.000000,0.000000,0.000000,0.000000;
#CREDIT:CuzcoBlocko;
#NOTES:
0000
0000
0000
0000
,
0000
0000
0000
0000
,
0000
0000
0000
0000
,
0000
0000
0000
0000
,
1001
0000
0000
0000
,
0000
0000
0000
0000
,
1000
0000
1000
0000
,
0000
1000
0000
1000
,
1000
0000
0001
0000
,
0000
0001
0000
0001
,
0001
0000
0000
0000
,
1000
0000
0000
0000
,
0001
0000
0001
0000
,
0100
0000
0000
0000
,
0110
0000
0010
0000
,
0100
0000
0000
0000
,
1001
0000
0001
0000
,
1000
0000
0000
0000
,
1001
0000
0000
0000
,
1000
0000
0100
0000
,
0001
0000
0100
0000
,
1000
0000
0100
0000
,
1001
0000
0000
0001
,
0001
0000
1000
0000
,
0001
0000
0000
1000
,
1000
0000
0001
0000
,
1001
0000
0000
0000
;
