#TITLE:LOVEくらっち;
#SUBTITLE:;
#ARTIST:のりあ;
#TITLETRANSLIT:LOVE CLUTCH;
#SUBTITLETRANSLIT:;
#ARTISTTRANSLIT:Noria;
#GENRE:J-HAPPY HARDCORE;
#CREDIT:;
#BANNER:LOVE CLUTCH.png;
#BACKGROUND:LOVE CLUTCH-bg.png;
#LYRICSPATH:;
#CDTITLE:cuzco.png;
#MUSIC:LOVE CLUTCH.ogg;
#OFFSET:-1.412000;
#SAMPLESTART:47.994999;
#SAMPLELENGTH:28.420000;
#SELECTABLE:YES;
#DISPLAYBPM:170.000000;
#BPMS:0.000000=170.000000
,128.000000=113.333000
,130.000000=170.000000
,278.500000=127.500000
;
#STOPS:130.000000=0.353000,
228.000000=0.353000,
231.000000=0.353000
;
#BGCHANGES:;
#KEYSOUNDS:;
#ATTACKS:;

//---------------dance-single - Lots of jumps.----------------
#NOTES:
     dance-single:
     C 9 X 13:
     Hard:
     9:
     0.555895,0.620487,0.404765,0.174785,0.022998,423.000000,379.000000,44.000000,19.000000,0.000000,0.000000,0.555895,0.620487,0.404765,0.174785,0.022998,423.000000,379.000000,44.000000,19.000000,0.000000,0.000000:
0000
0000
0000
0000
,
0000
0000
0000
0000
,
0000
0000
0000
0000
,
0000
0000
0000
0000
,
0001
0000
0000
0000
0000
0000
0000
0000
0001
0000
0000
1000
0000
0000
0010
0000
,
1000
0000
0001
0100
0000
0001
0000
0020
,
0200
0000
0000
0030
,
1300
0100
0010
0001
0010
0100
1000
0010
,
0100
0001
0100
0010
2000
0010
0010
3010
,
1000
0001
1000
0100
1000
0100
1000
0001
,
1000
0001
1000
0010
1000
0010
0100
0001
,
0010
0001
0010
0100
0010
0100
1000
0010
,
1010
1000
0100
0011
0000
0011
0000
0001
,
0010
0001
1000
0001
0100
0001
1000
0001
,
1000
0001
0100
0001
1000
0001
0100
0001
,
0010
0100
0010
0001
1000
0001
1000
0010
,
0110
0101
0011
1100
,
1000
0100
0001
0100
0000
1000
0000
0002
,
0000
1003
0001
1000
0010
0000
0001
0000
,
0010
0000
1000
0002
0000
0000
1003
0100
,
0000
0010
0100
0010
0001
1000
0100
0000
,
0010
0001
0010
0100
0000
2000
0000
0000
,
3001
0010
0100
0001
0100
0000
1000
0000
,
0001
0000
1000
0100
0000
1000
0001
0010
,
0000
0010
0000
0001
1000
0000
0010
0000
,
1010
0000
2000
0000
3001
1000
0100
1000
,
0001
0000
2000
0000
3001
0100
0001
0010
,
0100
0000
1000
0000
0010
0000
0001
0010
,
0000
0000
0100
0000
0010
0000
0000
0000
1010
0000
0000
1001
0000
0000
1000
0000
,
0001
0000
1001
0000
1000
0010
0100
0001
,
1000
0000
0001
0000
0100
0001
0000
0010
,
0200
0000
0000
0020
0000
0000
0330
0000
,
0002
0000
1003
0010
,
1000
0001
0000
1000
0000
0000
0100
0000
,
0001
0000
0100
0000
0110
0010
0001
1001
,
0000
1000
0001
0100
0010
1000
0001
0010
,
0000
0000
0001
1000
0020
0000
0130
0000
,
0010
0000
0000
1000
0000
0000
0010
0000
1000
0000
0000
0000
0100
0000
0001
0000
,
0000
0100
0000
0020
0001
0000
0130
1000
,
0001
0100
0010
1000
0001
0010
0001
1000
,
0000
0001
0100
1000
0100
0000
0001
0000
,
1000
0010
0000
1000
0000
0000
0001
0000
,
0010
0000
0100
0000
0110
0100
1000
1001
,
0000
1000
0001
0100
0010
0100
0001
0100
,
0000
0001
1000
0001
,
1000
0000
0000
0000
0010
0000
0000
0000
0000
1000
0000
0000
0001
0000
0000
0000
0000
0000
1000
0000
0000
0010
0000
0000
,
0000
0001
0000
0010
0000
1000
1010
0000
,
1000
1001
0000
0001
0011
0000
0110
0000
,
1001
0000
1010
0000
0110
0100
0010
0000
,
1000
0001
1000
0200
0010
0000
1300
0000
,
0010
0000
0001
0000
0110
0100
0010
0101
,
0000
0001
1000
1100
1000
0100
0010
1000
,
0000
0010
0001
0000
0200
0000
0010
0000
,
0301
0000
0000
0010
0000
0000
1000
0000
0010
0000
0000
0000
0100
0000
1000
0000
,
0000
0010
0000
2000
0001
0000
0010
0000
,
0001
3100
1100
1001
,
1010
0000
0101
0000
0001
0100
1000
0100
,
0110
0000
1000
0100
0001
0100
1100
0000
,
1000
0010
1000
0100
0001
0100
0010
0001
,
1001
1010
1001
0011
,
1001
0001
1000
0001
0100
0010
0100
0001
,
0010
0100
0010
0001
1000
0010
0100
0001
,
1000
0001
0010
0001
0100
0010
0100
0001
,
1001
1000
0100
0012
0000
1003
0100
0010
,
0011
0001
1000
0001
0010
0001
0100
0001
,
0100
0010
1000
0001
1000
0010
0100
0010
,
1000
0100
0010
0001
1000
0100
1000
0010
,
0110
1010
1001
0011
,
0000
1000
1000
0000
0001
0001
0000
0010
,
0000
0010
0001
1000
0000
2002
0000
0000
,
0000
0000
0000
0000
,
3003
0000
0000
0000
;

//---------------dance-single - Odd fact, but Giggles is actually my 5th favorite HTF character.----------------
#NOTES:
     dance-single:
     C 2 X 3:
     Beginner:
     2:
     0.177413,0.288740,0.202383,0.000000,0.000000,135.000000,113.000000,22.000000,0.000000,0.000000,0.000000,0.177413,0.288740,0.202383,0.000000,0.000000,135.000000,113.000000,22.000000,0.000000,0.000000,0.000000:
0000
0000
0000
0000
,
0000
0000
0000
0000
,
0000
0000
0000
0000
,
0000
0000
0000
0000
,
0000
0000
0000
0000
,
0000
0000
0000
0000
,
0000
0000
0000
0000
,
1000
0000
0001
0000
,
1000
0000
1001
0000
,
1000
0000
0000
0000
,
1000
0000
0000
0000
,
0001
0000
0000
0000
,
1000
0000
0001
0000
,
0010
0000
0000
0000
,
0010
0000
0000
0000
,
0100
0000
0000
0000
,
0110
0000
0110
0000
,
1000
1000
0000
0000
,
0000
0000
0001
0000
,
1000
0000
0001
0000
,
1000
1000
1001
0000
,
0010
0010
0010
0000
,
0000
0000
0001
0000
,
1000
0000
0001
0000
,
1000
1000
1000
0000
,
0110
0000
0000
0000
,
1001
0000
0000
0000
,
1000
0000
0001
0000
,
1000
0000
1001
0000
,
0110
0000
0000
0010
,
0010
0000
0100
0000
,
0100
0000
0010
0000
,
0000
0000
0000
0000
,
0000
0000
0000
0000
,
0000
0000
1000
0000
,
0001
0000
0010
0010
,
0010
0000
0100
0100
,
0100
0000
1000
0000
,
0001
0000
1001
0000
,
0000
0000
0010
0000
,
0010
0000
0100
0000
,
0000
0000
0010
0000
,
0010
0000
0110
0000
,
0000
0000
1001
0000
,
0000
0000
1000
0000
,
0001
0001
1000
0000
,
0001
0000
1001
0000
,
0000
0000
0010
0010
,
0010
0000
0110
0000
,
0010
0000
0100
0000
,
0010
0000
1000
1000
,
1000
0000
0001
0001
,
0001
0000
1000
0000
,
0001
0000
1000
0000
,
0001
0000
1001
0000
,
0000
0000
1001
0000
,
1001
0000
1000
1000
,
1000
0001
0001
0001
,
1000
0000
0001
0000
,
1001
0000
0110
0000
,
1001
0000
0000
0000
,
1000
0000
0000
0000
,
0001
0000
0000
0000
,
1000
0000
1000
0000
,
0010
0000
0000
0000
,
0100
0000
0000
0000
,
0010
0000
0000
0000
,
0100
0100
0100
0100
,
0000
1001
0000
1001
,
0000
1000
0000
1001
;

//---------------dance-single - Should be good.----------------
#NOTES:
     dance-single:
     C 4 X 6:
     Easy:
     4:
     0.299631,0.471689,0.229980,0.137988,0.000000,228.000000,203.000000,25.000000,15.000000,0.000000,0.000000,0.299631,0.471689,0.229980,0.137988,0.000000,228.000000,203.000000,25.000000,15.000000,0.000000,0.000000:
0000
0000
0000
0000
,
0000
0000
0000
0000
,
0000
0000
0000
0000
,
0000
0000
0000
0000
,
1000
0000
1000
0000
,
0001
0000
0001
0000
,
2002
0000
3003
0000
,
1000
0001
1000
0001
,
1000
0001
1000
0000
,
0001
0000
0000
0010
0000
0000
0100
0000
,
0100
0000
0000
0010
0000
0000
0001
0000
,
0001
0000
0000
1000
0000
0000
0010
0000
,
1001
0000
0000
0110
0000
0000
0000
0000
,
1000
0000
0000
0001
0000
0000
0100
0000
,
0100
0000
0000
0010
0000
0000
1000
0000
,
1000
0000
0000
0001
0000
0000
0010
0000
,
0110
0100
0110
0010
,
0001
0000
0010
0000
0000
0001
0000
0000
,
0000
0100
0001
0010
,
0001
1000
0000
0001
,
0000
1000
0010
1000
,
0001
0010
0001
1000
,
0000
0000
0001
0010
,
0100
1000
0000
0010
,
1000
0010
1000
0001
,
2002
3003
0000
0100
,
0202
0303
0000
1000
,
0010
1000
0100
0010
,
0001
2000
0000
3000
,
1001
0000
0000
1000
,
0100
1000
0001
0000
,
0010
0000
0000
0001
0000
0000
0000
0000
,
2002
0000
3003
1000
,
0001
0000
0000
1000
0000
0000
0001
0000
,
1000
0001
0010
0010
,
0001
0000
1000
1000
,
0010
1000
0001
0000
,
0001
1000
0010
1000
,
0100
0010
0002
0000
,
0000
0003
1000
0001
,
1000
0100
1000
0001
,
1000
0000
0000
0001
0000
0000
1000
0000
,
0010
1000
0010
1000
,
0001
0000
0010
0001
,
1000
0001
0010
0000
,
0001
0010
0001
1000
,
0100
1000
0020
0000
,
0000
0030
1000
0100
,
0001
0010
1001
1000
,
0010
0000
0000
0100
0000
0000
0010
0000
,
1000
0100
1000
0010
,
0100
0010
1000
0001
,
0010
0001
2000
3000
,
0001
0010
0001
1000
,
0100
1000
0020
0000
,
0030
0010
0110
0110
,
1001
1001
1000
0100
,
0110
0100
1000
1001
,
1000
0001
0010
0001
,
0100
0001
1000
0010
,
1001
0000
0000
1000
0000
0000
0100
0000
,
0100
0000
0000
1000
0000
0000
0010
0000
,
0010
0000
0000
1000
0000
0000
0001
0000
,
1001
0000
0000
0110
0000
0000
0110
0000
,
1000
0000
0000
0001
0000
0000
0100
0000
,
0100
0000
0000
0001
0000
0000
0010
0000
,
0010
0000
0000
0100
0000
0000
0010
0000
,
0011
0101
0011
1010
,
0000
1000
0000
0000
0100
0000
0000
1000
,
0000
0001
0000
0001
0000
2002
0000
0000
,
0000
0000
0000
0000
,
0000
0000
0000
0000
,
0000
0000
0000
0000
,
0000
3003
0000
0000
;

//---------------dance-single - Streamy. I think.----------------
#NOTES:
     dance-single:
     C 7 X 11:
     Medium:
     7:
     0.452075,0.552240,0.257578,0.312773,0.013799,344.000000,316.000000,28.000000,34.000000,0.000000,0.000000,0.452075,0.552240,0.257578,0.312773,0.013799,344.000000,316.000000,28.000000,34.000000,0.000000,0.000000:
0000
0000
0000
0000
,
0000
0000
0000
0000
,
0000
0000
0000
0000
,
0000
0000
0000
0000
,
0001
0000
0001
0010
,
0001
1000
0010
1000
,
0002
0000
0000
0000
,
1003
0001
1000
0001
0100
0010
0100
0010
,
1000
0001
0010
0100
1000
0001
0100
0010
,
1000
0000
1000
0100
0000
0100
1000
0010
,
0100
0000
0100
0010
0000
0010
0100
0001
,
0010
0000
0010
0001
0000
0001
0100
0010
,
0110
0000
0000
0101
0000
0000
1001
0000
,
0011
0000
0010
0001
0000
0001
0100
0010
,
1000
0000
1000
0001
0000
0001
1000
0001
,
0010
0000
0010
0001
0000
0001
1000
0001
,
0011
0011
1010
1010
,
0010
1000
0100
0020
0000
0130
0000
0000
,
1000
0000
1000
0001
0020
0000
0031
0000
,
1000
0000
0100
2000
0000
3000
0100
0010
,
0000
0100
1000
0001
0010
0001
1000
0000
,
0100
1000
0100
0020
0000
0130
0000
0000
,
0010
0000
0010
0100
0010
0000
0001
0000
,
1000
0000
0100
2000
0000
0000
3000
0001
,
0000
1000
0000
0001
0100
0000
0010
0000
,
1000
0000
0022
0033
0000
0001
0100
1000
,
0100
0000
2020
3030
0000
1000
0100
1000
,
0010
0000
0100
0000
0010
0000
1000
0001
,
0000
0000
1000
0000
0001
0000
0000
0000
0210
0000
0000
0010
0000
0000
0310
0000
,
2002
0000
3003
0000
0000
1000
0100
1000
,
0001
0000
1000
0000
0001
1000
0001
0000
,
0020
0000
0000
0200
0000
0000
0330
0000
,
1000
0000
0000
0000
2002
3003
1000
0000
,
0100
1000
0000
0100
0000
0000
1000
0000
,
0100
0000
0010
0000
0001
1000
0001
2000
,
0000
0000
3000
0000
0001
1000
0001
2000
,
0000
3010
1000
0000
,
0100
0000
0000
1000
0000
0000
0010
0000
0100
0000
0000
0000
0001
0000
0000
0000
,
0100
0010
0000
0200
0000
0000
0010
0000
,
0000
0000
0310
0000
1000
0100
1000
0100
,
0000
0001
0000
0100
0000
0000
1000
0000
,
0010
1000
0000
0010
0000
0000
1000
0000
,
0001
0000
0100
0000
0001
0010
0001
0020
,
0000
0000
0030
0000
0100
1000
0100
2000
,
0000
3001
1000
0001
,
1000
0010
0000
0010
1000
0000
0001
0100
,
0000
0001
0000
0020
0000
0100
0100
0000
,
0100
0100
0000
0130
0010
0000
0110
0000
,
1001
0101
1000
0010
,
0100
0010
0000
0100
0000
0000
0001
0000
,
0100
0000
0010
0000
1000
0100
1000
0020
,
0000
1030
0100
1000
0001
0100
0001
0020
,
0000
0031
0100
0001
0200
0000
0300
0000
,
0001
0000
0000
0010
0000
0000
0001
0000
1000
0000
0000
0000
0001
0000
1000
0000
,
0000
0001
0000
0020
0200
0000
0000
0000
,
0000
0330
0110
1001
,
0110
0000
0101
0000
0100
0001
0100
0001
,
0100
0000
0001
0010
0001
0010
0001
0000
,
1000
0010
1000
0010
0100
0001
0100
0001
,
0020
0032
0203
2300
,
3010
0000
0010
1000
0000
1000
0100
1000
,
0010
0000
0010
0100
0000
0100
0001
0010
,
0001
0000
0001
1000
0000
1000
0001
1000
,
0110
0000
0000
1001
0000
0000
1000
0000
,
1001
0000
1000
0001
0000
0001
0100
0001
,
0010
0000
0010
0001
0000
0001
1000
0001
,
0010
0000
0010
0100
0000
0100
1000
0000
,
1001
0110
1001
1010
,
0000
0010
1000
0000
0001
0010
0000
0001
,
0000
1000
0010
1000
0000
2020
0000
0000
,
0000
0000
0000
0000
0000
3030
0000
0000
;

//---------------dance-double - A little different.----------------
#NOTES:
     dance-double:
     C 9 X 13:
     Hard:
     9:
     0.574293,0.620487,0.459960,0.211582,0.022998,437.000000,387.000000,50.000000,23.000000,0.000000,0.000000,0.574293,0.620487,0.459960,0.211582,0.022998,437.000000,387.000000,50.000000,23.000000,0.000000,0.000000:
// measure 0
00000000
00000000
00000000
00000000
,  // measure 1
00000000
00000000
00000000
00000000
,  // measure 2
00000000
00000000
00000000
00000000
,  // measure 3
00000000
00000000
00000000
00000000
,  // measure 4
00000001
00000000
00000000
00000000
00000000
00000000
00000000
00000000
00000010
00000000
00000000
00000100
00000000
00000000
00001000
00000000
,  // measure 5
00000010
00000000
00010000
00001000
00000000
01000000
00000000
00200000
,  // measure 6
20000000
00000000
00000000
30300000
,  // measure 7
10000000
01000000
00100000
01000000
10000000
00010000
01000000
00001000
,  // measure 8
01000000
00001000
00010000
00000100
00000020
00000001
00000001
00000001
,  // measure 9
00000031
00000010
00000100
00001000
00000010
00000100
00000010
00010000
,  // measure 10
00001000
00010000
00000100
00000010
00000100
00010000
00001000
00100000
,  // measure 11
00001000
00100000
00001000
00010000
00000010
00001000
00000010
00000100
,  // measure 12
00000110
00000010
00010000
00011000
00000000
00101000
00000000
00100000
,  // measure 13
00001000
00100000
00001000
00010000
00001000
01000000
00100000
10000000
,  // measure 14
00100000
01000000
00010000
10000000
00010000
01000000
00100000
01000000
,  // measure 15
00001000
00010000
00001000
00010000
00000100
00010000
00001000
00010000
,  // measure 16
00011000
00101000
00110000
11000000
,  // measure 17
10000000
01000000
00200000
00010000
00000000
02300000
00000000
03100000
,  // measure 18
00010000
00000000
10000000
00100000
01000000
00000000
00100000
00000000
,  // measure 19
01000000
00000000
00001000
00020000
00001000
00000000
00030100
00000010
,  // measure 20
00000100
00001000
00000010
00010000
00001000
00010000
00000100
00000000
,  // measure 21
00000010
00000100
00000020
00000001
00000000
00000130
00000000
00001100
,  // measure 22
00000000
00000100
00000010
00001000
00010000
00000000
01000000
00000000
,  // measure 23
00100000
00000000
00001000
00200000
00010000
00000000
00301000
01000000
,  // measure 24
00000000
01010000
00000000
00010000
00100000
00000000
10010000
00000000
,  // measure 25
11000000
00000000
00210000
00000000
00310000
01000000
00001000
00010000
,  // measure 26
00000100
00000000
00000011
00000000
00000001
00000100
00000010
00000200
,  // measure 27
00001000
00000000
00000010
00000000
00000301
00000000
00000001
00001000
,  // measure 28
00000000
00000000
00001000
00000000
00000001
00000000
00000000
00000000
00000101
00000000
00000000
00001010
00000000
00000000
00000020
00000000
,  // measure 29
00010000
00000000
00001030
00000000
00000010
00010000
00001000
00100000
,  // measure 30
01000000
00000000
01100000
00000000
00100000
00001000
00010000
00000020
,  // measure 31
00000100
00000000
00000000
00001030
00000010
00010000
00001000
00200000
,  // measure 32
00020000
00000000
00330000
00100000
,  // measure 33
00010000
00010000
00000000
10000000
00000000
00000000
00010000
00000000
,  // measure 34
01000000
00000000
00100000
00000000
01100000
01000000
00010000
10010000
,  // measure 35
00000000
00010000
01000000
00100000
00010000
00001000
02000000
00010000
,  // measure 36
00000000
03001000
00010000
00000010
00000100
00000000
00000010
00000000
,  // measure 37
00010000
00000000
00000000
00000010
00000000
00000000
00000010
00000000
00001000
00000000
00000000
00000000
00000100
00000000
00020000
00000000
,  // measure 38
00000000
00000010
00000000
00031000
00010000
00000000
00000010
00000000
,  // measure 39
00000100
00000000
00000001
00000000
00001000
00000001
00000010
00000100
,  // measure 40
00000000
00010100
00000000
00010000
00001000
00000000
01000000
00000000
,  // measure 41
00001000
00001000
01000000
00200000
01000000
00000000
00310000
00000000
,  // measure 42
00100000
00000000
10000000
00000000
10100000
10000000
01000000
01100000
,  // measure 43
00000000
01000000
00010000
00001000
00000010
00000100
00001000
00000010
,  // measure 44
00000000
00000100
00010000
00001000
00010000
00000000
00010100
00000000
,  // measure 45
00010000
00000000
00000000
00000000
00001000
00000000
00000000
00000000
00000000
01000000
00000000
00000000
00010000
00000000
00000000
00000000
00000000
00000000
10000000
00000000
00000000
00200000
00000000
00000000
,  // measure 46
00000000
00010000
00000000
01300000
00100000
10000000
10100000
00000000
,  // measure 47
10000000
00010000
01000000
00100000
10100000
00000000
01010000
00000000
,  // measure 48
01001000
00000000
00010100
00000000
00000011
00000000
00000010
00000001
,  // measure 49
00001000
00001000
00000010
00020000
00000010
00000000
00031000
00000000
,  // measure 50
00010000
00000000
00000010
00000000
00001010
00000010
00000100
00000110
,  // measure 51
00000000
00010010
00000010
00001000
00000100
00000001
00000200
00000010
,  // measure 52
00000000
00010300
00001000
01000000
00100000
00000000
01100000
00000000
,  // measure 53
00100000
00000000
00000000
00010000
00000000
00000000
00001000
00000000
00001000
00000000
00000000
00000000
00000010
00000000
00000100
00000000
,  // measure 54
00000000
00010200
00000000
00000000
00010000
00000000
00001000
00000000
,  // measure 55
00000010
00000000
00001300
00000100
00010100
00000000
00011000
00000000
,  // measure 56
01001000
00000000
01100000
00000000
01000000
10000000
01000000
00001000
,  // measure 57
00010000
00000000
00000100
00000001
00000100
00010000
00001000
00000000
,  // measure 58
01000000
00100000
01000000
00010000
00100000
00010000
00001000
00000100
,  // measure 59
00000010
00000110
00010100
01001000
,  // measure 60
01100000
01000000
00001000
00100000
01000000
00001000
01000000
00100000
,  // measure 61
00001000
00010000
00000010
00000100
00000010
00010000
00001000
00010000
,  // measure 62
00000100
00000010
00001000
00000010
00000100
00010000
00001000
01000000
,  // measure 63
01100000
00100000
01000000
01001000
00000000
00011000
00000000
00010000
,  // measure 64
00001000
00100000
01000000
00010000
01000000
00100000
00001000
00010000
,  // measure 65
00000010
00000100
00001000
00000100
00000010
00010000
00001000
00010000
,  // measure 66
00001000
00100000
01000000
00010000
01000000
00100000
00000000
00010000
,  // measure 67
10010000
00110000
00101000
00011000
,  // measure 68
00000000
00010000
00010000
00000000
00001000
00001000
00000000
00101000
,  // measure 69
00000000
00001000
01000000
00100000
00000000
20020000
00000000
00000000
,  // measure 70
00000000
00000000
00000000
00000000
,  // measure 71
30030000
00000000
00000000
00000000
;

//---------------dance-double - May be a little intimidating to new players.----------------
#NOTES:
     dance-double:
     C 5 X 8:
     Easy:
     4:
     0.331172,0.457201,0.285175,0.193183,0.000000,252.000000,221.000000,31.000000,21.000000,0.000000,0.000000,0.331172,0.457201,0.285175,0.193183,0.000000,252.000000,221.000000,31.000000,21.000000,0.000000,0.000000:
// measure 0
00000000
00000000
00000000
00000000
,  // measure 1
00000000
00000000
00000000
00000000
,  // measure 2
00000000
00000000
00000000
00000000
,  // measure 3
00000000
00000000
00000000
00000000
,  // measure 4
00000001
00000000
00000100
00000000
,  // measure 5
00000010
00000000
00000100
00000000
,  // measure 6
00000002
00000000
00000003
00000000
,  // measure 7
00002002
00000000
00000000
00000000
,  // measure 8
00000000
00000000
00000000
00003003
,  // measure 9
00000001
00000010
00000001
00001000
,  // measure 10
00000001
00000100
00000010
00010000
,  // measure 11
00000100
00010000
00001000
00100000
,  // measure 12
00000100
00000000
00000000
00010000
00000000
00000000
00001000
00000000
,  // measure 13
01000000
00010000
10000000
00010000
,  // measure 14
00100000
01000000
10000000
00010000
,  // measure 15
10000000
00100000
01000000
00100000
,  // measure 16
01100000
10010000
01100000
10010000
,  // measure 17
00010000
00100000
01000000
00200000
,  // measure 18
00301000
00000000
00100000
00001000
,  // measure 19
01000000
00100000
01000000
00010000
,  // measure 20
10000000
10000000
00010000
00010000
,  // measure 21
00100000
01000000
00100000
00020000
,  // measure 22
01030000
00000000
00001000
00010000
,  // measure 23
00000100
00000010
00000001
00001000
,  // measure 24
00000010
00000010
00000100
00000100
,  // measure 25
00000110
00000000
00000010
00010000
,  // measure 26
00011000
00000000
00010000
00000100
,  // measure 27
00010000
00000000
01000000
00100000
,  // measure 28
01000000
00001000
00010000
00000000
,  // measure 29
00010010
00000000
00010000
00000100
,  // measure 30
00000010
00000100
00000001
00000100
,  // measure 31
00000010
00000001
00001000
00000010
,  // measure 32
00000200
00000000
00000300
00000000
,  // measure 33
00000010
00000000
00010000
00000000
,  // measure 34
00001000
00000000
00100000
01000000
,  // measure 35
22000000
33000000
00010000
01000000
,  // measure 36
02200000
03300000
01010000
00000000
,  // measure 37
00010000
00100000
00001000
00010000
,  // measure 38
00000100
00010000
00002000
00000000
,  // measure 39
00000000
00003000
00010000
00000010
,  // measure 40
00000100
00001000
00000100
00000010
,  // measure 41
00000100
00000001
00001000
00000100
,  // measure 42
00010000
00000010
00010000
00000100
,  // measure 43
00002200
00003300
00000100
00010000
,  // measure 44
00022000
00033000
00010000
00000010
,  // measure 45
00010000
00000100
00010000
00001000
,  // measure 46
01000000
00000000
00100000
00000000
00000000
01100000
00000000
00000000
,  // measure 47
01001000
00000000
00000000
00001000
00010000
00000000
01000000
00000000
,  // measure 48
10000000
10010000
00010000
00100000
,  // measure 49
01000000
10000000
00100000
01000000
,  // measure 50
00001000
00100000
00001000
00010000
,  // measure 51
00020200
00030300
00000100
00010000
,  // measure 52
00022000
00033000
00001000
00000000
,  // measure 53
00100000
00001000
00010000
00000100
,  // measure 54
00000010
00000001
00000100
00000010
,  // measure 55
00000001
00000010
00001000
00001001
,  // measure 56
00000110
00001001
00000001
00000010
,  // measure 57
00000110
00000100
00010000
00011000
,  // measure 58
00001000
00100000
01000000
10000000
,  // measure 59
00010000
01000000
10000000
01000000
,  // measure 60
00010000
01000000
00100000
01000000
,  // measure 61
00001000
00010000
00001000
00010000
,  // measure 62
00000100
00000010
00000001
00000100
,  // measure 63
00000010
00000000
00000000
00010000
00000000
00000000
00001000
00000000
,  // measure 64
00100000
00010000
10000000
00100000
,  // measure 65
01000000
00001000
00010000
00000100
,  // measure 66
00000010
00000100
00010000
00000010
,  // measure 67
00001001
00001001
00001001
00001001
,  // measure 68
00000000
00000101
00000000
00000000
00001010
00000000
00000000
00001100
,  // measure 69
00000000
00000100
00000000
00010000
00000000
00022000
00000000
00000000
,  // measure 70
00000000
00000000
00000000
00000000
,  // measure 71
00033000
00000000
00000000
00000000
;

//---------------dance-double - Might be the most flawed chart here. D\:----------------
#NOTES:
     dance-double:
     C 7 X 10:
     Medium:
     7:
     0.436305,0.555172,0.229980,0.220781,0.000000,332.000000,307.000000,25.000000,24.000000,0.000000,0.000000,0.436305,0.555172,0.229980,0.220781,0.000000,332.000000,307.000000,25.000000,24.000000,0.000000,0.000000:
// measure 0
00000000
00000000
00000000
00000000
,  // measure 1
00000000
00000000
00000000
00000000
,  // measure 2
00000000
00000000
00000000
00000000
,  // measure 3
00000000
00000000
00000000
00000000
,  // measure 4
10000000
00000000
01000000
00000000
,  // measure 5
00100000
00000000
00002000
00010000
,  // measure 6
00020000
00000000
00000000
00033000
,  // measure 7
00011000
00000000
00001000
00010000
00001000
00010000
00001000
00010000
,  // measure 8
00001000
00010000
00001000
00010000
00000100
00000010
00000100
00001000
,  // measure 9
00000010
00000000
00000100
00000001
00000000
00000001
00001000
00000100
,  // measure 10
00000010
00000000
00000100
00010000
00000000
00010000
00000010
00010000
,  // measure 11
00001000
00000000
00001000
00100000
00000000
00100000
01000000
10000000
,  // measure 12
00100000
00000000
01000000
00100000
00000000
01100000
00000000
01000000
,  // measure 13
00001000
00000000
00001000
00010000
00000000
00010000
00000100
00000010
,  // measure 14
00000001
00000000
00000001
00001000
00000000
00001000
00000010
00010000
,  // measure 15
00000100
00000000
00000010
00000100
00000000
00000100
00010000
00000010
,  // measure 16
00000200
00002300
00023000
00230000
,  // measure 17
10300000
00100000
10000000
00010000
00000000
00220000
00000000
00330000
,  // measure 18
00000000
00010000
00000000
00010000
10000000
00000000
00100000
00000000
,  // measure 19
00010000
00000000
00200000
01000000
00000000
00000000
10300000
00010000
,  // measure 20
00000000
00000000
00100000
01000000
00100000
01000000
00100000
00000000
,  // measure 21
00001000
00100000
00001000
00100000
00000000
00202000
00000000
00000000
,  // measure 22
00303000
00000000
00100000
00001000
00010000
00000000
00001000
00000000
,  // measure 23
00100000
00000000
01000000
00100000
00000000
00000000
00000000
00001000
,  // measure 24
00000000
00001000
00000000
00100000
01000000
00000000
10000000
00000000
,  // measure 25
00010000
00000000
00200000
00000000
00301000
00010000
00000100
00000000
,  // measure 26
00010000
00000000
00000020
00000000
00010030
00001000
00010000
00000000
,  // measure 27
00000100
00000000
00000001
00000000
00000100
00000000
00010000
00001000
,  // measure 28
00000000
00001000
01000000
00000000
00200000
00000000
00000000
01000000
,  // measure 29
01300000
00000000
01100000
00000000
01000000
00000000
00001000
00100000
,  // measure 30
00001000
00000000
00100000
00000000
00001000
01000000
00100000
02000000
,  // measure 31
00100000
10000000
00100000
00010000
,  // measure 32
03001000
00000000
00011000
00001000
,  // measure 33
00100000
00000000
00000000
00001000
00000000
00000000
00010000
00000000
,  // measure 34
00000100
00000000
00000010
00000000
00000100
00000000
00010000
00000020
,  // measure 35
00000000
00000000
00001000
00000000
00010030
00000000
00000200
00010000
,  // measure 36
00000000
00001300
00000010
00000100
,  // measure 37
00000010
00000000
00001000
00000001
00000010
00000000
00000100
00010000
,  // measure 38
00000000
00001000
00000000
01000000
00010000
00000000
10000000
00000000
,  // measure 39
00010000
00000000
10000000
00000000
00100000
00000000
00100000
01000000
,  // measure 40
00000000
01100000
00000000
01001000
00000000
01000000
00001000
00000000
,  // measure 41
10000000
00010000
10000000
00100000
01000000
00000000
00100000
00000000
,  // measure 42
00010000
00000000
00001000
00000000
00000100
00000000
00000002
00001000
,  // measure 43
00000000
00000000
00000013
00000000
00000100
00000000
00020000
00000010
,  // measure 44
00000000
00031000
00010000
00010000
,  // measure 45
00001000
00010000
00001000
01000000
,  // measure 46
00100000
00000000
10000000
00000000
00000000
11000000
00000000
00000000
,  // measure 47
10010000
00000000
00000000
00010000
01000000
00000000
01100000
00000000
,  // measure 48
01000000
01001000
00011000
00010000
,  // measure 49
00000100
00000000
00000010
00000100
00000000
00010100
00000000
00000000
,  // measure 50
00011000
00000000
00101000
00000000
00100000
00000000
00002000
00000010
,  // measure 51
00000000
00000000
00013000
00000000
00001000
00000000
00020000
00100000
,  // measure 52
00000000
00031000
00100000
00001000
,  // measure 53
00000100
00000000
00000001
00000000
00000010
00000000
00000001
00001000
,  // measure 54
00000000
00000100
00000000
00001000
00000002
00000000
00000000
00001000
,  // measure 55
00000000
00000000
00001003
00000010
00000100
00000000
00001000
00000000
,  // measure 56
00010000
00000000
00100000
00000000
01000000
00001000
01000000
00001000
,  // measure 57
01000000
00000000
00001000
00100000
00001000
00100000
00001000
00000000
,  // measure 58
00010000
00000010
00010000
00001000
00010000
00000100
00010000
00001000
,  // measure 59
00010000
00001000
00100000
01000000
,  // measure 60
01100000
00000000
01000000
10000000
00000000
10000000
00010000
01000000
,  // measure 61
00100000
00000000
01000000
00001000
00000000
00001000
00100000
00001000
,  // measure 62
00010000
00000000
00000100
00010000
00000000
00010000
00000100
00000000
,  // measure 63
00000011
00000000
00000000
00001100
00000000
00000000
00001001
00000000
,  // measure 64
00000101
00000000
00000100
00000010
00000000
00000010
00100000
00000000
,  // measure 65
00001000
00000000
00010000
00001000
00000000
00001000
00100000
00000000
,  // measure 66
01000000
00000000
00100000
00001000
00000000
00001000
01000000
00000000
,  // measure 67
10100000
10010000
00110000
10010000
,  // measure 68
00000000
10000000
00010000
00000000
00010000
00100000
00000000
00001000
,  // measure 69
00000000
00001000
01000000
00002000
00000000
00020000
00000000
00000000
,  // measure 70
00000000
00000000
00000000
00000000
,  // measure 71
00033000
00000000
00000000
00000000
;
