#TITLE:フローライト;
#SUBTITLE:;
#ARTIST:米津玄師;
#TITLETRANSLIT:Flowlight;
#SUBTITLETRANSLIT:;
#ARTISTTRANSLIT:Kenshi Yonezu;
#GENRE:;
#CREDIT:;
#BANNER:Flowlight.png;
#BACKGROUND:Flowlight-bg.png;
#LYRICSPATH:;
#CDTITLE:cuzco.png;
#MUSIC:Flowlight.ogg;
#OFFSET:-0.487000;
#SAMPLESTART:57.368996;
#SAMPLELENGTH:16.552000;
#SELECTABLE:YES;
#DISPLAYBPM:116.000000;
#BPMS:0.000000=116.000000
;
#STOPS:
;
#BGCHANGES:;
#KEYSOUNDS:;
#ATTACKS:;

//---------------dance-single - Can I pull off an interesting chart with no jumps whatsoever...?----------------
#NOTES:
     dance-single:
     C 9 X 14:
     Hard:
     9:
     0.531259,0.688530,0.000000,0.000000,0.789747,372.000000,372.000000,0.000000,0.000000,0.000000,0.000000,0.531259,0.688530,0.000000,0.000000,0.789747,372.000000,372.000000,0.000000,0.000000,0.000000,0.000000:
// measure 0
0000
0000
0000
0000
,  // measure 1
0000
0000
0000
0000
,  // measure 2
1000
0000
0000
0001
0000
0100
0000
0000
0001
0000
0000
1000
0000
0100
0000
0000
,  // measure 3
1000
0000
0000
0001
0000
0100
0000
0000
0001
0000
0100
0001
0000
0100
0001
0010
,  // measure 4
0000
0100
1000
0010
0000
0100
0001
0010
0000
0100
0010
0001
0000
0010
0100
1000
,  // measure 5
0000
0000
0010
0000
1000
0001
0000
0100
0000
0000
0010
1000
0000
0010
1000
0100
,  // measure 6
0000
0010
0001
0100
0000
0010
1000
0100
0000
0010
0100
1000
0000
0100
1000
0001
,  // measure 7
0000
0000
0010
0000
0001
1000
0001
0100
0000
0010
0000
0010
0000
0100
0010
1000
,  // measure 8
0001
1000
0001
1000
0000
0010
0100
0000
0000
0000
0100
0000
0100
0001
1000
0000
,  // measure 9
0000
0000
1000
0000
0100
0000
0000
0010
0000
0100
0000
1000
0000
0100
0010
0000
,  // measure 10
0000
0000
0100
1000
0010
0000
0010
0100
0000
0000
0010
1000
0000
0000
0100
0000
,  // measure 11
1000
0000
1000
0000
0001
1000
0000
0000
0001
0000
0010
0100
0000
0010
0001
0100
,  // measure 12
0000
0010
1000
0100
0000
0010
0001
0100
0000
0010
1000
0010
0000
0100
0001
0010
,  // measure 13
0000
0000
0001
0000
0010
0001
1000
0100
0000
0010
0000
0010
0000
0100
1000
0010
,  // measure 14
0000
0100
0001
0010
0000
0100
1000
0010
0000
0100
0001
0100
0000
0010
1000
0100
,  // measure 15
0000
0000
1000
0000
0100
1000
0000
0010
0000
0100
0000
0100
0000
0100
0001
1000
,  // measure 16
0010
0000
0100
0010
0100
0001
1000
0000
0000
1000
0001
1000
0001
0010
0100
0000
,  // measure 17
0000
0000
0100
0000
1000
0000
0000
0001
0000
1000
0000
0010
0000
1000
0001
0000
,  // measure 18
0000
0000
0100
0001
0010
0001
0010
0100
0000
0000
0010
0001
0000
0100
0000
0000
,  // measure 19
0001
0000
0001
0000
1000
0001
0000
0000
1000
0000
0001
1000
0100
1000
0001
0000
,  // measure 20
0100
0000
0000
0000
1000
0000
0000
0000
0100
0000
0001
0010
0000
0000
0010
0000
,  // measure 21
0100
0000
0000
0000
0001
0000
0000
0000
0100
0000
1000
0010
0000
0000
0010
0000
,  // measure 22
0001
0000
0010
1000
0100
1000
0010
0010
,  // measure 23
0000
0001
1000
0000
0000
0100
0010
0100
,  // measure 24
0001
0000
0010
0010
0100
0010
0001
1000
,  // measure 25
0000
0000
0010
0000
0100
0000
0000
0001
0000
0000
0001
0000
0100
0000
1000
0000
,  // measure 26
0100
0001
1000
0100
0001
1000
0010
0000
,  // measure 27
0000
0000
0100
0000
1000
0000
0001
0000
1000
0001
1000
0000
0010
0000
0000
0001
,  // measure 28
0000
0000
0010
0000
1000
0000
0000
0100
0000
0000
1000
0000
0001
0000
0000
0010
,  // measure 29
0000
0000
0001
0000
0100
0000
0000
1000
0000
0000
0100
0000
0001
0000
0000
0010
,  // measure 30
0000
0000
0001
0000
0100
0001
0000
1000
0000
0000
0000
0000
1000
0000
0001
0010
,  // measure 31
0000
0000
0100
0000
0100
0010
0100
1000
0000
0000
0001
0000
0010
0000
0000
1000
,  // measure 32
0000
0000
0010
0000
0001
0000
0000
0100
0000
0000
0001
0000
1000
0000
0000
0010
,  // measure 33
0000
0000
1000
0000
0100
0000
0000
0001
0000
0000
0100
0000
1000
0000
0000
0010
,  // measure 34
0000
0000
1000
0000
0001
0100
0000
0010
0000
0000
0000
0000
0010
0000
1000
0100
,  // measure 35
0000
1000
0010
0000
0010
0000
1000
0100
0000
0000
0000
0000
1000
0001
1000
0001
,  // measure 36
0000
0001
1000
0001
1000
0000
0010
0000
1000
0000
0001
1000
0000
0001
0000
0100
,  // measure 37
0001
1000
0001
1000
0001
1000
0001
0010
0001
0000
0100
0010
0000
0100
0010
1000
,  // measure 38
0001
1000
0001
1000
0001
1000
0001
0010
0001
1000
0000
0010
0000
1000
0001
1000
,  // measure 39
0001
0010
0001
1000
0100
0100
0001
0000
,  // measure 40
0100
0000
0010
0000
0000
0001
0000
0000
1000
0000
0000
0100
0000
0000
0000
0000
,  // measure 41
1000
0000
0100
0000
0000
1000
0000
0000
0001
0000
0000
0100
0000
0001
0000
0000
,  // measure 42
0100
0000
0010
0000
0000
1000
0000
0000
0001
0000
0000
0100
0000
0001
0000
0000
,  // measure 43
1000
0000
0100
0000
0000
0010
0000
0000
0001
0000
0001
0000
1000
0000
1000
0000
,  // measure 44
0001
0000
1000
0000
0000
0010
0000
0000
0100
0000
0000
0001
0000
0000
1000
0000
,  // measure 45
0010
0000
0100
0000
0000
0010
0000
0000
1000
0000
0000
0001
0000
0000
1000
0000
,  // measure 46
0001
0000
1000
0000
0000
0010
0000
0000
0100
0000
0000
0001
0000
0000
0010
0000
,  // measure 47
0001
0000
0100
0000
0000
0010
0000
0000
1000
0000
0000
0000
0000
0000
0000
0000
;

//---------------dance-single - A little tricky.----------------
#NOTES:
     dance-single:
     C 7 X 11:
     Medium:
     7:
     0.368454,0.403621,0.000000,0.000000,0.214931,258.000000,258.000000,0.000000,0.000000,0.000000,0.000000,0.368454,0.403621,0.000000,0.000000,0.214931,258.000000,258.000000,0.000000,0.000000,0.000000,0.000000:
// measure 0
0000
0000
0000
0000
,  // measure 1
0000
0000
0000
0000
,  // measure 2
1000
0001
1000
0000
0100
0000
1000
0000
,  // measure 3
0001
0000
1000
0000
0001
0000
0000
0000
1000
0000
0000
0001
0000
1000
0000
0000
,  // measure 4
0001
0001
0100
0000
0010
0000
0100
0000
,  // measure 5
0001
0001
0010
0000
0100
0000
0010
0000
,  // measure 6
0001
0001
1000
0000
0010
0000
0100
0000
,  // measure 7
0010
0010
1000
0000
0001
0000
1000
0000
,  // measure 8
0100
0100
0010
0100
0000
1000
0010
0000
,  // measure 9
0100
0000
0100
0000
0001
0000
0000
0010
0000
0100
0000
1000
0000
0000
0001
0000
,  // measure 10
1000
1000
0001
0100
0000
0100
0010
0000
,  // measure 11
0100
0000
0100
0000
0010
0000
0000
0000
0100
0000
0001
0000
0000
0010
0000
0000
,  // measure 12
0100
0100
0010
0000
0100
0000
1000
0000
,  // measure 13
0100
0100
0010
0000
0001
0000
0010
0000
,  // measure 14
0100
0100
1000
0000
0010
0000
0100
0000
,  // measure 15
0010
0010
0100
0000
0001
0000
0100
0000
,  // measure 16
0010
0010
1000
0100
0000
1000
0010
0010
,  // measure 17
0000
0000
0100
0000
0001
0000
0000
0010
0000
0001
0000
0000
0100
0000
0000
0000
,  // measure 18
0010
0010
0100
0000
0001
0000
1000
0000
,  // measure 19
0001
0000
0001
0000
0010
0000
0000
0000
0001
0000
0100
0000
0000
0100
0000
0000
,  // measure 20
0001
0000
0000
0000
0010
0000
0000
0000
0001
0000
0000
0100
0000
0000
0100
0000
,  // measure 21
0001
0000
0000
0000
0010
0000
0000
0000
0001
0000
0000
1000
0000
0000
1000
0000
,  // measure 22
0010
0000
1000
0001
0100
0001
1000
1000
,  // measure 23
0000
0010
0100
0000
0000
0010
1000
0010
,  // measure 24
0100
0000
0000
0001
0100
0001
0010
0100
,  // measure 25
0000
0000
0010
0000
0001
0000
0000
0100
0000
0000
0100
0000
0001
0000
0010
0000
,  // measure 26
0001
1000
0010
1000
0001
0100
0010
0000
,  // measure 27
0100
0000
0010
0000
0100
0000
0010
0000
1000
0100
1000
0000
0000
0000
0000
0000
,  // measure 28
0100
0000
1000
0000
0000
0100
0000
0000
0010
0000
0000
0000
1000
0000
0000
0000
,  // measure 29
0010
0000
0001
0000
0000
0100
0000
0000
0010
0000
0000
0000
0001
0000
0000
0000
,  // measure 30
0010
0000
1000
0000
0001
0000
0000
1000
0000
0000
0000
0000
0100
0000
0000
0010
,  // measure 31
0000
0000
0100
0000
0010
0000
0000
0100
0000
0000
0000
0000
1000
0000
0000
0000
,  // measure 32
0001
0000
0100
0000
0000
0001
0000
0000
0100
0000
0000
0000
1000
0000
0000
0000
,  // measure 33
0100
0000
0001
0000
0000
0010
0000
0000
0100
0000
0000
0000
0001
0000
0000
0000
,  // measure 34
0100
0000
1000
0000
0100
0000
0000
0010
0000
0000
0000
0000
0100
0000
0000
0010
,  // measure 35
0000
0000
0001
0000
1000
0000
0000
0001
0000
0000
0000
0000
1000
0001
1000
0001
,  // measure 36
0000
0000
1000
0000
0001
0000
0000
0000
0010
0000
0000
0100
0000
0000
0010
0000
,  // measure 37
0001
0000
1000
0000
0001
0000
1000
0000
0010
0000
0000
0100
0000
0000
0100
0000
,  // measure 38
0001
0000
0010
0000
0001
0000
0010
0000
0001
0000
0000
1000
0000
0001
0000
0000
,  // measure 39
1000
0010
1000
0001
0100
0000
0000
0000
,  // measure 40
1000
0000
0001
0000
0000
0010
0000
0000
0001
0000
0000
0100
0000
0000
0000
0000
,  // measure 41
0001
0000
1000
0000
0000
0010
0000
0000
1000
0000
0000
0100
0000
0000
0000
0000
,  // measure 42
1000
0000
0001
0000
0000
1000
0000
0000
0100
0000
0000
1000
0000
0000
0000
0000
,  // measure 43
0001
0000
1000
0000
0000
0010
0000
0000
1000
0000
0100
0000
1000
0000
0100
0000
,  // measure 44
0010
0000
0000
0001
0000
0000
0100
0000
0001
0000
0000
0010
0000
0000
0001
0000
,  // measure 45
1000
0000
0010
0000
0000
0100
0000
0000
0010
0000
0000
1000
0000
0000
0001
0000
,  // measure 46
1000
0000
0001
0000
0000
0010
0000
0000
0100
0000
0000
0010
0000
0000
0001
0000
,  // measure 47
1000
0000
0100
0000
0000
0010
0000
0000
0001
0000
0000
0000
0000
0000
0000
0000
;

//---------------dance-single - I believe it's good and simple enough to do.----------------
#NOTES:
     dance-single:
     C 2 X 3:
     Easy:
     2:
     0.229926,0.213682,0.000000,0.000000,0.000000,161.000000,161.000000,0.000000,0.000000,0.000000,0.000000,0.229926,0.213682,0.000000,0.000000,0.000000,161.000000,161.000000,0.000000,0.000000,0.000000,0.000000:
// measure 0
0000
0000
0000
0000
,  // measure 1
0000
0000
0000
0000
,  // measure 2
0000
1000
0000
0001
,  // measure 3
0000
0010
0000
0100
,  // measure 4
1000
1000
1000
0001
,  // measure 5
0010
0010
0100
0010
,  // measure 6
0001
0001
0001
1000
,  // measure 7
0001
0010
0100
1000
,  // measure 8
0001
0010
0100
0010
,  // measure 9
0001
1000
0010
0100
,  // measure 10
0001
0001
1000
1000
,  // measure 11
0100
0010
0100
0000
,  // measure 12
1000
1000
1000
0001
,  // measure 13
1000
0010
0100
0010
,  // measure 14
1000
1000
1000
0001
,  // measure 15
0010
0001
1000
0100
,  // measure 16
1000
1000
0000
0001
,  // measure 17
1000
0010
0100
0010
,  // measure 18
1000
0001
0010
0100
,  // measure 19
1000
1000
0001
0000
,  // measure 20
1000
0010
0000
0010
,  // measure 21
1000
0100
0000
0100
,  // measure 22
1000
0010
0100
0001
,  // measure 23
1000
0001
0000
0001
,  // measure 24
0010
0001
0100
0001
,  // measure 25
0010
0100
0000
0100
,  // measure 26
0010
0000
0000
0010
0000
0000
0010
0000
,  // measure 27
0100
1000
0001
0000
,  // measure 28
0010
0001
1000
0100
,  // measure 29
1000
0001
0010
0001
,  // measure 30
0100
0001
1000
0001
,  // measure 31
0010
0001
1000
0010
,  // measure 32
0100
0010
1000
0001
,  // measure 33
0100
0001
0010
0001
,  // measure 34
0100
0010
1000
0001
,  // measure 35
0010
0001
0100
0000
,  // measure 36
0001
0001
0010
0100
,  // measure 37
0100
0100
0010
0001
,  // measure 38
1000
1000
0010
0100
,  // measure 39
0100
0010
1000
0000
,  // measure 40
0000
0100
0000
0100
,  // measure 41
0000
1000
0000
1000
,  // measure 42
0000
0001
0000
0001
,  // measure 43
0000
1000
0001
0100
,  // measure 44
0001
0100
0010
1000
,  // measure 45
0001
1000
0010
0100
,  // measure 46
0001
0010
0100
1000
,  // measure 47
0100
0010
0001
0000
;

//---------------dance-single - Beginner chart.----------------
#NOTES:
     dance-single:
     C1 X1:
     Beginner:
     1:
     0.128530,0.189939,0.000000,0.000000,0.000000,90.000000,90.000000,0.000000,0.000000,0.000000,0.000000,0.128530,0.189939,0.000000,0.000000,0.000000,90.000000,90.000000,0.000000,0.000000,0.000000,0.000000:
// measure 0
0000
0000
0000
0000
,  // measure 1
0000
0000
0000
0000
,  // measure 2
0000
0000
0000
0000
,  // measure 3
0000
0000
0000
0000
,  // measure 4
1000
0000
0000
0000
,  // measure 5
0001
0000
0000
0000
,  // measure 6
1000
0000
0000
0000
,  // measure 7
0001
0000
0000
0000
,  // measure 8
0010
0000
0010
0000
,  // measure 9
0100
0000
0000
0000
,  // measure 10
0010
0000
0010
0000
,  // measure 11
0001
0000
0000
0000
,  // measure 12
1000
1000
0000
0000
,  // measure 13
0001
0001
0000
0000
,  // measure 14
0010
0010
0000
0000
,  // measure 15
0001
0001
0000
0000
,  // measure 16
1000
0000
1000
0000
,  // measure 17
0010
0010
0100
0000
,  // measure 18
0001
0000
0001
0000
,  // measure 19
0100
0000
0010
0010
,  // measure 20
0100
0000
0000
0000
,  // measure 21
0010
0000
0000
0000
,  // measure 22
0100
0000
0010
0000
,  // measure 23
0100
0000
0000
0000
,  // measure 24
0001
0000
0000
0000
,  // measure 25
1000
0000
0000
0000
,  // measure 26
0001
0000
0001
0000
,  // measure 27
1000
1000
1000
0001
,  // measure 28
0000
0001
0000
1000
,  // measure 29
0000
0010
0010
0100
,  // measure 30
0000
0100
0000
0010
,  // measure 31
0010
0100
0000
0010
,  // measure 32
0000
0100
0000
0010
,  // measure 33
0000
1000
1000
0000
,  // measure 34
0000
0001
0000
1000
,  // measure 35
0000
0001
0000
1000
,  // measure 36
0001
0000
1000
0000
,  // measure 37
0001
0000
1000
0000
,  // measure 38
0001
0001
1000
0000
,  // measure 39
1000
0001
1000
0000
,  // measure 40
0000
0010
0000
0010
,  // measure 41
0000
0100
0000
0100
,  // measure 42
0000
0010
0000
0010
,  // measure 43
0000
0100
0010
0100
,  // measure 44
0010
0010
0100
0000
,  // measure 45
0001
0001
1000
0000
,  // measure 46
0100
0100
0010
0000
,  // measure 47
1000
1000
0001
0000
;

//---------------dance-double - Oh dear oh dear.----------------
#NOTES:
     dance-double:
     C 9 X 14:
     Hard:
     9:
     0.552680,0.688530,0.000000,0.000000,0.799744,387.000000,387.000000,0.000000,0.000000,0.000000,0.000000,0.552680,0.688530,0.000000,0.000000,0.799744,387.000000,387.000000,0.000000,0.000000,0.000000,0.000000:
00000000
00000000
00000000
00000000
,
00000000
00000000
00000000
00000000
,
00000001
00000000
00000000
00000010
00000000
00000100
00000000
00000000
00000010
00000000
00000000
00000001
00000000
00001000
00000000
00000000
,
00000010
00000000
00000000
00000100
00000000
00001000
00000000
00000000
00010000
00000000
00001000
00010000
00000000
00001000
00010000
00000010
,
00000000
00010000
00001000
00100000
00000000
00001000
00010000
00000010
00000000
00000100
00000010
00000100
00000000
00000100
00000001
00000010
,
00000000
00000000
00001000
00000000
00000010
00000100
00000000
00010000
00000000
00000000
00001000
00010000
00000010
00010000
00001000
01000000
,
00000000
00001000
00010000
00000100
00000000
00010000
00001000
01000000
00000000
00100000
00010000
00100000
00000000
10000000
00010000
00100000
,
00000000
00000000
10000000
00000000
00100000
00010000
10000000
00010000
00000000
01000000
00000000
01000000
00000000
01000000
00001000
00010000
,
00000100
00000010
00000100
00010000
00000000
00001000
01000000
00000000
00001000
00000000
01000000
00000000
00001000
00010000
01000000
00000000
,
00100000
00000000
01000000
00000000
00010000
00000000
00000000
00001000
00000000
00010000
00000000
00000100
00000001
00000100
00000010
00000000
,
00000100
00000000
00010000
00001000
00010000
00000000
00001000
01000000
00000000
00000000
00001000
00010000
00000000
00000010
00001000
00000000
,
00000001
00000000
00000001
00000000
00000010
00000100
00000000
00000000
00010000
00000000
00001000
00010000
00000000
00001000
01000000
00100000
,
00000000
01000000
00001000
00010000
00000000
00001000
00010000
00000100
00000000
00010000
00000100
00000010
00000000
00000100
00001000
00100000
,
00000000
00000000
10000000
00000000
00100000
00001000
00010000
00001000
00000000
01000000
00000000
00100000
00000000
00100000
01000000
00010000
,
00000000
00010000
00100000
00001000
00000000
00001000
00010000
00000010
00000000
00000100
00001000
00000100
00000000
00000010
00000100
00001000
,
00000000
00000000
00010000
00000000
01000000
00100000
00000000
10000000
00000000
01000000
00000000
01000000
00000000
01000000
00100000
01000000
,
10000000
00010000
10000000
01000000
00100000
01000000
10000000
00000000
00000000
00010000
01000000
00100000
01000000
00001000
00010000
00000000
,
00000000
00000000
00001000
00000000
01000000
00000000
00000000
10000000
00000000
01000000
00000000
00100000
00010000
00100000
01000000
00000000
,
00010000
00000000
01000000
00001000
00010000
00000100
00010000
00000010
00000000
00000000
00000100
00000001
00000000
00001000
00000000
00000000
,
00000100
00000000
00000100
00000000
00000010
00000100
00000000
00000000
00001000
00000000
00000100
00010000
00001000
00010000
00000010
00000000
,
00000100
00000000
00000000
00000000
00001000
00000000
00000000
00000000
00010000
00000000
00001000
00100000
00000000
00000000
00100000
00000000
,
01000000
00000000
00000000
00000000
00010000
00000000
00000000
00000000
00001000
00000000
00010000
00000100
00000000
00000000
00000100
00000000
,
00000010
00000000
00000100
00010000
00001000
00010000
00000100
00010000
,
00001000
00100000
01000000
00000000
00100000
10000000
00100000
00010000
,
01000000
00000000
00001000
00010000
00000100
00010000
01000000
00100000
,
00000000
00000000
01000000
00000000
10000000
00000000
00000000
00010000
00000000
00000000
10000000
00000000
01000000
00000000
00010000
00000000
,
00001000
00000100
00000001
00000010
00001000
00010000
00100000
00000000
,
10000000
00000000
00010000
00000000
10000000
00000000
00010000
00000000
10000000
00010000
10000000
00000000
00100000
00000000
00000000
00010000
,
00000000
00000000
00001000
00000000
00000010
00000000
00000000
00001000
00000000
00000000
00010000
00000000
00001000
00000000
00000000
01000000
,
00000000
00000000
00100000
00000000
10000000
00000000
00000000
00010000
00000000
00000000
01000000
00000000
00001000
00000000
00000000
00100000
,
00000000
00000000
00001000
00000000
00100000
01000000
00000000
00010000
00000000
00000000
01000000
00000000
00100000
00000000
00001000
00010000
,
00000000
00000000
00000010
00000000
00000100
00000010
00001000
00000001
00000000
00000000
00000001
00000000
00000010
00000000
00000000
00001000
,
00000000
00000000
00010000
00000000
00100000
00000000
00000000
00010000
00000000
00000000
00001000
00000000
00000010
00000000
00000000
00010000
,
00000000
00000000
00001000
00000000
00000010
00000000
00000000
00001000
00000000
00000000
00000010
00000000
00000100
00000000
00000000
00001000
,
00000000
00000000
00000001
00000000
00001000
00000010
00000000
00010000
00000000
00000000
00001000
00000000
00010000
00000000
00001000
00100000
,
00000000
00001000
00010000
00000000
00000100
00000000
00000010
00000100
00000000
00000000
00000100
00000000
00010000
00001000
01000000
00010000
,
00000000
01000000
00001000
00010000
00000100
00000000
00000010
00000000
00000100
00000000
00000001
00000100
00000000
00001000
00000000
00000100
,
00010000
00001000
01000000
00100000
01000000
00001000
00010000
00000100
00000010
00000000
00000100
00001000
00000000
00000100
00010000
00001000
,
01000000
00100000
01000000
00001000
00100000
00001000
00010000
00000010
00000100
00000010
00000000
00010000
00000000
00001000
00100000
01000000
,
10000000
00100000
00010000
00001000
00000010
00000001
00001000
00000000
,
00000010
00000000
00000001
00000000
00000000
00000010
00000000
00000000
00001000
00000000
00000000
00000001
00000000
00000000
00000000
00000000
,
00001000
00000000
00000100
00000000
00000000
00010000
00000000
00000000
00000010
00000000
00000000
00010000
00000000
00001000
00000000
00000000
,
01000000
00000000
10000000
00000000
00000000
01000000
00000000
00000000
00010000
00000000
00000000
00100000
00000000
00001000
00000000
00000000
,
00010000
00000000
00000100
00000000
00000000
00000010
00000000
00000000
00000100
00000000
00000100
00000000
00000100
00000000
00000100
00000000
,
00001000
00000000
00000010
00000000
00000000
00010000
00000000
00000000
00001000
00000000
00000000
01000000
00000000
00000000
00010000
00000000
,
00100000
00000000
01000000
00000000
00000000
00010000
00000000
00000000
00001000
00000000
00000000
00010000
00000000
00000000
00000100
00000000
,
00000010
00000000
00001000
00000000
00000000
00000010
00000000
00000000
00000001
00000000
00000000
00000100
00000000
00000000
00000010
00000000
,
00010000
00000000
00000100
00000000
00000000
00010000
00000000
00000000
00001000
00000000
00000000
00000000
00000000
00000000
00000000
00000000
;

//---------------dance-double - It's... something?----------------
#NOTES:
     dance-double:
     C 7 X 12:
     Medium:
     7:
     0.372738,0.379878,0.000000,0.000000,0.194938,261.000000,261.000000,0.000000,0.000000,0.000000,0.000000,0.372738,0.379878,0.000000,0.000000,0.194938,261.000000,261.000000,0.000000,0.000000,0.000000,0.000000:
00000000
00000000
00000000
00000000
,
00000000
00000000
00000000
00000000
,
10000000
10000000
00100000
00000000
01000000
00000000
00001000
00000000
,
00010000
00000000
00010000
00000000
00000100
00000000
00000000
00000000
00000010
00000000
00000000
00000100
00000000
00000000
00000100
00000000
,
00001000
00001000
00000010
00000000
00010000
00000000
00001000
00000000
,
00010000
00010000
00000100
00000000
00001000
00000000
00010000
00000000
,
00100000
00100000
01000000
00000000
00100000
00000000
00001000
00000000
,
00010000
00010000
00000010
00000000
00010000
00000000
00001000
00000000
,
01000000
01000000
00100000
01000000
00000000
00010000
00100000
00000000
,
01000000
00000000
01000000
00000000
00010000
00000000
00000000
01000000
00000000
00100000
00000000
00001000
00000000
00000000
00010000
00000000
,
00001000
00001000
00100000
01000000
00000000
01000000
00100000
00000000
,
00010000
00000000
00010000
00000000
00100000
00000000
00000000
00000000
00001000
00000000
00010000
00000000
00000000
00000010
00000000
00000000
,
00000100
00000100
00000010
00000000
00010000
00000000
00000010
00000000
,
00001000
00001000
00000100
00000000
00000010
00000000
00001000
00000000
,
00010000
00010000
01000000
00000000
00100000
00000000
00010000
00000000
,
01000000
01000000
00001000
00000000
00010000
00000000
00000100
00000000
,
00000010
00000010
00000100
00000001
00000000
00000100
00000010
00000010
,
00000000
00000000
00000001
00000000
00001000
00000000
00000000
00000100
00000000
00010000
00000000
00000000
00100000
00000000
00000000
00000000
,
10000000
10000000
00010000
00000000
00100000
00000000
00001000
00000000
,
00010000
00000000
00010000
00000000
00001000
00000000
00000000
00000000
01000000
00000000
00001000
00000000
00000000
00100000
00000000
00000000
,
01000000
00000000
00000000
00000000
01000000
00000000
00000000
00000000
00100000
00000000
00000000
00001000
00000000
00000000
00010000
00000000
,
00000010
00000000
00000000
00000000
00000010
00000000
00000000
00000000
00010000
00000000
00000000
00001000
00000000
00000000
00100000
00000000
,
10000000
00000000
00100000
00010000
10000000
00010000
01000000
01000000
,
00000000
00100000
01000000
00000000
01000000
00100000
00010000
00100000
,
01000000
00000000
00001000
00010000
00000100
00010000
00000010
00000001
,
00000000
00000000
00000010
00000000
00000100
00000000
00000000
00000100
00000000
00000000
00000100
00000000
00000001
00000000
00001000
00000000
,
00000010
00010000
00000100
00000010
00000001
00000100
00001000
00000000
,
00010000
00001000
00010000
00001000
00100000
00100000
00000000
00000000
,
00001000
00000000
00001000
00000000
00000000
01000000
00000000
00000000
00010000
00000000
00000000
00000000
00100000
00000000
00000000
00000000
,
00001000
00000000
00010000
00000000
00000000
00000100
00000000
00000000
00000010
00000000
00000000
00000000
00000001
00000000
00000000
00000000
,
00000100
00000000
00000010
00000000
00001000
00000000
00000000
00000100
00000000
00000000
00000000
00000000
00000010
00000000
00000000
00001000
,
00000000
00000000
00010000
00000000
00001000
00000000
00010000
00000000
00000000
00000100
00000000
00000000
00010000
00000000
00000000
00000000
,
00000100
00000000
00000100
00000000
00000000
00010000
00000000
00000000
00001000
00000000
00000000
00000000
01000000
00000000
00000000
00000000
,
00100000
00000000
00100000
00000000
00000000
00010000
00000000
00000000
00100000
00000000
00000000
00000000
01000000
00000000
00000000
00000000
,
00010000
00000000
00100000
00000000
00010000
00000000
00000000
00100000
00000000
00000000
00000000
00000000
01000000
00000000
00000000
00010000
,
00000000
00000000
01000000
00000000
00100000
00000000
00000000
00001000
00000000
00000000
00000000
00000000
00010000
00000000
00010000
00000000
,
00010000
00000000
00001000
00000000
00100000
00000000
00000000
00000000
01000000
00000000
00000000
00100000
00000000
00000000
00010000
00000000
,
01000000
00000000
00001000
00000000
01000000
00000000
00001000
00000000
00010000
00000000
00000010
00000100
00000000
00000000
00000010
00000000
,
00010000
00000000
00000010
00000000
00010000
00000000
00001000
00000000
00100000
00000000
00000000
01000000
00000000
00100000
00000000
00000000
,
00010000
01000000
10000000
01000000
00010000
00000000
00010000
00000000
,
10000000
00000000
00010000
00000000
00000000
01000000
00000000
00000000
00100000
00000000
00000000
01000000
00000000
00000000
00000000
00000000
,
00010000
00000000
00100000
00000000
00000000
00001000
00000000
00000000
00010000
00000000
00000000
00000100
00000000
00000000
00000000
00000000
,
00001000
00000000
00000010
00000000
00000000
00001000
00000000
00000000
00000001
00000000
00000000
00000100
00000000
00000000
00000000
00000000
,
00000010
00000000
00010000
00000000
00000000
00000010
00000000
00000000
00010000
00000000
00001000
00000000
00100000
00000000
01000000
00000000
,
00100000
00000000
00000000
00010000
00000000
00000000
01000000
00000000
00010000
00000000
00000000
00010000
00000000
00000000
00100000
00000000
,
01000000
00000000
00100000
00000000
00000000
10000000
00000000
00000000
00100000
00000000
00000000
00001000
00000000
00000000
00010000
00000000
,
00010000
00000000
00000010
00000000
00000000
00000001
00000000
00000000
00000010
00000000
00000000
00001000
00000000
00000000
00000100
00000000
,
00010000
00000000
01000000
00000000
00000000
00100000
00000000
00000000
00010000
00000000
00000000
00000000
00000000
00000000
00000000
00000000
;

//---------------dance-double - A little too streamy.----------------
#NOTES:
     dance-double:
     C 3 X 5:
     Easy:
     3:
     0.241351,0.213682,0.000000,0.000000,0.000000,169.000000,169.000000,0.000000,0.000000,0.000000,0.000000,0.241351,0.213682,0.000000,0.000000,0.000000,169.000000,169.000000,0.000000,0.000000,0.000000,0.000000:
00000000
00000000
00000000
00000000
,
00000000
00000000
00000000
00000000
,
10000000
00000000
01000000
00000000
,
00100000
00000000
00001000
00010000
,
00000010
00000100
00000010
00001000
,
00000001
00000010
00000100
00010000
,
00001000
00010000
00001000
00100000
,
00001000
00010000
00000100
00001000
,
00000100
00010000
00001000
00100000
,
01000000
00010000
01000000
00100000
,
00001000
01000000
00001000
00010000
,
00000100
00000010
00000100
00000000
,
00000100
00010000
00000100
00010000
,
00001000
01000000
10000000
01000000
,
00001000
01000000
00001000
01000000
,
00100000
00010000
00100000
01000000
,
00001000
00010000
00001000
00000010
,
00000100
00000001
00000100
00000010
,
00000001
00000100
00001000
00000100
,
00000010
00010000
00001000
00000000
,
00100000
10000000
00100000
00010000
,
01000000
10000000
01000000
00001000
,
00010000
00000100
00000010
00001000
,
00000010
00000100
00000000
00001000
,
00000001
00000100
00000010
00010000
,
00001000
00100000
01000000
10000000
,
00100000
01000000
00100000
00010000
,
00100000
01000000
00100000
00000000
,
01000000
00001000
00010000
00001000
,
00010000
00000100
00000010
00000100
,
00010000
00001000
00100000
00001000
,
01000000
00100000
01000000
10000000
,
01000000
00100000
01000000
00001000
,
00010000
00000100
00000010
00000100
,
00000001
00000100
00000010
00000001
,
00001000
00000010
00010000
00001000
,
00100000
00100000
00100000
01000000
,
10000000
10000000
10000000
00100000
,
00010000
00010000
00010000
00100000
,
00010000
00001000
00000100
00000010
,
00000000
00001000
00000000
00000001
,
00000000
00000100
00000000
00000010
,
00000000
00010000
00000000
00001000
,
00000000
00100000
01000000
01000000
,
01000000
10000000
01000000
01000000
,
10000000
00100000
01000000
01000000
,
00001000
00010000
00000100
00000100
,
00001000
00000010
00010000
00000000
;
