#TITLE:CITRUS MONSTER;
#SUBTITLE:;
#ARTIST:D-Cee;
#TITLETRANSLIT:;
#SUBTITLETRANSLIT:;
#ARTISTTRANSLIT:;
#GENRE:Hardcore;
#CREDIT:Daffa212162 (Song), CuzcoBlocko (Steps) ...again =P;
#BANNER:CITRUS MONSTER.png;
#BACKGROUND:CITRUS MONSTER-bg.png;
#LYRICSPATH:;
#CDTITLE:cdtitle.png;
#MUSIC:CITRUS MONSTER.ogg;
#OFFSET:-0.560;
#SAMPLESTART:19.105;
#SAMPLELENGTH:15.000;
#SELECTABLE:YES;
#DISPLAYBPM:110.000:220.000;
#BPMS:0.000=220.000,60.000=94.286,63.000=220.000,159.000=440.000,160.000=220.000,185.500=165.000,186.250=110.000,196.000=165.000,208.000=220.000,296.500=165.000,296.875=110.000,297.125=82.500,297.313=55.000,297.563=82.500,297.750=110.000,299.500=440.000,300.167=330.000,300.667=220.000,409.000=110.000,414.500=165.000,414.667=110.000,414.792=82.500,415.000=55.000;
#STOPS:121.000=0.136,122.500=0.136,160.000=0.137,160.500=0.136,161.000=0.136;
#BGCHANGES:;
#KEYSOUNDS:;
#ATTACKS:;

//---------------dance-single - Roll trickery, circular patterns, other things... oh my.----------------
#NOTES:
     dance-single:
     ITG 10 X 16:
     Challenge:
     10:
     0.815012,0.932798,0.563970,0.768307,0.326939,698.000000,629.000000,69.000000,94.000000,100.000000,0.000000,0.815012,0.932798,0.563970,0.768307,0.326939,698.000000,629.000000,69.000000,94.000000,100.000000,0.000000:
// measure 0
0000
0000
0000
0000
,  // measure 1
0021
0000
0031
0000
1000
0010
0100
0001
,  // measure 2
1000
1000
0100
0020
0001
0000
M130
0000
,  // measure 3
00M0
0000
110M
0000
1000
0010
0100
0001
,  // measure 4
1000
0100
0100
0010
0001
0100
0010
0000
,  // measure 5
1020
0000
1030
0000
0001
0010
0100
1000
,  // measure 6
0001
0001
0100
0020
1000
0000
013M
00M0
,  // measure 7
0000
M000
0101
0000
0001
0010
0100
1000
,  // measure 8
0001
0100
0100
0010
1000
0001
1000
0000
,  // measure 9
1200
0310
0012
1003
,  // measure 10
1020
0130
0102
1003
,  // measure 11
2100
3001
0201
0310
,  // measure 12
2010
3001
0021
0130
,  // measure 13
1000
0100
0010
0100
0001
0100
1000
0001
,  // measure 14
0400
0010
0000
1000
0000
0001
0000
1300
,  // measure 15
02M0
0000
0000
0000
0000
0000
0000
0000
0000
0000
0000
000M
0000
0000
0000
0000
0000
0000
0000
0000
0000
0000
0000
00M0
0000
0000
0000
0000
0000
0000
0000
0000
0000
000M
0000
0000
0000
0000
0000
0000
0000
0000
0000
0000
0000
00M0
0000
0000
0000
0000
0000
0000
0300
0000
0000
0000
0000
0000
0000
0000
0000
0000
0000
0000
0000
0000
0000
0000
0000
000M
0000
0000
0000
0000
0000
0000
0000
0000
0000
0000
0000
00M0
0000
0000
0000
0000
0000
0000
0000
0000
0000
0000
0000
0000
0000
0000
0000
0000
0000
0000
0000
0000
000M
0000
0000
0000
0000
0000
0000
0000
0000
0000
0000
0000
00M0
0000
0000
0000
0000
0000
0000
0000
0000
000M
0000
0000
0000
0000
0000
0000
0000
0000
0000
0000
0000
00M0
0000
0000
0000
0000
0000
0000
0000
0000
0101
0000
0000
0000
0000
0000
0000
0000
0000
0000
0000
0000
0000
0000
0000
0000
0000
0000
0000
0000
0000
0000
0000
0000
M0MM
0000
0000
0000
0000
0000
0000
0000
0000
0000
0000
0000
0000
0000
0000
0000
0000
0000
0000
0000
0000
0000
0000
0000
,  // measure 16
0001
0010
0100
0040
0001
0000
0130
0010
,  // measure 17
0001
0100
1000
0100
0002
0000
1003
0000
,  // measure 18
1000
0010
0100
0040
1000
0000
0130
0010
,  // measure 19
1000
0100
0001
0100
0010
0100
1000
0000
,  // measure 20
1000
0010
0100
0040
1000
0000
0130
0010
,  // measure 21
1000
0000
0100
0000
0001
0000
0100
0000
2000
0000
0000
0000
3040
0400
0000
0030
,  // measure 22
0301
0010
0100
0040
0001
0000
0130
0010
,  // measure 23
0002
0003
0200
0300
2000
3000
0200
0300
0002
0000
1003
0000
0200
0000
0300
0000
,  // measure 24
0110
0010
0000
0011
0000
0101
0000
0011
,  // measure 25
0000
0001
0100
1000
0100
0001
MMM0
0000
,  // measure 26
0010
0100
0000
1100
0000
1010
0000
1000
,  // measure 27
0200
0300
0002
0003
0200
0300
2000
3000
0002
0000
0103
0000
0020
0000
0030
0000
,  // measure 28
0110
0010
0000
1010
0000
1100
0000
1010
,  // measure 29
0000
1000
0100
0001
0100
1000
2000
0000
,  // measure 30
3001
0000
0100
0000
MMM0
0000
1000
0000
0100
0000
0MMM
0000
0002
0003
0200
0300
,  // measure 31
0040
0400
0000
0030
0302
0000
0003
0000
2000
0000
3100
0000
0010
0000
0001
0000
,  // measure 32
0000
0001
0100
0010
0000
1010
0000
1000
,  // measure 33
0001
0010
0200
0000
1300
0001
0100
0001
,  // measure 34
0001
1000
0100
0010
0000
0011
0000
0001
,  // measure 35
0100
0000
0010
0000
1000
0000
0001
0000
0200
0000
0000
0300
1010
0000
0000
0000
,  // measure 36
1000
0001
0010
0100
0000
1100
0000
1000
,  // measure 37
0001
0100
0020
0000
1030
0001
0010
0001
,  // measure 38
0001
1000
0010
0100
0000
0101
0000
0001
,  // measure 39
0010
0000
0100
0000
1000
0000
0001
0000
0200
0000
0300
0000
000M
00M0
0M00
M000
,  // measure 40
0000
MM00
M0M0
1010
0000
1000
0100
0001
,  // measure 41
0200
0000
1300
0010
0100
0010
0010
1000
,  // measure 42
0100
0001
0000
0101
0000
0100
1000
0001
,  // measure 43
0100
0010
2000
0000
3100
0010
0001
0100
,  // measure 44
0010
1000
0000
1001
0000
0001
0010
1000
,  // measure 45
0020
0000
0031
0100
0010
1000
1000
0001
,  // measure 46
0100
0000
0000
0000
0000
0000
1000
0000
0000
0000
0000
0000
0000
0000
0000
0000
0000
0000
1100
0000
0000
0000
0000
0000
0000
0000
0000
0100
0000
0000
0010
0000
0000
0100
0000
0000
0001
0000
0000
1000
0000
0000
0200
0000
0000
0000
0300
0000
,  // measure 47
022M
0000
0000
0000
0000
0000
0000
0000
0000
0000
0000
0000
M000
0000
0000
0000
0000
0000
0000
0000
0000
0000
0030
0300
,  // measure 48
000M
000M
000M
000M
0M00
0M00
0M00
0M00
,  // measure 49
M002
0000
0000
0M00
0000
0000
00M0
0000
0000
0M00
0000
0000
00M0
0000
0000
M000
0000
0000
0M00
0000
0000
M000
0000
0000
0M23
0000
0000
M000
0000
0000
0M00
0000
,  // measure 50
0000
M000
0000
0000
000M
0000
0000
0M00
0000
0000
000M
0000
0000
M000
0000
0000
0230
0000
0000
M000
0000
0000
00M0
0000
0000
M000
0000
0000
00M0
0000
0000
000M
,  // measure 51
0000
0000
00M0
0000
0000
000M
0000
0000
23M0
0000
0000
000M
0000
0000
00M0
0000
0000
0M00
0000
0000
000M
0000
0000
00M0
0000
0000
000M
0000
0000
00M0
0000
0000
,  // measure 52
3100
0000
0040
0030
0001
0000
0040
0030
0100
0000
1000
0000
0100
0000
0002
0000
,  // measure 53
0000
0000
0403
0300
0010
0000
0400
0300
1000
0000
0001
0000
0100
0000
0020
0000
,  // measure 54
0000
0000
0430
0300
0001
0000
0400
0300
0010
0000
1000
0000
0100
0000
0020
0000
,  // measure 55
0000
0000
0034
0003
0010
0000
0400
0300
0010
0000
0001
0000
1000
0000
0001
0000
,  // measure 56
0100
0000
0040
0030
1000
0000
0040
0030
0100
0000
0001
0000
0100
0000
2000
0000
,  // measure 57
0000
0000
3400
0300
0010
0000
0400
0300
0001
0000
1000
0000
0100
0000
0020
0000
,  // measure 58
0000
0000
0430
0300
1000
0000
0400
0300
0010
0000
0001
0000
0100
0000
0020
0000
,  // measure 59
0000
0000
4030
3000
0010
0000
0400
0300
0001
0000
1000
0000
0100
0000
0010
0000
,  // measure 60
0012
1003
1020
0130
,  // measure 61
0102
1003
1200
0310
,  // measure 62
0021
0130
2100
3001
,  // measure 63
0201
0310
2010
3001
,  // measure 64
0011
1001
1010
1001
,  // measure 65
1100
1001
0101
1001
,  // measure 66
1100
0011
1001
1010
,  // measure 67
0201
0010
0301
MMMM
,  // measure 68
1000
0100
0010
0100
0001
0100
0010
0100
,  // measure 69
1000
0001
0100
0010
0100
1000
0100
0100
,  // measure 70
0001
0010
0100
0010
1000
0010
0100
0010
,  // measure 71
0001
1000
0010
0100
0010
0001
0010
0010
,  // measure 72
4000
3400
0304
0043
,  // measure 73
4030
3400
0304
0403
4300
3040
0034
0023
,  // measure 74
0200
0000
0000
0000
0000
0000
0330
0000
0010
0100
0010
0100
0001
1000
1001
0000
,  // measure 75
0000
0000
0000
0000
0101
0000
0100
0010
0100
0000
0001
0100
0001
0000
1000
0000
,  // measure 76
0100
0000
0020
0000
0000
0000
0031
0010
0001
0000
1000
0010
1000
0000
0001
0000
,  // measure 77
0100
0000
2000
0000
0000
0000
3100
0010
0100
0000
0001
0100
0001
0000
1000
0000
,  // measure 78
0100
0000
0002
0000
0000
0000
0103
0010
0100
0000
1000
0100
1000
0000
0010
0000
,  // measure 79
0100
0000
0001
0000
0010
0000
0100
0010
0100
0000
1000
0100
1000
0000
0001
0000
,  // measure 80
0100
0000
0020
0000
0000
0000
1030
0010
1000
0000
0001
0010
0001
0000
1000
0000
,  // measure 81
0100
0000
0002
0000
0000
0000
0103
0010
0100
0000
1000
0100
1000
0000
0001
0000
,  // measure 82
0100
0000
0010
0000
2000
3000
0200
0300
0002
0003
0200
0300
2000
0000
3001
0000
,  // measure 83
0200
0000
0300
0000
1010
0000
0010
1000
0010
0000
0100
0010
0100
0000
0001
0000
,  // measure 84
0000
0000
0021
0000
0000
0000
0130
1000
0100
0000
0010
0100
0010
0000
0001
0000
,  // measure 85
MMM0
0000
0102
0000
0000
0000
1003
0010
1000
0000
0010
0100
0010
0000
0100
0000
,  // measure 86
0000
0102
0000
MM13
0000
M11M
0000
M1M0
,  // measure 87
10MM
0000
0000
0000
0001
0000
0010
0001
0010
0000
0100
0010
0100
0000
1000
0000
,  // measure 88
0000
0000
1020
0000
0000
0000
0130
0001
0100
0000
0010
0100
0010
0000
1000
0000
,  // measure 89
0MMM
0000
2100
0000
0000
0000
3001
1000
0001
0000
0010
0001
0010
0000
0100
0000
,  // measure 90
0000
1000
2001
0000
0010
0000
3004
0000
,  // measure 91
0013
0000
1100
0100
0001
0100
1000
0100
,  // measure 92
0001
0000
1000
0000
0010
0000
0001
0000
0010
0000
0100
0000
1000
0000
0000
1001
,  // measure 93
0MM0
0001
0001
0100
1000
0100
0001
0100
,  // measure 94
1000
0000
0001
0000
0010
0000
1000
0000
0010
0000
0100
0000
0001
0000
0000
1001
,  // measure 95
0000
2000
3100
0200
0301
0002
0103
0200
,  // measure 96
1300
0000
2000
0000
3010
0000
0020
0000
0031
0000
0002
0000
0013
0000
0020
1030
,  // measure 97
0M0M
0000
0002
0000
4003
0004
0000
0000
0000
0000
0000
0000
0000
0000
0000
0000
,  // measure 98
0000
3000
0023
0000
0000
0000
0031
1000
0020
0000
1030
0001
0010
0000
0100
0000
,  // measure 99
1000
0001
0100
0010
0000
0010
1000
0100
,  // measure 100
0000
0110
0000
0100
0001
0100
2000
0000
,  // measure 101
3010
0000
0100
0000
0004
4000
0000
0000
0000
0000
0000
0000
0000
0000
0000
0000
,  // measure 102
0000
0000
0000
3000
0000
0103
1000
0100
0001
0010
0100
0000
2200
0000
0000
0000
,  // measure 103
0000
0000
0000
3300
;

//---------------dance-single - Easier pad play. (For me at least? =P)----------------
#NOTES:
     dance-single:
     ITG 08 X 13:
     Hard:
     8:
     0.676063,0.763198,0.588490,0.711092,0.049041,579.000000,507.000000,72.000000,87.000000,81.000000,0.000000,0.676063,0.763198,0.588490,0.711092,0.049041,579.000000,507.000000,72.000000,87.000000,81.000000,0.000000:
// measure 0
0000
0000
0000
0000
,  // measure 1
2001
0000
3002
0000
0103
0010
0100
0001
,  // measure 2
1000
0100
0000
0020
0002
0000
0033
0000
,  // measure 3
0000
0000
0101
0000
0100
0010
0100
0001
,  // measure 4
1000
0001
0000
0010
0100
1000
0001
0000
,  // measure 5
1002
0000
2003
0000
3100
0010
0100
1000
,  // measure 6
0001
0100
0000
0020
2000
0000
3030
0000
,  // measure 7
0000
0000
1100
0000
0100
0010
0100
1000
,  // measure 8
0001
0100
0000
0010
1000
0001
0100
0000
,  // measure 9
1002
0100
2003
0010
,  // measure 10
3002
0010
2003
0100
,  // measure 11
3002
0100
0010
0100
,  // measure 12
2003
0100
0010
0100
,  // measure 13
3001
0010
0001
0010
0100
1000
0100
1000
,  // measure 14
0020
1000
2030
0010
3020
0100
0230
0001
,  // measure 15
0301
0000
0000
0000
0000
0000
0000
0000
0000
0000
0000
0000
0000
MMMM
0000
0000
0000
0000
0000
0000
0000
0000
0000
0000
0000
0000
0000
0000
0000
0000
0000
0000
0000
0000
0000
0000
1001
0000
0000
0000
0000
0000
0000
0000
0000
0000
0000
0000
,  // measure 16
0001
0010
0M00
0010
1000
0100
00M0
0101
,  // measure 17
0000
0001
0010
0100
1000
0000
MMMM
0000
,  // measure 18
1000
0010
0M00
0010
0001
0100
00M0
1100
,  // measure 19
0000
1000
0010
0001
0010
0100
0010
0000
,  // measure 20
1000
0100
00M0
0100
0001
0010
0M00
1010
,  // measure 21
0000
1000
0100
0010
0001
0000
MMMM
0000
,  // measure 22
0001
0100
00M0
0100
1000
0010
0M00
0010
,  // measure 23
0001
1000
0001
1000
0020
0000
0130
0000
,  // measure 24
1001
0000
1000
0001
0000
0011
0000
1010
,  // measure 25
0000
1100
0000
1010
0000
0011
MMM0
0000
,  // measure 26
1001
0000
0001
0100
0000
0110
0000
0010
,  // measure 27
1000
0001
1000
0001
0020
0000
0130
0000
,  // measure 28
1001
0000
0001
1000
0000
1010
0000
0011
,  // measure 29
0000
0101
0000
0011
0000
1010
0MMM
0000
,  // measure 30
1200
0000
0310
0012
0000
1003
0001
1000
,  // measure 31
0002
0010
0023
0000
0130
0000
2002
0000
,  // measure 32
3003
0001
0100
0010
0000
0010
0000
0100
,  // measure 33
0010
1000
0200
0000
0301
0100
0000
1000
,  // measure 34
0100
1000
0000
0010
0000
0010
0000
0100
,  // measure 35
0010
0100
0001
1000
0100
0000
2002
0000
,  // measure 36
3003
1000
0100
0010
0000
0010
0000
0100
,  // measure 37
0010
0001
0200
0000
1300
0100
0000
0001
,  // measure 38
0100
0001
0000
0010
0000
0010
0000
0100
,  // measure 39
0010
0100
1000
0001
0100
0000
MMMM
0000
,  // measure 40
0000
0M00
00M0
1002
0000
0103
0010
1000
,  // measure 41
0200
0000
0001
0000
1300
0010
0000
0010
,  // measure 42
0100
0001
0000
0001
0000
0100
0010
1000
,  // measure 43
0001
1000
0100
0000
0010
0100
0000
1000
,  // measure 44
0001
0010
0000
0010
0000
0100
0010
0001
,  // measure 45
0200
0000
1000
0000
0301
0010
0000
0010
,  // measure 46
0100
0000
1000
0000
0000
0000
1001
0000
0000
0M00
00M0
000M
M000
000M
0M00
0000
,  // measure 47
0202
0000
0000
0000
,  // measure 48
0303
0000
0000
0000
,  // measure 49
0200
0000
0000
0000
0000
0300
2000
0000
,  // measure 50
0000
0000
0000
3000
0020
0000
0000
0000
,  // measure 51
0000
0030
0002
0000
0000
0000
0000
0003
,  // measure 52
0101
0000
1010
0000
1000
0001
0000
0022
,  // measure 53
0000
0033
0101
0000
0100
0010
0000
2020
,  // measure 54
0000
3030
1001
0000
0001
0010
0000
0220
,  // measure 55
0000
0330
0011
0000
0001
0100
0010
1000
,  // measure 56
0001
0000
0011
0000
0001
1000
0000
2020
,  // measure 57
0000
3030
1100
0000
0100
0010
0000
0022
,  // measure 58
0000
0033
1001
0000
1000
0010
0000
0220
,  // measure 59
0000
0330
1010
0000
1000
0100
0010
0001
,  // measure 60
2000
0010
3002
0010
,  // measure 61
2003
0100
3002
0100
,  // measure 62
2003
0010
0100
0010
,  // measure 63
3002
0010
0100
0010
,  // measure 64
0203
1000
0010
0302
,  // measure 65
0010
2003
0010
0001
,  // measure 66
3200
0001
0010
2300
,  // measure 67
0010
3002
0013
MMMM
,  // measure 68
1001
0101
1010
1001
,  // measure 69
0011
1100
0110
1001
,  // measure 70
0011
0101
1010
1100
,  // measure 71
1001
0101
1010
1001
,  // measure 72
1000
0010
1000
0010
0100
0001
0100
0001
,  // measure 73
0020
0100
0230
1000
2300
0001
3002
0100
,  // measure 74
0200
0000
0000
0000
0000
0000
0303
0000
00M0
0M00
00M0
000M
00M0
M000
MMMM
0000
,  // measure 75
0000
0000
1000
0100
0010
0100
1000
0010
,  // measure 76
0000
0002
0000
0013
1000
0010
0100
0001
,  // measure 77
0000
0020
0000
1030
0010
0001
0100
0010
,  // measure 78
0000
2000
0000
3100
0001
0100
1000
0010
,  // measure 79
0001
0010
1000
0010
0100
0001
0010
1000
,  // measure 80
0000
0020
0000
0031
0010
0100
1000
0001
,  // measure 81
0000
0200
0000
0310
1000
0100
0001
0100
,  // measure 82
0000
1000
0001
1000
0001
1000
0020
0000
,  // measure 83
0130
0000
1001
0000
0001
1000
0100
0010
,  // measure 84
0000
0021
0000
0031
0010
0100
1000
0001
,  // measure 85
M000
0102
0000
0103
0010
1000
0001
0100
,  // measure 86
0000
0000
0120
0000
0000
0030
101M
0000
0000
0000
011M
0000
0000
0000
001M
0000
,  // measure 87
100M
0000
1001
0000
1000
0001
0100
0010
,  // measure 88
0000
1020
0000
1030
0100
0001
0100
1000
,  // measure 89
000M
1200
0000
1300
0010
0001
0010
1000
,  // measure 90
0000
0001
M020
0000
M100
0000
M001
M000
,  // measure 91
M130
0000
1000
0100
0010
0100
1000
0100
,  // measure 92
0010
0000
0100
0000
0001
0000
0100
0000
0010
0000
0100
0000
0001
0000
0000
0100
,  // measure 93
0000
1000
0001
0100
0010
0100
0001
0100
,  // measure 94
0010
0000
0100
0000
1000
0000
0100
0000
0010
0000
0100
0000
1000
0000
0000
0100
,  // measure 95
0000
0001
0010
0100
0010
1000
0010
0100
,  // measure 96
0010
0001
1000
0010
0100
0010
0001
0010
,  // measure 97
0100
0010
2000
0001
3002
0013
0020
0100
,  // measure 98
0230
2000
0000
000M
33M0
000M
MM00
00M0
,  // measure 99
0M00
M000
0001
0010
0000
0100
1000
0010
,  // measure 100
0000
0110
0000
0010
0001
0010
1000
0000
,  // measure 101
MMMM
0000
0001
0010
0000
1000
0010
0001
,  // measure 102
0000
0000
0001
0000
0000
0M00
00M0
M000
000M
M000
0M00
0000
0220
0000
0000
0000
,  // measure 103
0000
0000
0000
0330
;

//---------------dance-single - Roll-less in case your Stepmania can't handle them.----------------
#NOTES:
     dance-single:
     ITG 10 X 16 (sans rolls):
     Edit:
     1:
     0.833694,0.932798,0.563970,0.866388,0.388240,714.000000,645.000000,69.000000,106.000000,127.000000,0.000000,0.833694,0.932798,0.563970,0.866388,0.388240,714.000000,645.000000,69.000000,106.000000,127.000000,0.000000:
// measure 0
0000
0000
0000
0000
,  // measure 1
0021
0000
0031
0000
1000
0010
0100
0001
,  // measure 2
1000
1000
0100
0020
0001
0000
M130
0000
,  // measure 3
00M0
0000
110M
0000
1000
0010
0100
0001
,  // measure 4
1000
0100
0100
0010
0001
0100
0010
0000
,  // measure 5
1020
0000
1030
0000
0001
0010
0100
1000
,  // measure 6
0001
0001
0100
0020
1000
0000
013M
00M0
,  // measure 7
0000
M000
0101
0000
0001
0010
0100
1000
,  // measure 8
0001
0100
0100
0010
1000
0001
1000
0000
,  // measure 9
1200
0310
0012
1003
,  // measure 10
1020
0130
0102
1003
,  // measure 11
2100
3001
0201
0310
,  // measure 12
2010
3001
0021
0130
,  // measure 13
1000
0100
0010
0100
0001
0100
1000
0001
,  // measure 14
0200
0310
0200
1300
0200
0301
0200
1300
,  // measure 15
02M0
0000
0000
0000
0000
0000
0000
0000
0000
0000
0000
000M
0000
0000
0000
0000
0000
0000
0000
0000
0000
0000
0000
00M0
0000
0000
0000
0000
0000
0000
0000
0000
0000
000M
0000
0000
0000
0000
0000
0000
0000
0000
0000
0000
0000
00M0
0000
0000
0000
0000
0000
0000
0300
0000
0000
0000
0000
0000
0000
0000
0000
0000
0000
0000
0000
0000
0000
0000
0000
000M
0000
0000
0000
0000
0000
0000
0000
0000
0000
0000
0000
00M0
0000
0000
0000
0000
0000
0000
0000
0000
0000
0000
0000
0000
0000
0000
0000
0000
0000
0000
0000
0000
000M
0000
0000
0000
0000
0000
0000
0000
0000
0000
0000
0000
00M0
0000
0000
0000
0000
0000
0000
0000
0000
000M
0000
0000
0000
0000
0000
0000
0000
0000
0000
0000
0000
00M0
0000
0000
0000
0000
0000
0000
0000
0000
0101
0000
0000
0000
0000
0000
0000
0000
0000
0000
0000
0000
0000
0000
0000
0000
0000
0000
0000
0000
0000
0000
0000
0000
M0MM
0000
0000
0000
0000
0000
0000
0000
0000
0000
0000
0000
0000
0000
0000
0000
0000
0000
0000
0000
0000
0000
0000
0000
,  // measure 16
0001
0000
0010
0000
0100
0000
0020
0000
0001
0030
0010
0000
0100
0000
0010
0000
,  // measure 17
0001
0100
1000
0100
0002
0000
1003
0000
,  // measure 18
1000
0000
0010
0000
0100
0000
0020
0000
1000
0030
0010
0000
0100
0000
0010
0000
,  // measure 19
1000
0100
0001
0100
0010
0100
1000
0000
,  // measure 20
1000
0000
0010
0000
0100
0000
0020
0000
1000
0030
0010
0000
0100
0000
0010
0000
,  // measure 21
1000
0000
0100
0000
0001
0000
0100
0000
2000
0000
0000
0000
3010
0100
0010
0100
,  // measure 22
0001
0000
0010
0000
0100
0000
0020
0000
0001
0030
0010
0000
0100
0000
0010
0000
,  // measure 23
0002
0003
0200
0300
2000
3000
0200
0300
0002
0000
1003
0000
0200
0000
0300
0000
,  // measure 24
0110
0010
0000
0011
0000
0101
0000
0011
,  // measure 25
0000
0001
0100
1000
0100
0001
MMM0
0000
,  // measure 26
0010
0100
0000
1100
0000
1010
0000
1000
,  // measure 27
0200
0300
0002
0003
0200
0300
2000
3000
0002
0000
0103
0000
0020
0000
0030
0000
,  // measure 28
0110
0010
0000
1010
0000
1100
0000
1010
,  // measure 29
0000
1000
0100
0001
0100
1000
2000
0000
,  // measure 30
3001
0000
0100
0000
MMM0
0000
1000
0000
0100
0000
0MMM
0000
0002
0003
0200
0300
,  // measure 31
0010
0100
0010
0100
0002
0000
0003
0000
2000
0000
3100
0000
0010
0000
0001
0000
,  // measure 32
0000
0001
0100
0010
0000
1010
0000
1000
,  // measure 33
0001
0010
0200
0000
1300
0001
0100
0001
,  // measure 34
0001
1000
0100
0010
0000
0011
0000
0001
,  // measure 35
0100
0000
0010
0000
1000
0000
0001
0000
0200
0000
0000
0300
1010
0000
0000
0000
,  // measure 36
1000
0001
0010
0100
0000
1100
0000
1000
,  // measure 37
0001
0100
0020
0000
1030
0001
0010
0001
,  // measure 38
0001
1000
0010
0100
0000
0101
0000
0001
,  // measure 39
0010
0000
0100
0000
1000
0000
0001
0000
0200
0000
0300
0000
000M
00M0
0M00
M000
,  // measure 40
0000
MM00
M0M0
1010
0000
1000
0100
0001
,  // measure 41
0200
0000
1300
0010
0100
0010
0010
1000
,  // measure 42
0100
0001
0000
0101
0000
0100
1000
0001
,  // measure 43
0100
0010
2000
0000
3100
0010
0001
0100
,  // measure 44
0010
1000
0000
1001
0000
0001
0010
1000
,  // measure 45
0020
0000
0031
0100
0010
1000
1000
0001
,  // measure 46
0100
0000
0000
0000
1000
0000
0000
0000
0000
0000
0000
0000
1100
0000
0000
0000
0000
0000
0100
0000
0010
0000
0100
0000
0001
0000
1000
0000
0200
0000
0000
0300
,  // measure 47
022M
0000
0000
0000
0000
0000
0000
0000
0000
0000
0000
0000
M000
0000
0000
0000
0000
0000
0000
0000
0000
0000
0030
0300
,  // measure 48
000M
000M
000M
000M
0M00
0M00
0M00
0M00
,  // measure 49
M002
0000
0000
0M00
0000
0000
00M0
0000
0000
0M00
0000
0000
00M0
0000
0000
M000
0000
0000
0M00
0000
0000
M000
0000
0000
0M23
0000
0000
M000
0000
0000
0M00
0000
,  // measure 50
0000
M000
0000
0000
000M
0000
0000
0M00
0000
0000
000M
0000
0000
M000
0000
0000
0230
0000
0000
M000
0000
0000
00M0
0000
0000
M000
0000
0000
00M0
0000
0000
000M
,  // measure 51
0000
0000
00M0
0000
0000
000M
0000
0000
23M0
0000
0000
000M
0000
0000
00M0
0000
0000
0M00
0000
0000
000M
0000
0000
00M0
0000
0000
000M
0000
0000
00M0
0000
0000
,  // measure 52
3100
0010
0001
0010
0100
1000
0100
0002
,  // measure 53
0000
0103
0010
0100
1000
0001
0100
0020
,  // measure 54
0000
0130
0001
0100
0010
1000
0100
0020
,  // measure 55
0000
0031
0010
0100
0010
0001
1000
0001
,  // measure 56
0100
0010
1000
0010
0100
0001
0100
2000
,  // measure 57
0000
3100
0010
0100
0001
1000
0100
0020
,  // measure 58
0000
0130
1000
0100
0010
0001
0100
0020
,  // measure 59
0000
1030
0010
0100
0001
1000
0100
0010
,  // measure 60
0012
1003
1020
0130
,  // measure 61
0102
1003
1200
0310
,  // measure 62
0021
0130
2100
3001
,  // measure 63
0201
0310
2010
3001
,  // measure 64
0011
1001
1010
1001
,  // measure 65
1100
1001
0101
1001
,  // measure 66
1100
0011
1001
1010
,  // measure 67
0201
0010
0301
MMMM
,  // measure 68
1000
0100
0010
0100
0001
0100
0010
0100
,  // measure 69
1000
0001
0100
0010
0100
1000
0100
0100
,  // measure 70
0001
0010
0100
0010
1000
0010
0100
0010
,  // measure 71
0001
1000
0010
0100
0010
0001
0010
0010
,  // measure 72
1000
1000
0100
0100
0001
0001
0010
0010
,  // measure 73
1000
0100
0001
0100
1000
0010
0001
0020
,  // measure 74
0200
0000
0000
0000
0000
0000
0330
0000
0010
0100
0010
0100
0001
1000
1001
0000
,  // measure 75
0000
0000
0000
0000
0101
0000
0100
0010
0100
0000
0001
0100
0001
0000
1000
0000
,  // measure 76
0100
0000
0020
0000
0000
0000
0031
0010
0001
0000
1000
0010
1000
0000
0001
0000
,  // measure 77
0100
0000
2000
0000
0000
0000
3100
0010
0100
0000
0001
0100
0001
0000
1000
0000
,  // measure 78
0100
0000
0002
0000
0000
0000
0103
0010
0100
0000
1000
0001
1000
0000
0010
0000
,  // measure 79
0100
0000
0001
0000
0010
0000
0100
0010
0100
0000
1000
0100
1000
0000
0001
0000
,  // measure 80
0100
0000
0020
0000
0000
0000
1030
0010
1000
0000
0001
0010
0001
0000
1000
0000
,  // measure 81
0100
0000
0002
0000
0000
0000
0103
0010
0100
0000
1000
0100
1000
0000
0001
0000
,  // measure 82
0100
0000
0010
0000
2000
3000
0200
0300
0002
0003
0200
0300
2000
0000
3001
0000
,  // measure 83
0200
0000
0300
0000
1010
0000
0010
1000
0010
0000
0100
0010
0100
0000
0001
0000
,  // measure 84
0000
0000
0021
0000
0000
0000
0130
1000
0100
0000
0010
0100
0010
0000
0001
0000
,  // measure 85
MMM0
0000
0102
0000
0000
0000
1003
0010
1000
0000
0010
0100
0010
0000
0100
0000
,  // measure 86
0000
0102
0000
MM13
0000
M11M
0000
M1M0
,  // measure 87
10MM
0000
0000
0000
0001
0000
0010
0001
0010
0000
0100
0010
0100
0000
1000
0000
,  // measure 88
0000
0000
1020
0000
0000
0000
0130
0001
0100
0000
0010
0100
0010
0000
1000
0000
,  // measure 89
0MMM
0000
2100
0000
0000
0000
3001
1000
0001
0000
0010
0001
0010
0000
0100
0000
,  // measure 90
0000
1000
2001
0000
0010
0000
3001
0001
,  // measure 91
0010
0000
1100
0100
0001
0100
1000
0100
,  // measure 92
0001
0000
1000
0000
0010
0000
0001
0000
0010
0000
0100
0000
1000
0000
0000
1001
,  // measure 93
0MM0
0001
0001
0100
1000
0100
0001
0100
,  // measure 94
1000
0000
0001
0000
0010
0000
1000
0000
0010
0000
0100
0000
0001
0000
0000
1001
,  // measure 95
0000
2000
3100
0200
0301
0002
0103
0200
,  // measure 96
1300
0000
2000
0000
3010
0000
0020
0000
0031
0000
0002
0000
0013
0000
0020
1030
,  // measure 97
0M0M
0000
0002
0000
2003
0002
00M0
0M00
00M0
0M00
00M0
0M00
00M0
0M00
00M0
0M00
,  // measure 98
30M0
0M00
0023
0000
0000
0000
0031
1000
0020
0000
1030
0001
0010
0000
0100
0000
,  // measure 99
1000
0001
0100
0010
0000
0010
1000
0100
,  // measure 100
0000
0110
0000
0100
0001
0100
2000
0000
,  // measure 101
3010
0000
0100
0000
0002
2000
00M0
0M00
00M0
0M00
00M0
0M00
00M0
0M00
00M0
0M00
,  // measure 102
00M0
0M00
00M0
0M00
30M0
0103
1000
0100
0001
0010
0100
0000
2200
0000
0000
0000
,  // measure 103
0000
0000
0000
3300
;

//---------------dance-single - Definitely smoother pad play? Jumps galore. =P----------------
#NOTES:
     dance-single:
     ITG 07 X 10:
     Medium:
     7:
     0.577981,0.720798,0.596664,0.539449,0.036781,495.000000,422.000000,73.000000,66.000000,28.000000,4.000000,0.577981,0.720798,0.596664,0.539449,0.036781,495.000000,422.000000,73.000000,66.000000,28.000000,4.000000:
// measure 0
0000
0000
0000
0000
,  // measure 1
2200
0000
3300
0000
0100
0010
0001
0000
,  // measure 2
1000
0100
0000
0020
0000
0000
0031
0000
,  // measure 3
0000
0000
1000
0000
0010
0100
0001
0000
,  // measure 4
1000
0100
0000
0010
0001
0000
0100
0000
,  // measure 5
0202
0000
0303
0000
0100
0010
1000
0000
,  // measure 6
0001
0100
0000
0020
0000
0000
1030
0000
,  // measure 7
0000
0000
0001
0000
0010
0100
1000
0000
,  // measure 8
0001
0100
0000
0010
1000
0000
0100
0000
,  // measure 9
0011
0010
0010
0010
,  // measure 10
0100
0100
0100
0100
,  // measure 11
1000
1000
0001
0001
,  // measure 12
0100
0100
0010
0010
,  // measure 13
1010
1100
0011
0101
,  // measure 14
0100
0010
0100
0001
1000
0100
0010
0100
,  // measure 15
2000
0000
0000
0000
0000
0000
0000
0000
0000
0000
0000
0000
0000
3000
0000
0000
0000
0000
0000
0000
0000
0000
0000
0000
0000
0000
0000
0000
0000
0000
0000
0000
0000
0000
0000
0000
0011
0000
0000
0000
0000
0000
0000
0000
0000
0000
0000
0000
,  // measure 16
0001
1000
0000
1020
0000
0100
0000
1030
,  // measure 17
0000
0001
0010
0000
1200
0000
0310
0000
,  // measure 18
0100
1000
0000
0021
0000
0100
0000
0031
,  // measure 19
0000
0001
0010
0000
0110
0000
0100
0000
,  // measure 20
1000
0001
0000
0201
0000
0010
0000
0301
,  // measure 21
0000
1000
0010
0000
0201
0000
0010
0000
,  // measure 22
0301
1000
0000
1200
0000
0010
0000
1300
,  // measure 23
0002
1000
0010
0103
,  // measure 24
1001
0000
1000
0020
0000
0001
0000
1000
,  // measure 25
0000
0100
0000
0130
0002
0000
1003
0000
,  // measure 26
1001
0000
1000
0200
0000
0001
0000
0310
,  // measure 27
0002
1000
0010
0103
,  // measure 28
1001
0000
0001
0020
0000
1000
0000
0001
,  // measure 29
0000
0100
0000
0130
2000
0000
3001
0000
,  // measure 30
0110
0000
MMMM
1001
0000
MMMM
2000
0000
,  // measure 31
0001
0010
3100
2002
,  // measure 32
3003
0000
1000
0100
0000
0100
0000
0001
,  // measure 33
0010
0000
0010
0000
2000
0000
3001
1000
,  // measure 34
0000
0001
1000
0100
0000
0100
0000
0001
,  // measure 35
0010
0010
1000
1001
,  // measure 36
0000
1000
0001
0100
0000
0100
0000
1000
,  // measure 37
0010
0000
0010
0000
0002
0000
1003
0001
,  // measure 38
0000
1000
0001
0100
0000
0100
0000
1000
,  // measure 39
0010
0010
0001
MMMM
,  // measure 40
0000
0000
0000
1001
0000
0001
0020
0000
,  // measure 41
0230
0000
1300
0000
0010
0100
0000
0010
,  // measure 42
0100
0001
0000
0001
0000
1000
0200
0000
,  // measure 43
0320
0000
0031
0000
1001
0000
0000
0001
,  // measure 44
0010
0100
0000
0100
0000
1000
0020
0000
,  // measure 45
0230
0000
0301
0000
0010
0100
0000
0010
,  // measure 46
0100
1000
0000
2200
0000
0000
0000
0000
,  // measure 47
0022
0000
0000
0000
0000
0000
0000
0000
0000
0000
0000
0000
0000
0000
0000
0000
0000
0000
0000
0000
0000
0003
0030
0300
,  // measure 48
3000
0000
0000
0000
,  // measure 49
0M00
0000
0000
0M00
0000
0000
0M00
0000
0000
0M00
0000
0000
00M0
0000
0000
00M0
,  // measure 50
0000
0000
00M0
0000
0000
00M0
0000
0000
000M
0000
0000
000M
0000
0000
000M
0000
,  // measure 51
0000
000M
0000
0000
M000
0000
0000
M000
0000
0000
M000
0000
0000
M000
0000
0000
,  // measure 52
0101
0000
0001
0000
1000
0100
0000
0002
,  // measure 53
0000
0003
0001
0000
0100
1000
0000
0020
,  // measure 54
0000
0030
0010
0000
0100
0001
0000
0020
,  // measure 55
0000
0030
0010
0000
0100
1000
0100
0000
,  // measure 56
1000
0000
1000
0000
0001
0100
0000
2000
,  // measure 57
0000
3000
1000
0000
0100
0001
0000
0020
,  // measure 58
0000
0030
0010
0000
0100
1000
0000
0020
,  // measure 59
0000
0030
0010
0000
0100
0001
1000
0000
,  // measure 60
1100
0100
0100
0100
,  // measure 61
0010
0010
0010
0010
,  // measure 62
0001
0001
0001
0001
,  // measure 63
1000
1000
1000
1000
,  // measure 64
0010
0010
0100
0100
,  // measure 65
0001
0001
0010
0010
,  // measure 66
0100
0100
1000
1000
,  // measure 67
0010
0100
2002
3003
,  // measure 68
0001
0001
0010
0010
,  // measure 69
1000
1000
0100
0100
,  // measure 70
0001
0001
0100
0100
,  // measure 71
1000
1000
0010
0010
,  // measure 72
0011
0101
1010
1100
,  // measure 73
0100
0010
0100
1000
0001
0100
0010
0200
,  // measure 74
0002
0000
0000
0000
0010
1000
1010
0303
,  // measure 75
0000
0000
0101
0000
0011
0000
0010
1000
,  // measure 76
0000
1200
0000
0000
0301
0000
0001
0010
,  // measure 77
0000
0210
0000
0000
1300
0000
0001
0100
,  // measure 78
0000
1020
0000
0000
0130
0000
0001
0010
,  // measure 79
0100
0000
1100
0000
1010
0000
0010
0001
,  // measure 80
0000
0201
0000
0000
1300
0000
1000
0010
,  // measure 81
0000
0120
0000
0000
1030
0000
0001
0010
,  // measure 82
0000
0100
2000
0000
0001
0000
0010
0000
,  // measure 83
3100
0000
1001
0000
0001
0200
0000
1000
,  // measure 84
0000
0001
0000
0010
0000
0001
0000
0301
,  // measure 85
0010
0000
1001
0000
1000
0200
0000
0001
,  // measure 86
0000
0310
0000
0011
0000
0101
0000
0100
,  // measure 87
0010
0000
1001
0000
0001
0020
0000
1000
,  // measure 88
0000
0001
0000
0100
0000
0001
0000
0031
,  // measure 89
0100
0000
1001
0000
1000
0020
0000
0001
,  // measure 90
0000
0130
0001
0000
1001
0000
1000
0001
,  // measure 91
1000
1010
0101
1010
,  // measure 92
1001
0011
1100
0021
,  // measure 93
1000
0130
1100
0011
,  // measure 94
1100
1010
0101
2010
,  // measure 95
0100
0000
3001
0010
0000
1010
0000
1100
,  // measure 96
0000
0101
0000
1100
0000
1010
0000
0011
,  // measure 97
0000
0002
0100
0000
0100
0000
0103
0010
,  // measure 98
0000
1020
0000
0000
1000
0000
0130
0001
,  // measure 99
1000
0000
2002
0000
3003
1000
0001
0010
,  // measure 100
0000
0010
0000
1000
0100
0000
0100
0000
,  // measure 101
0001
0000
2002
0000
3003
0001
1000
0010
,  // measure 102
0000
0000
0010
0000
0000
0001
0200
0000
1000
0000
0310
0000
2002
0000
0000
0000
,  // measure 103
0000
0000
0000
3003
;

//---------------dance-single - So much multiple choice potential here.----------------
#NOTES:
     dance-single:
     ITG 05 X 08:
     Easy:
     5:
     0.471726,0.635998,0.392327,0.441368,0.000000,404.000000,356.000000,48.000000,54.000000,0.000000,0.000000,0.471726,0.635998,0.392327,0.441368,0.000000,404.000000,356.000000,48.000000,54.000000,0.000000,0.000000:
// measure 0
0000
0000
0000
0000
,  // measure 1
1001
0000
0001
0010
,  // measure 2
0100
0000
0000
2200
0000
0000
3300
0000
,  // measure 3
0000
1000
1000
0010
,  // measure 4
0100
0000
0000
0100
0001
0000
0000
0000
,  // measure 5
1001
0000
1000
0100
,  // measure 6
0010
0000
0000
0022
0000
0000
0033
0000
,  // measure 7
0000
0001
0001
0100
,  // measure 8
0010
0000
0000
0010
2000
0000
3000
0000
,  // measure 9
1001
0001
0100
0001
,  // measure 10
0100
0010
1000
0010
,  // measure 11
1000
0100
1000
0100
,  // measure 12
1000
0001
0010
0001
,  // measure 13
0010
0100
1000
0010
,  // measure 14
0011
1010
0011
1010
,  // measure 15
0110
0000
0000
1001
,  // measure 16
1000
0000
1000
0100
,  // measure 17
0010
0001
0200
0300
,  // measure 18
1000
0000
1000
0100
,  // measure 19
0010
0001
1000
0100
,  // measure 20
0001
0000
0001
0100
,  // measure 21
0010
1000
0200
0300
,  // measure 22
0001
0000
0001
0100
,  // measure 23
0010
1000
0001
0100
,  // measure 24
0220
0330
0000
0001
0000
0001
0000
1000
,  // measure 25
0000
1000
0000
0001
0000
0100
0010
0000
,  // measure 26
0220
0330
0000
1000
0000
1000
0000
0001
,  // measure 27
0100
0010
1000
0001
,  // measure 28
0220
0330
0000
1000
0000
1000
0000
0001
,  // measure 29
0000
0001
0000
1000
0000
0100
0010
0000
,  // measure 30
0220
0330
0000
2002
3003
0000
0100
0000
,  // measure 31
0010
0000
0001
0000
1000
0000
0220
0330
,  // measure 32
0000
0000
0001
1000
0000
1000
0000
1000
,  // measure 33
0010
0100
0002
1003
,  // measure 34
0000
0000
1000
0100
0000
0100
0000
0100
,  // measure 35
0010
0001
1000
1001
,  // measure 36
0000
0000
1000
0001
0000
0001
0000
0001
,  // measure 37
0010
0100
2000
3001
,  // measure 38
0000
0000
0001
0100
0000
0100
0000
0100
,  // measure 39
0010
1000
0002
2000
,  // measure 40
0000
3000
0003
0011
0000
0000
0001
0000
,  // measure 41
0100
1000
0100
0001
,  // measure 42
1000
0100
0000
0100
0000
0100
0010
0000
,  // measure 43
0001
1000
1010
0000
,  // measure 44
0100
0001
0000
0001
0000
0001
1000
0000
,  // measure 45
0100
0001
0100
1000
,  // measure 46
0001
0100
0000
0200
0000
0000
0000
0000
,  // measure 47
0020
0000
0000
0000
,  // measure 48
0330
0000
0000
0000
,  // measure 49
0000
0000
0000
0000
,  // measure 50
0000
0000
0000
0000
,  // measure 51
0000
0000
0000
0000
,  // measure 52
1001
0000
1000
0000
0100
0000
0000
0020
,  // measure 53
0000
0000
0031
0000
0001
0000
0000
2000
,  // measure 54
0000
0000
3100
0000
0100
0000
0000
0020
,  // measure 55
0000
0031
0001
1000
,  // measure 56
0001
0000
0001
0000
0100
0000
0000
0020
,  // measure 57
0000
0000
1030
0000
1000
0000
0000
0002
,  // measure 58
0000
0000
0103
0000
0100
0000
0000
0020
,  // measure 59
0000
1030
1000
0001
,  // measure 60
1000
0100
1000
0100
,  // measure 61
0010
0001
0010
0001
,  // measure 62
0100
0001
0100
0001
,  // measure 63
1000
0010
1000
0010
,  // measure 64
0100
0001
1000
0001
,  // measure 65
0010
0100
1000
0001
,  // measure 66
1000
0010
0100
0001
,  // measure 67
2000
0001
0002
3003
,  // measure 68
0001
0100
0010
1000
,  // measure 69
0001
0010
0100
1000
,  // measure 70
0001
0100
0010
1000
,  // measure 71
0100
0010
0001
0100
,  // measure 72
1000
0100
0001
0010
,  // measure 73
1010
0011
1010
0011
,  // measure 74
0220
0000
0000
0000
0330
0000
0000
1001
,  // measure 75
0000
0000
0001
0000
0001
0000
0001
1000
,  // measure 76
0000
0020
0000
0000
0100
0000
0130
0001
,  // measure 77
0000
2000
0000
0000
0001
0000
3001
0010
,  // measure 78
0000
0200
0000
0000
1000
0000
1300
0000
,  // measure 79
0010
0000
1010
0000
1000
0000
1000
0001
,  // measure 80
0000
0020
0000
0000
0100
0000
0130
1000
,  // measure 81
0000
0002
0000
0000
1000
0000
1003
0010
,  // measure 82
0000
0100
0001
0000
0010
0000
0100
0000
,  // measure 83
1000
0000
2002
3003
0000
0010
0000
0010
,  // measure 84
0000
0100
0000
0100
0000
0001
0000
0001
,  // measure 85
1000
0000
0220
0330
0000
0001
0000
0001
,  // measure 86
0000
0100
0000
0010
0000
0010
0000
1000
,  // measure 87
0001
0000
2002
3003
0000
0010
0000
0010
,  // measure 88
0000
0100
0000
0100
0000
1000
0000
1000
,  // measure 89
0001
0000
0220
0330
0000
1000
0000
1000
,  // measure 90
0000
0100
0001
0000
0100
0000
1100
0000
,  // measure 91
0000
0102
0100
1000
,  // measure 92
1000
0010
0010
1003
,  // measure 93
2001
0100
0100
0001
,  // measure 94
0001
0010
0010
3001
,  // measure 95
1001
0010
1001
0010
,  // measure 96
1001
0100
1001
0100
,  // measure 97
1001
1010
1001
0011
,  // measure 98
1000
0020
0000
0000
0000
0000
0130
0000
,  // measure 99
0001
0000
1001
0000
0000
0000
0001
0100
,  // measure 100
0000
0100
0000
0100
0010
0000
2000
0000
,  // measure 101
3100
0011
1001
1010
,  // measure 102
0001
0010
0000
0000
0000
0000
0220
0000
,  // measure 103
0000
0000
0000
0330
;

//---------------dance-single - Lots of 4th jacks.----------------
#NOTES:
     dance-single:
     ITG 03 X 05:
     Beginner:
     3:
     0.352627,0.587877,0.539449,0.000000,0.000000,302.000000,236.000000,66.000000,0.000000,0.000000,0.000000,0.352627,0.587877,0.539449,0.000000,0.000000,302.000000,236.000000,66.000000,0.000000,0.000000,0.000000:
// measure 0
0000
0000
0000
0000
,  // measure 1
1001
0000
1000
1000
,  // measure 2
1000
0000
0001
0000
,  // measure 3
0000
0000
0001
0001
,  // measure 4
0001
0000
1000
0000
,  // measure 5
1001
0000
0100
0100
,  // measure 6
0100
0000
0010
0000
,  // measure 7
0000
0000
0010
0010
,  // measure 8
0010
0000
0100
0000
,  // measure 9
1001
0000
1001
0000
,  // measure 10
0110
0000
0110
0000
,  // measure 11
1001
0000
0110
0000
,  // measure 12
1001
0000
0110
0000
,  // measure 13
0001
0001
0001
0000
,  // measure 14
1000
1000
1000
0000
,  // measure 15
1001
0000
0000
0000
,  // measure 16
1001
0000
1000
0000
,  // measure 17
0010
0010
0010
0000
,  // measure 18
1001
0000
0001
0000
,  // measure 19
0010
0010
0010
0000
,  // measure 20
1001
0000
1000
0000
,  // measure 21
0100
0100
0100
0000
,  // measure 22
1001
0000
0001
0000
,  // measure 23
0100
0100
0100
0000
,  // measure 24
0110
0000
0001
0001
,  // measure 25
0001
0001
0001
0000
,  // measure 26
0110
0000
1000
1000
,  // measure 27
1000
1000
1000
0000
,  // measure 28
0110
0000
0001
0001
,  // measure 29
0001
0001
0001
0000
,  // measure 30
0110
0000
0000
1001
0000
0000
0010
0000
,  // measure 31
0010
0010
0000
1001
,  // measure 32
0000
0000
0001
0001
,  // measure 33
0000
0100
0000
0110
,  // measure 34
0000
0000
0010
0010
,  // measure 35
0000
1000
0000
1001
,  // measure 36
0000
0000
1000
1000
,  // measure 37
0000
0100
0000
0110
,  // measure 38
0000
0000
0010
0010
,  // measure 39
0000
0001
0000
0000
,  // measure 40
0000
0000
0000
1001
0000
0000
0000
0000
,  // measure 41
0001
0000
0010
0000
,  // measure 42
0100
0100
0100
0000
,  // measure 43
1000
0000
1001
0000
,  // measure 44
1000
1000
1000
0000
,  // measure 45
0010
0000
0100
0000
,  // measure 46
0001
0001
0000
0000
,  // measure 47
1001
0000
0000
0000
,  // measure 48
0000
0000
0000
0000
,  // measure 49
0000
0000
0000
0000
,  // measure 50
0000
0000
0000
0000
,  // measure 51
0000
0000
0000
0000
,  // measure 52
1001
0000
0000
0000
1000
0000
0000
1000
,  // measure 53
0000
0000
0000
0000
0100
0000
0000
0100
,  // measure 54
0000
0000
0000
0000
0010
0000
0000
0010
,  // measure 55
0000
0000
0001
0000
,  // measure 56
1001
0000
0000
0000
0001
0000
0000
0001
,  // measure 57
0000
0000
0000
0000
0100
0000
0000
0100
,  // measure 58
0000
0000
0000
0000
0010
0000
0000
0010
,  // measure 59
0000
0000
1000
0000
,  // measure 60
1001
0000
1001
0000
,  // measure 61
1001
0000
1001
0000
,  // measure 62
0110
0000
0110
0000
,  // measure 63
0110
0000
0110
0000
,  // measure 64
1001
0000
1001
0000
,  // measure 65
0110
0000
0110
0000
,  // measure 66
1001
0000
0110
0000
,  // measure 67
1001
0000
0000
0000
,  // measure 68
1000
1000
1000
0000
,  // measure 69
1001
0000
0110
0000
,  // measure 70
0001
0001
0001
0000
,  // measure 71
1001
0000
0110
0000
,  // measure 72
0010
0010
0010
0010
,  // measure 73
0010
0010
0010
0000
,  // measure 74
0110
0000
0000
0000
,  // measure 75
0000
1001
0000
1000
,  // measure 76
1000
1000
0000
0001
,  // measure 77
0001
0001
0000
0100
,  // measure 78
0100
0100
0000
0010
,  // measure 79
0000
1001
0000
0001
,  // measure 80
0001
0001
0000
1000
,  // measure 81
1000
1000
0000
0100
,  // measure 82
0100
0100
0000
0010
,  // measure 83
0000
0110
0000
0001
,  // measure 84
0001
0001
0001
0001
,  // measure 85
0000
0110
0000
1000
,  // measure 86
1000
1000
1000
1000
,  // measure 87
0000
0110
0000
0001
,  // measure 88
0001
0001
0001
0001
,  // measure 89
0000
0110
0000
1000
,  // measure 90
1000
1000
0000
0001
,  // measure 91
0000
1000
1000
1000
,  // measure 92
1000
1000
1000
1000
,  // measure 93
0000
0001
0001
0001
,  // measure 94
0001
0001
0001
0001
,  // measure 95
0000
1001
0000
0110
,  // measure 96
0000
1001
0000
0110
,  // measure 97
0000
1001
1001
1001
,  // measure 98
1001
1001
0000
0000
,  // measure 99
0000
1001
0000
0001
,  // measure 100
0001
0001
0000
0100
,  // measure 101
0000
1000
1000
1000
,  // measure 102
1000
1000
0000
0110
;
